osu file format v14

[General]
AudioFilename: audio.mp3
AudioLeadIn: 0
PreviewTime: 49853
Countdown: 0
SampleSet: Soft
StackLeniency: 0.7
Mode: 0
LetterboxInBreaks: 0
WidescreenStoryboard: 0

[Editor]
Bookmarks: 31882,59051,102070
DistanceSpacing: 1.2
BeatDivisor: 4
GridSize: 32
TimelineZoom: 2.4

[Metadata]
Title:Toy Day (Orchestral Remix)
TitleUnicode:Toy Day (Orchestral Remix)
Artist:Manaka Kataoka & Atsuko Asahi
ArtistUnicode:朝日温子 & 片岡真央
Creator:PolkaMocha
Version:December 25th (Hard)
Source:とびだせ どうぶつの森
Tags:Christmas Holiday Winter Toy Day Animal Crossing: Crossing New Leaf Newleaf Nintendo Console Video Game
BeatmapID:1137002
BeatmapSetID:536538

[Difficulty]
HPDrainRate:5
CircleSize:4
OverallDifficulty:5
ApproachRate:7
SliderMultiplier:1.8
SliderTickRate:1

[Events]
//Background and Video events
0,0,"Photos-Desktop-Animal-Crossing.jpg",0,0
//Break Periods
2,59251,64869
//Storyboard Layer 0 (Background)
//Storyboard Layer 1 (Fail)
//Storyboard Layer 2 (Pass)
//Storyboard Layer 3 (Foreground)
//Storyboard Sound Samples

[TimingPoints]
184,566.037735849057,4,2,0,80,1,0
4712,-100,4,2,0,100,0,1
4853,-100,4,2,1,70,0,0
5136,-100,4,2,1,5,0,0
5278,-100,4,2,1,70,0,0
8533,-100,4,2,1,5,0,0
8674,-100,4,2,1,70,0,0
11929,-100,4,2,1,5,0,0
12070,-100,4,2,1,70,0,0
13768,-100,4,2,0,100,0,1
13910,-100,4,2,1,70,0,0
14193,-100,4,2,1,5,0,0
14334,-100,4,2,1,70,0,0
18721,-100,4,2,1,5,0,0
18863,-100,4,2,1,70,0,0
20985,-100,4,2,1,5,0,0
21127,-100,4,2,1,70,0,0
23250,-100,4,2,1,5,0,0
23391,-100,4,2,1,70,0,0
27778,-100,4,2,1,5,0,0
27919,-100,4,2,1,70,0,0
31174,-100,4,2,1,5,0,0
31316,-100,4,2,1,70,0,0
31882,-100,4,2,0,100,0,0
32023,-100,4,2,1,70,0,0
33438,-100,4,2,1,5,0,0
33580,-100,4,2,1,70,0,0
37967,-100,4,2,1,5,0,0
38108,-100,4,2,1,70,0,0
45467,-100,4,2,0,100,0,0
45608,-100,4,2,1,70,0,0
49995,-83.3333333333333,4,2,0,100,0,1
50136,-83.3333333333333,4,2,1,100,0,1
50419,-83.3333333333333,4,2,1,5,0,1
50561,-83.3333333333333,4,2,1,100,0,1
52684,-83.3333333333333,4,2,1,5,0,1
52825,-83.3333333333333,4,2,1,100,0,1
54948,-83.3333333333333,4,2,1,5,0,1
55089,-83.3333333333333,4,2,1,100,0,1
57212,-83.3333333333333,4,2,1,5,0,1
57353,-83.3333333333333,4,2,1,100,0,1
59051,-100,4,2,1,100,0,0
68108,-83.3333333333333,4,2,0,100,0,1
68250,-83.3333333333333,4,2,1,100,0,1
68533,-83.3333333333333,4,2,1,5,0,1
68674,-83.3333333333333,4,2,1,100,0,1
73061,-83.3333333333333,4,2,1,5,0,1
73202,-83.3333333333333,4,2,1,100,0,1
77165,-100,4,2,1,70,0,0
90750,-100,4,2,1,60,0,0
95844,-100,4,2,1,50,0,0
97542,-100,4,2,1,40,0,0
99806,-100,4,2,1,30,0,0
102070,-100,4,2,1,5,0,0

[Colours]
Combo1 : 255,47,47
Combo2 : 74,255,74
Combo3 : 253,123,104
Combo4 : 0,204,0
SliderBorder : 153,255,255

[HitObjects]
256,192,184,12,2,4146,0:0:0:0:
0,172,4712,6,0,B|76:172|76:172|132:212,1,135,4|0,0:0|0:0,0:0:0:0:
164,244,5278,1,8,0:0:0:0:
232,160,5561,1,0,0:0:0:0:
300,244,5844,2,0,P|311:290|284:356,1,90
228,152,6410,2,0,P|217:106|244:40,1,90,8|0,0:0|0:0,0:0:0:0:
324,112,6976,1,0,0:0:0:0:
324,112,7259,1,0,0:0:0:0:
424,72,7542,2,0,P|433:115|422:158,1,90,8|0,0:0|0:0,0:0:0:0:
432,268,8108,2,0,B|356:220|356:220|292:220,1,135
268,252,8674,1,8,0:0:0:0:
196,168,8957,1,0,0:0:0:0:
128,252,9240,5,0,0:0:0:0:
128,252,9523,1,0,0:0:0:0:
60,168,9806,2,0,B|48:124|48:124|60:80,1,90,8|0,0:0|0:0,0:0:0:0:
196,81,10372,2,0,B|207:123|207:123|195:167,1,90
128,252,10938,1,8,0:0:0:0:
128,360,11221,1,0,0:0:0:0:
220,304,11504,2,0,B|288:272|284:340|380:304,1,135,4|0,0:0|0:0,0:0:0:0:
404,296,12070,1,8,0:0:0:0:
332,216,12353,1,0,0:0:0:0:
404,136,12636,2,0,P|414:90|392:32,1,90,4|0,0:0|0:0,0:0:0:0:
332,216,13202,2,0,P|322:262|344:320,1,90,12|0,0:0|0:0,0:0:0:0:
300,100,13768,6,0,P|244:80|152:124,1,135,6|0,0:0|0:0,0:0:0:0:
128,68,14334,1,14,0:0:0:0:
40,132,14617,1,2,0:0:0:0:
136,184,14900,2,0,L|192:276,1,90,10|0,0:0|0:0,0:0:0:0:
244,352,15467,1,12,0:0:0:0:
304,264,15750,1,2,0:0:0:0:
304,264,15891,1,2,0:0:0:0:
304,264,16033,2,0,P|360:256|416:276,1,90,10|0,0:0|0:0,0:0:0:0:
511,159,16599,2,0,P|468:168|424:160,1,90,14|2,0:0|0:0,0:0:0:0:
348,76,17165,1,10,0:0:0:0:
348,76,17306,1,2,0:0:0:0:
348,76,17448,1,2,0:0:0:0:
276,160,17731,1,14,0:0:0:0:
212,72,18014,1,2,0:0:0:0:
152,160,18297,6,0,P|132:216|160:304,1,135,10|0,0:0|0:0,0:0:0:0:
188,324,18863,1,12,0:0:0:0:
268,252,19146,1,0,0:0:0:0:
348,324,19429,2,0,B|392:336|392:336|456:316,1,90,8|0,0:0|0:0,0:0:0:0:
484,228,19995,2,0,B|440:216|440:216|376:236,1,90,12|0,0:0|0:0,0:0:0:0:
408,124,20561,2,0,L|252:176,1,135,8|0,0:0|0:0,0:0:0:0:
232,184,21127,1,12,0:0:0:0:
232,76,21410,1,0,0:0:0:0:
132,32,21693,2,0,P|121:81|146:143,1,90,8|0,0:0|0:0,0:0:0:0:
230,162,22259,2,0,P|241:113|216:51,1,90,12|4,0:0|0:0,0:0:0:0:
168,232,22825,6,0,P|224:252|320:212,1,135,10|0,0:0|0:0,0:0:0:0:
328,192,23391,1,14,0:0:0:0:
404,268,23674,1,2,0:0:0:0:
324,344,23957,2,0,L|232:380,1,90,10|0,0:0|0:0,0:0:0:0:
200,276,24523,2,0,L|116:309,1,90,12|2,0:0|0:0,0:0:0:0:
116,309,24948,1,2,0:0:0:0:
116,309,25089,1,10,0:0:0:0:
16,348,25372,1,0,0:0:0:0:
36,240,25655,2,0,P|28:192|40:148,1,90,14|2,0:0|0:0,0:0:0:0:
132,96,26221,1,10,0:0:0:0:
132,96,26363,1,2,0:0:0:0:
132,96,26504,1,2,0:0:0:0:
224,156,26787,2,0,P|232:204|220:248,1,90,14|6,0:0|0:0,0:0:0:0:
168,336,27353,6,0,B|264:336|264:336|315:310,1,135,10|0,0:0|0:0,0:0:0:0:
344,344,27919,1,12,0:0:0:0:
420,268,28202,1,0,0:0:0:0:
344,192,28485,2,0,L|344:102,1,90,10|0,0:0|0:0,0:0:0:0:
268,24,29051,2,0,L|252:120,1,90,12|0,0:0|0:0,0:0:0:0:
432,112,29617,2,0,L|417:23,1,90,10|4,0:0|0:0,0:0:0:0:
268,188,30184,1,14,0:0:0:0:
424,188,30467,1,2,0:0:0:0:
344,264,30750,2,0,L|344:96,1,135,14|0,0:0|0:0,0:0:0:0:
321,107,31316,1,4,0:0:0:0:
298,85,31457,1,0,0:0:0:0:
276,63,31598,1,0,0:0:0:0:
253,41,31740,1,0,0:0:0:0:
232,20,31882,6,0,P|220:72|240:136,1,90,4|2,0:0|0:0,0:0:0:0:
156,180,32448,2,0,P|164:224|156:268,1,90,2|0,0:0|0:0,0:0:0:0:
92,332,33014,2,0,P|155:313|219:333,1,135,2|0,0:0|0:0,0:0:0:0:
268,360,33580,1,2,0:0:0:0:
352,292,33863,1,8,0:0:0:0:
268,224,34146,2,0,B|228:136|304:136|260:48,2,180,8|0|0,0:0|0:0|0:0,0:0:0:0:
368,180,35561,1,0,0:0:0:0:
466,227,35844,2,0,P|476:183|468:140,1,90,8|0,0:0|0:0,0:0:0:0:
412,48,36410,6,0,L|500:30,1,90,10|0,0:0|0:0,0:0:0:0:
360,140,36976,2,0,L|273:115,1,90,2|0,0:0|0:0,0:0:0:0:
220,208,37542,2,0,L|376:252,1,135,2|0,0:0|0:0,0:0:0:0:
388,284,38108,1,2,0:0:0:0:
468,212,38391,1,0,0:0:0:0:
388,140,38674,2,0,P|377:94|408:28,1,90,2|0,0:0|0:0,0:0:0:0:
468,212,39240,2,0,B|468:236|468:236|464:240|464:240|472:240|472:240|468:244|468:244|468:296,1,90,10|2,0:0|0:0,0:0:0:0:
316,288,39806,2,0,B|316:264|316:264|320:260|320:260|312:260|312:260|316:256|316:256|316:209,1,90,2|0,0:0|0:0,0:0:0:0:
356,360,40372,1,0,0:0:0:0:
334,365,40513,1,8,0:0:0:0:
311,368,40655,1,0,0:0:0:0:
288,363,40796,1,8,0:0:0:0:
268,360,40938,6,0,P|190:324|90:380,2,180,2|2|2,0:0|0:0|0:0,0:0:0:0:
196,144,42636,1,0,0:0:0:0:
196,36,42919,1,0,0:0:0:0:
284,100,43202,2,0,P|294:147|268:208,1,90,10|0,0:0|0:0,0:0:0:0:
236,284,43768,2,0,L|348:284,1,90,2|2,0:0|0:0,0:0:0:0:
472,204,44334,2,0,L|368:204,1,90,2|0,0:0|0:0,0:0:0:0:
280,240,44900,1,8,0:0:0:0:
285,218,45041,1,0,0:0:0:0:
291,196,45183,1,8,0:0:0:0:
297,174,45324,1,0,0:0:0:0:
304,156,45467,6,0,P|252:132|120:164,1,180,6|6,0:0|0:0,0:0:0:0:
256,332,46599,2,0,P|308:356|440:320,1,180,2|6,0:0|0:0,0:0:0:0:
504,260,47448,1,2,0:0:0:0:
424,188,47731,1,8,0:0:0:0:
256,192,47872,12,0,49712,0:0:0:0:
512,288,49995,6,0,L|308:352,1,161.999995056153,4|0,0:0|0:0,0:0:0:0:
308,356,50561,1,6,0:0:0:0:
204,384,50844,1,0,0:0:0:0:
232,280,51127,2,0,P|216:228|244:164,1,107.999996704102,2|8,0:0|0:0,0:0:0:0:
328,124,51693,2,0,P|343:72|328:20,1,107.999996704102,12|0,0:0|0:0,0:0:0:0:
236,72,52259,2,0,P|184:48|72:84,1,161.999995056153,10|0,0:0|0:0,0:0:0:0:
40,100,52825,1,6,0:0:0:0:
124,168,53108,1,2,0:0:0:0:
40,236,53391,2,0,B|24:288|24:288|44:352,1,107.999996704102,2|8,0:0|0:0,0:0:0:0:
200,340,53957,2,0,B|216:288|216:288|196:224,1,107.999996704102,14|2,0:0|0:0,0:0:0:0:
264,148,54523,6,0,L|324:320,1,161.999995056153,10|0,0:0|0:0,0:0:0:0:
336,352,55089,2,0,P|388:364|456:340,1,107.999996704102,4|0,0:0|0:0,0:0:0:0:
500,260,55655,2,0,P|448:248|380:272,1,107.999996704102
324,180,56221,1,4,0:0:0:0:
324,180,56504,1,0,0:0:0:0:
256,264,56787,2,0,L|124:168,1,161.999995056153,10|0,0:0|0:0,0:0:0:0:
84,132,57353,1,4,0:0:0:0:
8,208,57636,1,0,0:0:0:0:
84,284,57919,2,0,L|176:352,1,107.999996704102,2|0,0:0|0:0,0:0:0:0:
248,272,58485,1,4,0:0:0:0:
324,348,58768,1,2,0:0:0:0:
404,272,59051,5,8,0:0:0:0:
256,192,65844,12,0,67825,0:0:0:0:
352,0,68108,6,0,P|288:16|256:112,1,161.999995056153,6|0,0:0|0:0,0:0:0:0:
272,148,68674,1,6,0:0:0:0:
196,224,68957,1,0,0:0:0:0:
120,148,69240,2,0,L|-4:104,1,107.999996704102,8|8,0:0|0:0,0:0:0:0:
196,224,69806,2,0,L|308:180,1,107.999996704102,4|0,0:0|0:0,0:0:0:0:
368,104,70372,2,0,P|336:168|368:252,1,161.999995056153,10|2,0:0|0:0,0:0:0:0:
404,288,70938,1,6,0:0:0:0:
316,352,71221,1,2,0:0:0:0:
228,288,71504,2,0,B|132:288|132:288|68:328,1,161.999995056153,2|2,0:0|0:0,0:0:0:0:
28,352,72070,2,0,P|40:304|4:216,1,107.999996704102,14|2,0:0|0:0,0:0:0:0:
116,184,72636,6,0,P|86:110|119:38,1,161.999995056153,2|0,0:0|0:0,0:0:0:0:
164,8,73202,1,4,0:0:0:0:
232,92,73485,1,0,0:0:0:0:
316,24,73768,2,0,L|428:24,1,107.999996704102
400,128,74334,2,0,B|340:128|340:128|296:176,1,107.999996704102,4|8,0:0|0:0,0:0:0:0:
388,236,74900,1,2,0:0:0:0:
308,308,75184,1,0,0:0:0:0:
228,236,75467,2,0,B|116:180|116:292|8:236,2,215.999993408203,4|2|4,0:0|0:0|0:0,0:0:0:0:
308,308,76882,1,4,0:0:0:0:
388,236,77165,6,0,P|396:188|380:136,1,90,10|2,0:0|0:0,0:0:0:0:
308,76,77731,2,0,B|384:124|384:124|476:64,2,180,10|10|10,0:0|0:0|0:0,0:0:0:0:
244,160,79146,1,2,0:0:0:0:
176,76,79429,2,0,L|48:76,1,90,10|2,0:0|0:0,0:0:0:0:
120,180,79995,2,0,P|96:232|136:360,2,180,10|10|8,0:0|0:0|0:0,0:0:0:0:
200,108,81410,1,0,0:0:0:0:
280,180,81693,6,2,L|396:180,1,90,10|2,0:0|0:0,0:0:0:0:
409,275,82259,2,2,L|320:264,1,90,10|2,0:0|0:0,0:0:0:0:
320,100,82825,2,0,L|409:88,1,90,10|0,0:0|0:0,0:0:0:0:
256,176,83391,1,10,0:0:0:0:
256,176,83674,1,2,0:0:0:0:
192,100,83957,2,2,L|102:88,1,90,10|2,0:0|0:0,0:0:0:0:
136,192,84523,2,0,P|108:244|144:368,2,180,8|8|8,0:0|0:0|0:0,0:0:0:0:
336,276,86221,6,0,P|285:286|220:260,1,90,10|0,0:0|0:0,0:0:0:0:
292,180,86787,1,10,0:0:0:0:
292,72,87070,1,2,0:0:0:0:
200,128,87353,2,2,L|96:180,1,90,10|2,0:0|0:0,0:0:0:0:
212,224,87919,2,2,L|164:336,1,90,10|2,0:0|0:0,0:0:0:0:
308,224,88485,2,2,L|356:336,1,90,10|2,0:0|0:0,0:0:0:0:
316,128,89051,2,2,L|420:180,1,90,10|0,0:0|0:0,0:0:0:0:
400,60,89617,1,8,0:0:0:0:
304,256,90184,2,0,P|296:304|308:352,1,90,8|0,0:0|0:0,0:0:0:0:
400,296,90750,5,8,0:0:0:0:
184,296,91316,2,0,L|92:296,1,90,8|0,0:0|0:0,0:0:0:0:
0,348,91882,1,8,0:0:0:0:
64,140,92448,2,0,P|56:96|68:48,1,90,8|0,0:0|0:0,0:0:0:0:
164,100,93014,2,0,P|172:144|160:192,1,90,8|0,0:0|0:0,0:0:0:0:
80,260,93580,1,8,0:0:0:0:
160,332,93863,1,0,0:0:0:0:
240,260,94146,2,0,B|324:216|324:296|416:256,2,180,8|8|8,0:0|0:0|0:0,0:0:0:0:
256,192,95561,12,0,102070,0:0:0:0:
