osu file format v14

[General]
AudioFilename: audio.mp3
AudioLeadIn: 0
PreviewTime: 49853
Countdown: 0
SampleSet: Soft
StackLeniency: 0.7
Mode: 0
LetterboxInBreaks: 0
WidescreenStoryboard: 0

[Editor]
Bookmarks: 31882,59051,102070
DistanceSpacing: 1.2
BeatDivisor: 2
GridSize: 32
TimelineZoom: 1.3

[Metadata]
Title:Toy Day (Orchestral Remix)
TitleUnicode:Toy Day (Orchestral Remix)
Artist:Manaka Kataoka & Atsuko Asahi
ArtistUnicode:朝日温子 & 片岡真央
Creator:PolkaMocha
Version:December 24th (Advanced)
Source:とびだせ どうぶつの森
Tags:Christmas Holiday Winter Toy Day Animal Crossing: Crossing New Leaf Newleaf Nintendo Console Video Game
BeatmapID:1137001
BeatmapSetID:536538

[Difficulty]
HPDrainRate:4
CircleSize:3.5
OverallDifficulty:4
ApproachRate:5
SliderMultiplier:1.4
SliderTickRate:1

[Events]
//Background and Video events
0,0,"Photos-Desktop-Animal-Crossing.jpg",0,0
//Break Periods
2,59251,64644
//Storyboard Layer 0 (Background)
//Storyboard Layer 1 (Fail)
//Storyboard Layer 2 (Pass)
//Storyboard Layer 3 (Foreground)
//Storyboard Sound Samples

[TimingPoints]
184,566.037735849057,4,2,0,80,1,0
4712,-100,4,2,0,100,0,1
4853,-100,4,2,1,70,0,0
13768,-100,4,2,0,100,0,1
13910,-100,4,2,1,70,0,0
31882,-100,4,2,0,100,0,0
32023,-100,4,2,1,70,0,0
49995,-100,4,2,0,100,0,1
50136,-100,4,2,1,100,0,1
59051,-100,4,2,1,100,0,0
68108,-100,4,2,0,100,0,1
68250,-100,4,2,1,100,0,1
77165,-100,4,2,1,70,0,0
90750,-100,4,2,1,60,0,0
95844,-100,4,2,1,50,0,0
97542,-100,4,2,1,40,0,0
99806,-100,4,2,1,30,0,0
102070,-100,4,2,1,5,0,0

[Colours]
Combo1 : 255,47,47
Combo2 : 74,255,74
Combo3 : 253,123,104
Combo4 : 0,204,0
SliderBorder : 153,255,255

[HitObjects]
256,192,184,12,2,4146,0:0:0:0:
4,136,4712,6,0,P|60:116|148:148,1,140,4|8,0:0|0:0,0:0:0:0:
200,84,5561,1,2,0:0:0:0:
264,136,5844,2,0,L|400:232,1,140,10|10,0:0|0:0,0:0:0:0:
440,272,6693,1,0,0:0:0:0:
460,192,6976,2,0,P|464:152|456:108,1,70,10|0,0:0|0:0,0:0:0:0:
404,60,7542,1,8,0:0:0:0:
348,124,7825,2,0,P|344:164|352:208,1,70,2|10,0:0|0:0,0:0:0:0:
404,256,8391,1,0,0:0:0:0:
348,320,8674,2,0,L|268:320,1,70,10|0,0:0|0:0,0:0:0:0:
212,368,9240,6,0,P|236:304|188:228,1,140,10|10,0:0|0:0,0:0:0:0:
136,200,10089,1,2,0:0:0:0:
208,160,10372,2,0,L|288:28,1,140,10|8,0:0|0:0,0:0:0:0:
364,28,11221,1,0,0:0:0:0:
388,108,11504,2,0,L|304:244,1,140,14|8,0:0|0:0,0:0:0:0:
252,284,12353,1,2,0:0:0:0:
192,228,12636,2,0,P|152:224|104:236,2,70,14|0|14,0:0|0:0|0:0,0:0:0:0:
316,344,13768,6,0,P|356:356|456:340,1,140,6|14,0:0|0:0,0:0:0:0:
508,280,14617,1,2,0:0:0:0:
428,256,14900,2,0,B|416:212|444:164|444:164|428:104,1,140,10|12,0:0|0:0,0:0:0:0:
396,48,15750,1,2,0:0:0:0:
396,48,16033,2,0,P|348:44|296:60,1,70,10|0,0:0|0:0,0:0:0:0:
264,104,16599,2,0,P|229:108|194:103,1,70,14|2,0:0|0:0,0:0:0:0:
132,48,17165,1,10,0:0:0:0:
216,196,17731,1,14,0:0:0:0:
156,252,18014,1,2,0:0:0:0:
220,304,18297,6,0,P|268:284|372:324,1,140,10|14,0:0|0:0,0:0:0:0:
420,348,19146,1,2,0:0:0:0:
424,264,19429,2,0,L|496:136,1,140,10|12,0:0|0:0,0:0:0:0:
464,64,20278,1,0,0:0:0:0:
384,92,20561,2,0,L|332:180,1,70,10|0,0:0|0:0,0:0:0:0:
264,156,21127,2,0,L|212:240,1,70,12|0,0:0|0:0,0:0:0:0:
176,284,21693,1,8,0:0:0:0:
60,160,22259,1,12,0:0:0:0:
0,100,22542,1,4,0:0:0:0:
64,44,22825,6,0,P|116:24|212:56,1,140,10|14,0:0|0:0,0:0:0:0:
256,104,23674,1,2,0:0:0:0:
312,40,23957,2,0,B|416:40|416:40|472:68,1,140,10|12,0:0|0:0,0:0:0:0:
396,120,24806,1,2,0:0:0:0:
452,184,25089,2,0,P|476:232|444:320,1,140,10|14,0:0|0:0,0:0:0:0:
384,360,25938,1,2,0:0:0:0:
324,300,26221,2,0,L|224:300,1,70,10|2,0:0|0:0,0:0:0:0:
188,248,26787,1,14,0:0:0:0:
32,312,27353,6,0,P|12:264|40:172,1,140,10|12,0:0|0:0,0:0:0:0:
96,124,28202,1,2,0:0:0:0:
160,180,28485,2,0,B|220:212|220:212|308:164,1,140,10|12,0:0|0:0,0:0:0:0:
424,88,29617,1,14,0:0:0:0:
480,152,29900,1,12,0:0:0:0:
424,216,30184,2,0,P|420:260|432:304,1,70,10|6,0:0|0:0,0:0:0:0:
488,340,30750,2,0,P|432:320|336:352,1,140,10|12,0:0|0:0,0:0:0:0:
288,288,31599,1,0,0:0:0:0:
224,232,31882,6,0,L|136:220,2,70,6|2|2,0:0|0:0|0:0,0:0:0:0:
296,80,33014,2,0,L|460:56,1,140,2|2,0:0|0:0,0:0:0:0:
508,104,33863,1,8,0:0:0:0:
436,148,34146,2,0,B|420:200|436:244|436:244|384:292,1,140,8|0,0:0|0:0,0:0:0:0:
292,368,35278,1,0,0:0:0:0:
232,308,35561,1,0,0:0:0:0:
172,248,35844,2,0,L|88:248,1,70,8|0,0:0|0:0,0:0:0:0:
36,300,36410,6,0,P|60:248|28:168,1,140,10|2,0:0|0:0,0:0:0:0:
176,84,37542,2,0,P|152:136|184:216,1,140,2|2,0:0|0:0,0:0:0:0:
244,264,38391,1,0,0:0:0:0:
308,212,38674,2,0,B|392:212|392:212|448:248,1,140,2|10,0:0|0:0,0:0:0:0:
464,160,39523,1,2,0:0:0:0:
464,160,39806,2,0,P|468:104|456:72,1,70,2|0,0:0|0:0,0:0:0:0:
412,24,40372,1,8,0:0:0:0:
276,120,40938,6,0,L|128:120,2,140,2|2|2,0:0|0:0|0:0,0:0:0:0:
208,272,42636,1,0,0:0:0:0:
68,180,43202,2,0,P|52:144|80:44,2,140,10|2|2,0:0|0:0|0:0,0:0:0:0:
204,272,44900,1,10,0:0:0:0:
344,180,45467,2,0,P|360:144|332:44,2,140,2|6|2,0:0|0:0|0:0,0:0:0:0:
204,272,47165,1,6,0:0:0:0:
60,184,47731,1,10,0:0:0:0:
256,192,48014,12,0,49429,0:0:0:0:
456,180,49995,6,0,B|388:152|388:208|316:180,1,140,6|6,0:0|0:0,0:0:0:0:
260,120,50844,1,0,0:0:0:0:
236,200,51127,2,0,P|212:260|244:336,1,140,10|4,0:0|0:0,0:0:0:0:
384,252,52259,2,0,P|408:192|376:116,1,140,10|6,0:0|0:0,0:0:0:0:
324,64,53108,1,2,0:0:0:0:
260,120,53391,2,0,L|96:120,1,140,2|14,0:0|0:0,0:0:0:0:
52,172,54240,1,2,0:0:0:0:
128,204,54523,6,0,B|200:204|200:204|258:258,1,140,10|4,0:0|0:0,0:0:0:0:
380,144,55655,2,0,P|416:139|470:153,1,70
412,220,56221,2,0,P|376:225|322:211,1,70,4|0,0:0|0:0,0:0:0:0:
288,156,56787,2,0,L|288:316,1,140,10|4,0:0|0:0,0:0:0:0:
124,328,57919,2,0,P|117:290|133:240,1,70,2|0,0:0|0:0,0:0:0:0:
176,196,58485,2,0,P|183:158|167:108,1,70,4|0,0:0|0:0,0:0:0:0:
132,56,59051,5,10,0:0:0:0:
256,192,65844,12,0,67542,0:0:0:0:
456,96,68108,6,0,P|408:116|396:216,1,140,6|6,0:0|0:0,0:0:0:0:
348,268,68957,1,0,0:0:0:0:
300,200,69240,2,0,L|140:176,1,140,10|4,0:0|0:0,0:0:0:0:
72,320,70372,2,0,L|232:296,1,140,10|6,0:0|0:0,0:0:0:0:
280,344,71221,1,2,0:0:0:0:
288,260,71504,2,0,P|292:224|284:180,1,70,2|8,0:0|0:0,0:0:0:0:
224,136,72070,2,0,P|220:100|228:56,1,70,14|2,0:0|0:0,0:0:0:0:
304,100,72636,6,0,P|352:84|456:112,1,140,10|4,0:0|0:0,0:0:0:0:
368,252,73768,2,0,P|300:272|216:240,1,140,0|4,0:0|0:0,0:0:0:0:
184,188,74617,1,0,0:0:0:0:
128,252,74900,2,0,L|64:320,2,70,2|0|4,0:0|0:0|0:0,0:0:0:0:
264,152,76033,2,0,L|196:84,2,70,2|0|4,0:0|0:0|0:0,0:0:0:0:
320,216,76882,1,4,0:0:0:0:
376,152,77165,6,0,P|448:136|532:164,2,140,10|10|10,0:0|0:0|0:0,0:0:0:0:
244,256,78863,1,10,0:0:0:0:
184,196,79146,1,2,0:0:0:0:
124,256,79429,2,0,P|80:260|36:252,2,70,10|2|10,0:0|0:0|0:0,0:0:0:0:
244,136,80561,2,0,B|312:116|312:116|396:140,1,140,10|10,0:0|0:0,0:0:0:0:
444,180,81410,1,0,0:0:0:0:
368,220,81693,6,2,P|364:260|376:312,1,70,10|2,0:0|0:0,0:0:0:0:
424,352,82259,2,0,P|364:332|284:356,1,140,10|10,0:0|0:0,0:0:0:0:
156,252,83391,1,10,0:0:0:0:
216,192,83674,1,2,0:0:0:0:
156,136,83957,2,0,L|96:80,2,70,10|2|10,0:0|0:0|0:0,0:0:0:0:
280,248,85089,2,0,B|368:248|368:248|420:284,1,140,10|10,0:0|0:0,0:0:0:0:
472,336,85938,1,0,0:0:0:0:
496,256,86221,6,0,P|512:192|488:120,1,140,10|10,0:0|0:0,0:0:0:0:
424,72,87070,1,2,0:0:0:0:
356,120,87353,2,2,L|272:88,1,70,10|2,0:0|0:0,0:0:0:0:
212,128,87919,2,2,L|128:96,1,70,10|2,0:0|0:0,0:0:0:0:
88,44,88485,1,10,0:0:0:0:
28,104,88768,1,2,0:0:0:0:
88,164,89051,2,0,P|68:216|92:300,1,140,10|10,0:0|0:0,0:0:0:0:
244,356,90184,1,8,0:0:0:0:
304,296,90467,1,0,0:0:0:0:
364,236,90750,6,0,B|436:236|436:236|504:276,1,140,10|8,0:0|0:0,0:0:0:0:
396,136,91882,2,0,B|324:136|324:136|256:96,1,140,10|10,0:0|0:0,0:0:0:0:
196,56,92731,1,2,0:0:0:0:
124,100,93014,2,0,P|120:148|132:188,1,70,10|2,0:0|0:0,0:0:0:0:
192,220,93580,2,0,P|197:254|192:289,1,70,10|2,0:0|0:0,0:0:0:0:
136,348,94146,1,10,0:0:0:0:
280,264,94712,1,10,0:0:0:0:
424,348,95278,1,10,0:0:0:0:
256,192,95419,12,0,102070,0:0:0:0:
