osu file format v14

[General]
AudioFilename: audio.mp3
AudioLeadIn: 0
PreviewTime: 49853
Countdown: 0
SampleSet: Soft
StackLeniency: 0.7
Mode: 0
LetterboxInBreaks: 0
WidescreenStoryboard: 0

[Editor]
Bookmarks: 31882,59051,102070
DistanceSpacing: 1
BeatDivisor: 2
GridSize: 32
TimelineZoom: 1.2

[Metadata]
Title:Toy Day (Orchestral Remix)
TitleUnicode:Toy Day (Orchestral Remix)
Artist:Manaka Kataoka & Atsuko Asahi
ArtistUnicode:朝日温子 & 片岡真央
Creator:PolkaMocha
Version:December 23rd (Normal)
Source:とびだせ どうぶつの森
Tags:Christmas Holiday Winter Toy Day Animal Crossing: Crossing New Leaf Newleaf Nintendo Console Video Game
BeatmapID:1137000
BeatmapSetID:536538

[Difficulty]
HPDrainRate:3
CircleSize:3.5
OverallDifficulty:3
ApproachRate:3.5
SliderMultiplier:1
SliderTickRate:1

[Events]
//Background and Video events
0,0,"Photos-Desktop-Animal-Crossing.jpg",0,0
//Break Periods
2,59251,64464
//Storyboard Layer 0 (Background)
//Storyboard Layer 1 (Fail)
//Storyboard Layer 2 (Pass)
//Storyboard Layer 3 (Foreground)
//Storyboard Sound Samples

[TimingPoints]
184,566.037735849057,4,2,0,80,1,0
4712,-100,4,2,0,100,0,1
4853,-100,4,2,1,70,0,0
13768,-100,4,2,0,100,0,1
13910,-100,4,2,1,70,0,0
31882,-100,4,2,0,100,0,0
32023,-100,4,2,1,70,0,0
45467,-100,4,2,0,100,0,0
45608,-100,4,2,1,70,0,0
49995,-100,4,2,0,100,0,1
50136,-100,4,2,1,70,0,1
59051,-100,4,2,1,100,0,0
65844,-100,4,2,0,100,0,0
65985,-100,4,2,1,70,0,0
68108,-100,4,2,0,100,0,1
68250,-100,4,2,1,70,0,1
77165,-100,4,2,1,100,0,0
90750,-100,4,2,1,60,0,0
95844,-100,4,2,1,50,0,0
97542,-100,4,2,1,40,0,0
99806,-100,4,2,1,30,0,0
102070,-100,4,2,1,5,0,0

[Colours]
Combo1 : 255,47,47
Combo2 : 74,255,74
Combo3 : 253,123,104
Combo4 : 0,204,0
SliderBorder : 153,255,255

[HitObjects]
256,192,184,12,2,3580,0:0:0:0:
0,156,4712,6,0,P|48:164|100:156,1,100,6|8,0:0|0:0,0:0:0:0:
168,84,5844,2,0,P|217:76|266:84,1,100,10|10,0:0|0:0,0:0:0:0:
340,156,6976,1,10,0:0:0:0:
268,228,7542,1,8,0:0:0:0:
344,296,8108,2,0,B|392:308|392:308|443:295,1,100,10|10,0:0|0:0,0:0:0:0:
392,208,9240,6,0,P|394:179|387:143,2,50,10|2|10,0:0|0:0|0:0,0:0:0:0:
296,184,10372,2,0,L|180:184,1,100,10|8,0:0|0:0,0:0:0:0:
128,108,11504,1,14,0:0:0:0:
64,184,12070,1,8,0:0:0:0:
88,232,12353,2,0,P|91:263|88:288,1,50,2|14,0:0|0:0,0:0:0:0:
160,352,13202,1,14,0:0:0:0:
230,281,13768,6,0,P|222:233|238:165,1,100,2|14,0:0|0:0,0:0:0:0:
312,120,14900,2,0,B|361:110|361:110|420:124,1,100,10|12,0:0|0:0,0:0:0:0:
496,72,16033,2,0,P|508:124|492:180,1,100,10|14,0:0|0:0,0:0:0:0:
460,204,16882,1,2,0:0:0:0:
420,236,17165,2,0,P|418:268|423:301,2,50,10|2|14,0:0|0:0|0:0,0:0:0:0:
340,172,18297,6,0,P|348:128|336:68,1,100,10|12,0:0|0:0,0:0:0:0:
256,128,19429,1,10,0:0:0:0:
172,76,19995,1,14,0:0:0:0:
168,176,20561,2,0,P|160:220|172:280,1,100,10|14,0:0|0:0,0:0:0:0:
240,344,21693,1,10,0:0:0:0:
312,272,22259,1,14,0:0:0:0:
240,204,22825,6,0,B|192:192|192:192|132:208,1,100,10|14,0:0|0:0,0:0:0:0:
100,180,23674,1,2,0:0:0:0:
100,180,23957,2,0,L|100:280,1,100,8|14,0:0|0:0,0:0:0:0:
172,348,25089,1,10,0:0:0:0:
248,284,25655,2,0,L|300:232,2,50,14|2|10,0:0|0:0|0:0,0:0:0:0:
172,348,26787,1,14,0:0:0:0:
152,248,27353,6,0,P|140:212|156:148,1,100,10|14,0:0|0:0,0:0:0:0:
200,132,28202,1,2,0:0:0:0:
244,152,28485,2,0,L|324:64,1,100,10|12,0:0|0:0,0:0:0:0:
364,164,29617,2,0,L|324:208,1,50,14|4,0:0|0:0,0:0:0:0:
328,252,30184,2,0,L|284:300,1,50,10|2,0:0|0:0,0:0:0:0:
256,324,30750,1,10,0:0:0:0:
208,236,31316,1,12,0:0:0:0:
120,284,31882,6,0,B|108:236|108:236|124:180,1,100,6|2,0:0|0:0,0:0:0:0:
152,148,32731,1,2,0:0:0:0:
184,112,33014,2,0,P|232:102|296:120,1,100,2|2,0:0|0:0,0:0:0:0:
356,176,34146,1,10,0:0:0:0:
280,244,34712,1,0,0:0:0:0:
356,312,35278,2,0,L|412:312,2,50,0|0|8,0:0|0:0|0:0,0:0:0:0:
312,336,36127,1,0,0:0:0:0:
268,312,36410,6,0,P|232:300|160:320,1,100,10|0,0:0|0:0,0:0:0:0:
132,340,37259,1,0,0:0:0:0:
88,316,37542,2,0,L|24:228,1,100,2|0,0:0|0:0,0:0:0:0:
112,176,38674,2,0,L|180:272,1,100,2|10,0:0|0:0,0:0:0:0:
236,332,39806,1,2,0:0:0:0:
300,256,40372,2,0,P|304:228|300:200,1,50,8|8,0:0|0:0,0:0:0:0:
280,160,40938,6,0,P|328:168|392:152,2,100,2|2|2,0:0|0:0|0:0,0:0:0:0:
200,100,42636,1,0,0:0:0:0:
180,196,43202,2,0,P|170:241|188:312,1,100,10|2,0:0|0:0,0:0:0:0:
212,332,44051,1,2,0:0:0:0:
212,332,44334,1,2,0:0:0:0:
292,272,44900,2,0,L|348:272,1,50,10|10,0:0|0:0,0:0:0:0:
388,248,45467,5,2,0:0:0:0:
476,196,46033,1,6,0:0:0:0:
388,144,46599,2,0,P|344:120|316:68,1,100,2|6,0:0|0:0,0:0:0:0:
276,56,47448,1,2,0:0:0:0:
232,80,47731,2,0,P|206:122|162:145,1,100,14|2,0:0|0:0,0:0:0:0:
64,168,48863,2,4,L|84:236,1,50,6|4,0:0|0:0,0:0:0:0:
48,256,49429,2,4,L|64:312,1,50,6|6,0:0|0:0,0:0:0:0:
104,328,49995,6,0,B|153:317|153:317|209:331,1,100,6|6,0:0|0:0,0:0:0:0:
296,356,51127,2,0,B|344:368|344:368|393:357,1,100,10|12,0:0|0:0,0:0:0:0:
348,268,52259,2,0,L|396:180,1,100,2|6,0:0|0:0,0:0:0:0:
368,136,53108,1,2,0:0:0:0:
320,148,53391,2,0,P|271:157|222:148,1,100,2|14,0:0|0:0,0:0:0:0:
176,128,54240,1,2,0:0:0:0:
132,104,54523,6,0,P|79:95|15:114,1,100,2|4,0:0|0:0,0:0:0:0:
84,192,55655,1,0,0:0:0:0:
84,292,56221,1,4,0:0:0:0:
168,240,56787,2,0,B|220:224|220:256|276:236,1,100,10|4,0:0|0:0,0:0:0:0:
336,168,57919,1,6,0:0:0:0:
404,240,58485,1,4,0:0:0:0:
476,168,59051,5,8,0:0:0:0:
320,148,65844,5,4,0:0:0:0:
240,208,66410,2,0,L|240:272,2,50,4|0|4,0:0|0:0|0:0,0:0:0:0:
156,148,67542,1,4,0:0:0:0:
80,84,68108,6,0,L|-4:16,2,100,6|6|10,0:0|0:0|0:0,0:0:0:0:
156,148,69806,1,12,0:0:0:0:
232,84,70372,2,0,P|272:76|340:88,1,100,2|6,0:0|0:0,0:0:0:0:
372,112,71221,1,2,0:0:0:0:
372,112,71504,1,2,0:0:0:0:
452,172,72070,1,14,0:0:0:0:
364,220,72636,6,0,B|356:270|356:270|364:320,1,100,2|4,0:0|0:0,0:0:0:0:
448,372,73768,2,0,B|456:322|456:322|448:272,1,100,0|4,0:0|0:0,0:0:0:0:
360,320,74900,2,0,P|320:328|256:320,1,100,2|4,0:0|0:0,0:0:0:0:
192,256,76033,2,0,P|142:249|93:257,1,100,2|4,0:0|0:0,0:0:0:0:
48,280,76882,1,4,0:0:0:0:
48,280,77165,6,0,L|-24:280,2,50,10|2|10,0:0|0:0|0:0,0:0:0:0:
124,216,78297,2,0,P|136:180|122:112,1,100,10|10,0:0|0:0,0:0:0:0:
88,88,79146,1,2,0:0:0:0:
88,88,79429,2,0,L|88:20,2,50,10|2|10,0:0|0:0|0:0,0:0:0:0:
28,168,80561,2,0,P|16:204|30:272,1,100,10|8,0:0|0:0,0:0:0:0:
100,328,81693,5,10,0:0:0:0:
176,264,82259,1,10,0:0:0:0:
252,328,82825,1,10,0:0:0:0:
328,264,83391,2,2,P|356:260|396:268,1,50,10|2,0:0|0:0,0:0:0:0:
420,292,83957,2,0,P|416:256|424:176,1,100,10|10,0:0|0:0,0:0:0:0:
496,128,85089,1,10,0:0:0:0:
420,64,85655,1,10,0:0:0:0:
340,128,86221,6,0,L|236:128,1,100,10|10,0:0|0:0,0:0:0:0:
144,104,87353,2,2,P|142:131|147:175,1,50,10|2,0:0|0:0,0:0:0:0:
168,196,87919,2,2,P|169:220|167:245,1,50,10|2,0:0|0:0,0:0:0:0:
140,288,88485,2,0,P|188:280|252:292,1,100,10|10,0:0|0:0,0:0:0:0:
320,344,89617,2,0,P|369:351|418:343,1,100,10|8,0:0|0:0,0:0:0:0:
488,268,90750,5,10,0:0:0:0:
420,196,91316,1,10,0:0:0:0:
344,264,91882,2,0,L|228:264,1,100,10|10,0:0|0:0,0:0:0:0:
200,288,92731,1,2,0:0:0:0:
156,260,93014,2,0,L|140:200,2,50,10|2|10,0:0|0:0|0:0,0:0:0:0:
72,316,94146,2,0,L|46:219,1,100,10|0,0:0|0:0,0:0:0:0:
256,192,95278,12,0,102070,0:0:0:0:
