osu file format v14

[General]
AudioFilename: audio.mp3
AudioLeadIn: 0
PreviewTime: 49853
Countdown: 0
SampleSet: Soft
StackLeniency: 0.7
Mode: 0
LetterboxInBreaks: 0
WidescreenStoryboard: 0

[Editor]
Bookmarks: 31882,59051,102070
DistanceSpacing: 1
BeatDivisor: 1
GridSize: 32
TimelineZoom: 0.5999999

[Metadata]
Title:Toy Day (Orchestral Remix)
TitleUnicode:Toy Day (Orchestral Remix)
Artist:Manaka Kataoka & Atsuko Asahi
ArtistUnicode:朝日温子 & 片岡真央
Creator:PolkaMocha
Version:December 22nd (Easy)
Source:とびだせ どうぶつの森
Tags:Christmas Holiday Winter Toy Day Animal Crossing: Crossing New Leaf Newleaf Nintendo Console Video Game
BeatmapID:1136999
BeatmapSetID:536538

[Difficulty]
HPDrainRate:2
CircleSize:3
OverallDifficulty:2
ApproachRate:2
SliderMultiplier:0.8
SliderTickRate:1

[Events]
//Background and Video events
0,0,"Photos-Desktop-Animal-Crossing.jpg",0,0
//Break Periods
2,59251,64284
//Storyboard Layer 0 (Background)
//Storyboard Layer 1 (Fail)
//Storyboard Layer 2 (Pass)
//Storyboard Layer 3 (Foreground)
//Storyboard Sound Samples

[TimingPoints]
184,566.037735849057,4,2,0,80,1,0
4712,-100,4,2,0,100,0,1
4853,-100,4,2,1,70,0,0
13768,-100,4,2,1,100,0,1
13910,-100,4,2,1,70,0,0
31882,-100,4,2,0,100,0,0
32023,-100,4,2,1,70,0,0
45467,-100,4,2,0,100,0,0
45608,-100,4,2,1,70,0,0
49995,-100,4,2,0,100,0,1
50136,-100,4,2,1,100,0,1
59051,-100,4,2,1,100,0,0
68108,-100,4,2,0,100,0,1
68250,-100,4,2,1,100,0,1
77165,-100,4,2,1,70,0,0
90750,-100,4,2,1,60,0,0
95844,-100,4,2,1,50,0,0
97542,-100,4,2,1,40,0,0
99806,-100,4,2,1,30,0,0
102070,-100,4,2,1,5,0,0

[Colours]
Combo1 : 255,47,47
Combo2 : 74,255,74
Combo3 : 253,123,104
Combo4 : 0,204,0
SliderBorder : 153,255,255

[HitObjects]
256,192,184,12,2,3014,0:0:0:0:
116,96,4712,6,0,B|192:128|192:56|276:100,1,160,6|10,0:0|0:0,0:0:0:0:
396,192,6976,1,10,0:0:0:0:
272,292,8108,1,10,0:0:0:0:
148,192,9240,6,0,P|124:128|152:44,1,160,10|10,0:0|0:0,0:0:0:0:
292,124,11504,2,0,P|316:188|284:280,1,160,10|10,0:0|0:0,0:0:0:0:
168,380,13768,5,6,0:0:0:0:
48,276,14900,1,10,0:0:0:0:
200,220,16033,2,0,P|276:196|360:228,1,160,10|10,0:0|0:0,0:0:0:0:
248,344,18297,6,0,P|172:368|88:336,1,160,10|10,0:0|0:0,0:0:0:0:
176,204,20561,1,10,0:0:0:0:
172,44,21693,1,8,0:0:0:0:
308,128,22825,6,0,B|380:164|380:96|476:140,2,160,10|10|10,0:0|0:0|0:0,0:0:0:0:
168,48,26221,1,10,0:0:0:0:
168,208,27353,6,0,P|152:240|180:372,1,160,10|10,0:0|0:0,0:0:0:0:
312,284,29617,2,0,L|404:284,2,80,10|10|10,0:0|0:0|0:0,0:0:0:0:
268,132,31882,6,0,B|344:112|344:112|428:132,1,160,6|2,0:0|0:0,0:0:0:0:
344,272,34146,1,10,0:0:0:0:
252,140,35278,1,0,0:0:0:0:
164,272,36410,6,0,P|132:292|92:200,1,160,10|2,0:0|0:0,0:0:0:0:
220,136,38674,2,0,P|252:116|292:208,1,160,2|2,0:0|0:0,0:0:0:0:
208,324,40938,5,2,0:0:0:0:
92,228,42070,1,2,0:0:0:0:
208,120,43202,1,10,0:0:0:0:
328,228,44334,1,2,0:0:0:0:
176,280,45467,6,0,B|136:268|136:292|92:276,2,80,6|6|2,0:0|0:0|0:0,0:0:0:0:
328,332,47731,2,0,B|368:344|368:320|412:336,2,80,6|2|6,0:0|0:0|0:0,0:0:0:0:
232,204,49995,5,6,0:0:0:0:
192,136,50561,1,2,0:0:0:0:
232,68,51127,1,2,0:0:0:0:
372,148,52259,2,0,P|400:224|360:304,1,160,2|2,0:0|0:0,0:0:0:0:
304,340,53957,1,2,0:0:0:0:
236,296,54523,5,2,0:0:0:0:
76,296,55655,1,0,0:0:0:0:
160,160,56787,2,0,B|192:88|192:88|160:12,1,160,10|2,0:0|0:0,0:0:0:0:
20,88,59051,1,8,0:0:0:0:
256,192,65844,12,4,68108,0:0:0:0:
456,20,70372,6,0,P|404:28|336:116,1,160,10|2,0:0|0:0,0:0:0:0:
284,164,72070,1,2,0:0:0:0:
228,106,72636,5,10,0:0:0:0:
76,160,73768,1,0,0:0:0:0:
192,272,74900,2,0,P|200:308|192:360,2,80,2|0|2,0:0|0:0|0:0,0:0:0:0:
80,156,77165,6,0,L|252:112,1,160,10|10,0:0|0:0,0:0:0:0:
288,56,78863,1,0,0:0:0:0:
344,116,79429,2,0,L|516:72,1,160,10|10,0:0|0:0,0:0:0:0:
444,240,81693,5,10,0:0:0:0:
320,344,82825,1,10,0:0:0:0:
200,240,83957,1,10,0:0:0:0:
324,140,85089,1,8,0:0:0:0:
396,284,86221,6,8,B|350:283|322:307|322:307|290:283|246:283,1,160,10|2,0:0|0:0,0:0:0:0:
172,316,87919,1,10,0:0:0:0:
100,280,88485,2,0,B|100:236|76:204|76:204|100:176|100:124,1,160,10|10,0:0|0:0,0:0:0:0:
220,24,90750,5,10,0:0:0:0:
336,132,91882,1,10,0:0:0:0:
220,244,93014,1,10,0:0:0:0:
104,132,94146,1,10,0:0:0:0:
256,192,95278,12,0,102070,0:0:0:0:
