osu file format v14

[General]
AudioFilename: Island (Day) - Animal Crossing- New Leaf Music.mp3
AudioLeadIn: 0
PreviewTime: 2033
Countdown: 0
SampleSet: None
StackLeniency: 0.7
Mode: 0
LetterboxInBreaks: 0
WidescreenStoryboard: 0

[Editor]
DistanceSpacing: 1
BeatDivisor: 4
GridSize: 32
TimelineZoom: 1.2

[Metadata]
Title:Kotobuki Rando
TitleUnicode:コトブキランド
Artist:Manaka Kataoka & Atsuko Asahi
ArtistUnicode:朝日温子 & 片岡真央
Creator:PolkaMocha
Version:Simple
Source:とびだせ どうぶつの森
Tags:Day Animal Crossing: New Leaf Tortimer Island Land Beach Daytime Noon Tour 3DS Nintendo Game Theme Noon
BeatmapID:731224
BeatmapSetID:329835

[Difficulty]
HPDrainRate:4
CircleSize:3
OverallDifficulty:4
ApproachRate:4
SliderMultiplier:1.3
SliderTickRate:2

[Events]
//Background and Video events
0,0,"AnimalCrossing_wallpaper_1920x1200-B.jpg",0,0
//Break Periods
//Storyboard Layer 0 (Background)
//Storyboard Layer 1 (Fail)
//Storyboard Layer 2 (Pass)
//Storyboard Layer 3 (Foreground)
//Storyboard Sound Samples

[TimingPoints]
160,588.235294117647,4,3,0,50,1,0
2483,588.235294117647,4,3,0,50,1,1
3071,-100,4,3,0,50,0,0
11894,-100,4,3,0,50,0,1
12482,-100,4,3,0,50,0,0

[Colours]
Combo1 : 253,94,26
Combo2 : 0,255,128
Combo3 : 0,210,255
SliderBorder : 255,216,132

[HitObjects]
276,124,160,6,0,L|432:116,2,130,2|2|8,0:0|0:0|0:0,0:0:0:0:
164,56,1924,1,4,0:0:0:0:
160,176,2483,6,0,P|144:236|172:308,1,130,4|4,0:1|0:0,0:0:0:0:
220,336,3365,1,0,0:0:0:0:
272,300,3659,2,0,L|420:296,1,130,8|4,0:0|0:0,0:0:0:0:
444,176,4835,6,0,L|359:179,1,65,8|0,0:0|0:0,0:0:0:0:
332,132,5424,1,4,0:0:0:0:
244,228,6012,1,8,0:0:0:0:
160,132,6600,1,4,0:0:0:0:
80,232,7188,6,0,P|64:284|88:360,2,130,8|4|8,0:0|0:0|0:0,0:0:0:0:
120,180,8659,2,0,L|256:176,1,130
296,132,9541,1,4,0:0:0:0:
388,40,10130,1,8,0:0:0:0:
484,128,10718,1,4,0:0:0:0:
392,220,11306,1,8,0:0:0:0:
292,140,11894,6,0,P|248:128|152:152,1,130,4|8,0:1|0:0,0:0:0:0:
104,124,12777,1,0,0:0:0:0:
104,124,13071,2,0,L|108:280,1,130,4|8,0:0|0:0,0:0:0:0:
236,240,14247,6,0,L|240:328,1,65,4|0,0:0|0:0,0:0:0:0:
284,352,14835,1,8,0:0:0:0:
392,276,15424,2,0,P|416:216|472:176,1,130,8|4,0:0|0:0,0:0:0:0:
508,52,16600,6,0,L|360:60,1,130,4|8,0:0|0:0,0:0:0:0:
320,32,17483,1,0,0:0:0:0:
260,60,17777,2,0,B|236:128|276:124|260:208,1,130,4|8,0:0|0:0,0:0:0:0:
176,284,18953,6,0,L|88:288,2,65,8|0|4,0:0|0:0|0:0,0:0:0:0:
292,340,20130,2,0,L|368:336,2,65,8|0|4,0:0|0:0|0:0,0:0:0:0:
316,212,21306,6,0,P|328:156|296:76,1,130,4|8,0:1|0:0,0:0:0:0:
200,160,22482,2,0,P|188:216|220:296,1,130,4|8,0:0|0:0,0:0:0:0:
260,324,23365,1,0,0:0:0:0:
312,284,23659,2,0,L|456:280,1,130,4|8,0:0|0:0,0:0:0:0:
484,156,24835,2,0,L|348:160,1,130,8|4,0:0|0:0,0:0:0:0:
300,124,25718,1,0,0:0:0:0:
244,160,26012,6,0,P|228:224|260:296,1,130,4|8,0:0|0:0,0:0:0:0:
368,332,27188,2,0,L|364:248,1,65,8|0,0:0|0:0,0:0:0:0:
408,216,27777,1,4,0:0:0:0:
316,124,28365,5,4,0:0:0:0:
228,220,28953,1,8,0:0:0:0:
324,308,29541,1,4,0:0:0:0:
408,216,30130,1,8,0:0:0:0:
320,120,30718,6,0,P|260:104|184:128,1,130,4|8,0:1|0:0,0:0:0:0:
80,64,31894,2,0,L|84:212,1,130,4|8,0:0|0:0,0:0:0:0:
88,260,32777,1,0,0:0:0:0:
88,324,33071,2,0,L|32:288,2,65,8|0|4,0:0|0:0|0:0,0:0:0:0:
192,248,34247,2,0,L|248:212,2,65,4|0|8,0:0|0:0|0:0,0:0:0:0:
96,160,35424,6,0,L|220:84,1,130,8|4,0:0|0:0,0:0:0:0:
308,12,36600,1,8,0:0:0:0:
332,136,37188,2,0,P|340:168|336:232,2,97.5,4|0|0,0:0|0:0|0:0,0:0:0:0:
296,84,38365,2,0,L|444:80,1,130,4|8,0:0|0:0,0:0:0:0:
500,188,39541,1,4,0:0:0:0:
436,300,40130,6,0,L|292:304,1,130,8|4,0:0|0:0,0:0:0:0:
252,264,41012,1,0,0:0:0:0:
203,308,41306,2,0,P|147:326|69:304,1,130,8|4,0:0|0:0,0:0:0:0:
140,196,42482,2,0,L|136:36,2,130,8|4|8,0:0|0:0|0:0,0:0:0:0:
252,132,44247,2,0,P|292:124|328:128,1,65,4|0,0:0|0:0,0:0:0:0:
372,160,44835,6,0,P|392:212|376:296,1,130,8|4,0:0|0:0,0:0:0:0:
340,336,45718,1,0,0:0:0:0:
284,300,46012,2,0,L|144:304,1,130,8|4,0:0|0:0,0:0:0:0:
88,192,47188,6,0,L|232:188,1,130,8|4,0:0|0:0,0:0:0:0:
272,224,48071,1,0,0:0:0:0:
272,224,48365,1,8,0:0:0:0:
