osu file format v14

[General]
AudioFilename: Island (Day) - Animal Crossing- New Leaf Music.mp3
AudioLeadIn: 0
PreviewTime: 2033
Countdown: 0
SampleSet: None
StackLeniency: 0.7
Mode: 0
LetterboxInBreaks: 0
WidescreenStoryboard: 1

[Editor]
Bookmarks: 48172
DistanceSpacing: 1.4
BeatDivisor: 4
GridSize: 4
TimelineZoom: 3.399999

[Metadata]
Title:Kotobuki Rando
TitleUnicode:コトブキランド
Artist:Manaka Kataoka & Atsuko Asahi
ArtistUnicode:朝日温子 & 片岡真央
Creator:PolkaMocha
Version:Shark (WIP)
Source:とびだせ どうぶつの森
Tags:Day Animal Crossing: New Leaf Tortimer Island Land Beach Daytime Noon Tour 3DS Nintendo Game Theme Noon
BeatmapID:1380410
BeatmapSetID:329835

[Difficulty]
HPDrainRate:7
CircleSize:4.2
OverallDifficulty:8
ApproachRate:9
SliderMultiplier:3.59999990463257
SliderTickRate:4

[Events]
//Background and Video events
0,0,"AnimalCrossing_wallpaper_1920x1200-B.jpg",0,0
//Break Periods
//Storyboard Layer 0 (Background)
//Storyboard Layer 1 (Fail)
//Storyboard Layer 2 (Pass)
//Storyboard Layer 3 (Foreground)
//Storyboard Sound Samples

[TimingPoints]
160,588.235294117647,4,3,1,50,1,0
2485,588.235294117647,4,3,1,50,1,0
3073,-100,4,3,1,100,0,0
3146,-100,4,3,1,40,0,0
3220,-100,4,3,1,30,0,0
3293,-100,4,3,1,20,0,0
3367,-100,4,3,1,10,0,0
3514,-100,4,3,1,50,0,0
9543,-100,4,3,1,50,0,1
11894,-100,4,3,1,50,0,0
12482,-100,4,3,1,50,0,0
12484,-100,4,3,1,100,0,0
12559,-100,4,3,1,40,0,0
12633,-100,4,3,1,30,0,0
12706,-100,4,3,1,20,0,0
12780,-100,4,3,1,10,0,0
12927,-100,4,3,1,50,0,0
18955,-100,4,3,1,50,0,1
21161,-100,4,3,1,50,0,0
21896,-100,4,3,1,100,0,0
21971,-100,4,3,1,40,0,0
22045,-100,4,3,1,30,0,0
22118,-100,4,3,1,20,0,0
22192,-100,4,3,1,10,0,0
22339,-100,4,3,1,50,0,0
23146,-100,4,3,1,5,0,0
23220,-100,4,3,1,50,0,0
23293,-100,4,3,1,5,0,0
23367,-100,4,3,1,50,0,0
23955,-100,4,3,1,40,0,0
24030,-100,4,3,1,35,0,0
24104,-100,4,3,1,30,0,0
24177,-100,4,3,1,25,0,0
24251,-100,4,3,1,20,0,0
24323,-100,4,3,1,15,0,0
24396,-100,4,3,1,50,0,0
24690,-100,4,3,1,40,0,0
24765,-100,4,3,1,35,0,0
24839,-100,4,3,1,30,0,0
24912,-100,4,3,1,25,0,0
24986,-100,4,3,1,20,0,0
25058,-100,4,3,1,15,0,0
25279,-100,4,3,1,50,0,0
28367,-100,4,3,1,50,0,1
30720,-100,4,3,1,50,0,0
33367,-100,4,3,1,50,0,1
34837,-100,4,3,1,50,0,0

[Colours]
Combo1 : 253,94,26
Combo2 : 0,255,128
Combo3 : 0,210,255
SliderBorder : 255,216,132

[HitObjects]
340,124,2485,5,6,0:0:0:0:
340,272,2632,1,0,0:0:0:0:
260,196,2779,1,0,0:0:0:0:
420,196,2926,1,4,0:0:0:0:
188,252,3073,6,2,L|164:268,1,22.4999994039536,14|2,0:2|0:2,0:2:0:0:
172,216,3146,6,2,L|132:220,1,22.4999994039536,2|2,2:0|2:0,2:0:0:0:
172,172,3220,6,2,L|132:168,1,22.4999994039536,2|2,2:0|2:0,2:0:0:0:
188,132,3293,6,2,L|164:116,1,22.4999994039536,2|2,2:0|2:0,2:0:0:0:
260,196,3367,5,2,2:0:0:0:
260,196,3514,1,0,0:0:0:0:
68,272,3661,6,0,P|40:188|88:84,1,179.999995231628,6|0,0:0|0:0,0:0:0:0:
192,28,4102,1,4,0:0:0:0:
160,172,4249,1,12,0:0:0:0:
160,172,4396,1,0,0:0:0:0:
4,24,4543,2,0,L|112:12,1,89.9999976158142,2|0,0:0|0:0,0:0:0:0:
244,112,4837,5,6,0:0:0:0:
64,228,4985,2,0,L|48:116,1,89.9999976158142
172,280,5279,2,0,L|159:369,1,89.9999976158142,6|12,0:0|0:0,0:0:0:0:
28,256,5573,2,0,L|0:56,1,179.999995231628
304,160,6014,6,0,P|224:196|120:112,1,179.999995231628,4|0,0:0|0:0,0:0:0:0:
224,80,6455,1,4,0:0:0:0:
400,120,6602,2,0,P|408:166|379:236,1,89.9999976158142,12|0,0:0|0:0,0:0:0:0:
248,320,6896,2,0,P|312:300|384:328,1,134.999996423721,6|0,0:0|0:0,0:0:0:0:
400,344,7190,6,0,P|444:353|523:321,1,89.9999976158142,6|0,0:0|0:0,0:0:0:0:
444,116,7484,1,0,0:0:0:0:
444,252,7632,1,4,0:0:0:0:
480,24,7779,1,14,0:0:0:0:
340,96,7926,2,0,L|356:204,1,89.9999976158142
430,341,8220,6,0,L|443:251,1,89.9999976158142,2|4,0:0|0:0,0:0:0:0:
464,144,8514,1,0,0:0:0:0:
156,284,8661,2,0,B|240:244|240:336|336:284,1,179.999995231629,2|12,0:0|0:0,0:0:0:0:
288,200,9102,1,0,0:0:0:0:
104,380,9249,2,0,L|204:364,1,89.9999976158143,2|0,0:0|0:0,0:0:0:0:
192,136,9543,5,12,0:0:0:0:
83,286,9690,2,0,P|72:244|88:192,1,89.9999976158143,10|4,0:0|0:0,0:0:0:0:
300,244,9985,1,2,0:0:0:0:
160,244,10132,1,8,0:0:0:0:
328,244,10279,1,2,0:0:0:0:
188,244,10426,1,8,0:0:0:0:
360,244,10573,1,10,0:0:0:0:
252,164,10720,5,14,0:0:0:0:
252,332,10867,1,0,0:0:0:0:
360,124,11014,1,14,0:0:0:0:
136,244,11161,1,0,0:0:0:0:
364,360,11308,2,0,B|408:368|408:368|464:356,1,89.9999976158143,10|0,0:0|0:0,0:0:0:0:
468,216,11602,2,0,B|404:200|404:200|336:216,1,134.999996423721
308,188,11896,5,6,0:0:0:0:
308,356,12043,1,0,0:0:0:0:
232,288,12190,1,0,0:0:0:0:
388,288,12337,1,4,0:0:0:0:
252,128,12484,6,2,L|240:109,1,22.4999994039536,14|2,0:2|0:2,0:2:0:0:
288,112,12557,6,2,L|286:89,1,22.4999994039536,2|2,2:0|2:0,2:0:0:0:
332,112,12631,6,2,L|335:89,1,22.4999994039536,2|2,2:0|2:0,2:0:0:0:
372,128,12704,6,2,L|385:109,1,22.4999994039536,2|2,2:0|2:0,2:0:0:0:
312,192,12778,5,2,2:0:0:0:
312,192,12926,1,0,0:0:0:0:
172,196,13073,2,0,P|136:120|200:16,1,179.999995231629,6|0,0:0|0:0,0:0:0:0:
244,112,13514,1,4,0:0:0:0:
44,196,13661,2,0,L|28:96,1,89.9999976158143,12|0,0:0|0:0,0:0:0:0:
168,292,13955,2,0,L|156:388,1,89.9999976158143,6|0,0:0|0:0,0:0:0:0:
48,320,14249,5,4,0:0:0:0:
264,240,14396,2,0,P|272:284|244:348,1,89.9999976158143,2|0,0:0|0:0,0:0:0:0:
152,176,14690,1,6,0:0:0:0:
264,96,14837,2,0,P|344:64|460:152,1,179.999995231629,12|0,0:0|0:0,0:0:0:0:
368,348,15279,1,4,0:0:0:0:
368,348,15426,6,0,L|340:132,1,179.999995231629,4|0,0:0|0:0,0:0:0:0:
264,268,15867,1,4,0:0:0:0:
455,285,16014,2,0,L|444:196,1,89.9999976158143,12|0,0:0|0:0,0:0:0:0:
264,268,16308,2,0,B|196:296|196:236|108:280,1,134.999996423721,6|0,0:0|0:0,0:0:0:0:
91,291,16602,6,0,P|79:324|90:378,1,89.9999976158143,6|0,0:0|0:0,0:0:0:0:
228,196,16896,2,0,P|240:163|229:109,1,89.9999976158143,0|4,0:0|0:0,0:0:0:0:
36,148,17190,2,0,L|144:152,1,89.9999976158143,14|0,0:0|0:0,0:0:0:0:
280,20,17485,2,0,L|156:16,1,89.9999976158143
72,16,17779,5,4,0:0:0:0:
336,200,17926,2,0,P|348:167|337:113,1,89.9999976158143,2|0,0:0|0:0,0:0:0:0:
240,292,18220,2,0,P|205:298|164:334,1,89.9999976158143,6|12,0:0|0:0,0:0:0:0:
384,328,18514,1,0,0:0:0:0:
384,328,18661,2,0,P|406:354|458:372,1,89.9999976158143,6|0,0:0|0:0,0:0:0:0:
336,200,18955,5,12,0:0:0:0:
240,292,19102,1,10,0:0:0:0:
384,328,19249,1,4,0:0:0:0:
164,224,19396,1,2,0:0:0:0:
192,368,19543,1,10,0:0:0:0:
156,200,19690,1,2,0:0:0:0:
188,348,19837,1,8,0:0:0:0:
148,172,19984,1,10,0:0:0:0:
88,304,20132,5,14,0:0:0:0:
256,268,20279,1,0,0:0:0:0:
52,208,20426,1,14,0:0:0:0:
176,368,20573,1,0,0:0:0:0:
256,176,20720,5,12,0:0:0:0:
60,118,20867,2,0,L|48:238,1,89.9999976158143,2|0,0:0|0:0,0:0:0:0:
256,268,21161,1,2,0:0:0:0:
437,30,21308,6,0,L|468:250,1,179.999995231629,4|0,0:0|0:0,0:0:0:0:
480,332,21749,1,4,0:0:0:0:
240,300,21896,6,2,L|228:281,1,22.4999994039536,14|2,0:2|0:2,0:2:0:0:
276,284,21969,6,2,L|274:261,1,22.4999994039536,2|2,2:0|2:0,2:0:0:0:
320,284,22043,6,2,L|323:261,1,22.4999994039536,2|2,2:0|2:0,2:0:0:0:
360,300,22116,6,2,L|373:281,1,22.4999994039536,2|2,2:0|2:0,2:0:0:0:
300,364,22190,5,2,2:0:0:0:
300,364,22337,1,4,0:0:0:0:
212,192,22484,6,0,P|296:164|412:228,1,179.999995231629,6|0,0:0|0:0,0:0:0:0:
124,288,22926,1,4,0:0:0:0:
40,192,23073,2,0,L|49:121,1,44.9999988079071,14|0,0:2|0:2,0:2:0:0:
168,56,23220,2,0,L|156:132,1,44.9999988079071,2|0,0:2|0:2,0:2:0:0:
60,4,23367,1,4,0:0:0:0:
272,56,23514,1,0,0:0:0:0:
272,56,23661,2,0,L|248:180,1,89.9999976158143
152,260,23955,6,2,L|140:279,1,22.4999994039536,2|2,0:2|0:2,0:2:0:0:
188,280,24028,6,2,L|180:304,1,22.4999994039536,2|2,2:0|2:0,2:0:0:0:
232,288,24102,6,2,L|228:312,1,22.4999994039536,2|2,2:0|2:0,2:0:0:0:
276,288,24176,6,2,L|279:310,1,22.4999994039536,2|2,2:0|2:0,2:0:0:0:
320,280,24249,6,2,L|327:301,1,22.4999994039536,2|2,2:0|2:0,2:0:0:0:
356,260,24323,6,2,L|368:279,1,22.4999994039536,2|2,0:2|0:2,0:2:0:0:
448,360,24396,2,0,P|496:304|528:296,1,89.9999976158143
456,176,24690,6,2,L|468:157,1,22.4999994039536,2|2,0:2|0:2,0:2:0:0:
420,156,24763,6,2,L|428:132,1,22.4999994039536,2|2,2:0|2:0,2:0:0:0:
376,148,24837,6,2,L|380:124,1,22.4999994039536,2|2,2:0|2:0,2:0:0:0:
332,148,24911,6,2,L|328:125,1,22.4999994039536,2|2,2:0|2:0,2:0:0:0:
288,156,24984,6,2,L|280:134,1,22.4999994039536,2|2,2:0|2:0,2:0:0:0:
252,176,25058,6,2,L|240:157,1,22.4999994039536,2|2,0:2|0:2,0:2:0:0:
188,64,25131,1,0,0:0:0:0:
96,180,25279,1,4,0:0:0:0:
96,180,25426,2,0,P|88:240|110:289,1,89.9999976158143,12|0,0:0|0:0,0:0:0:0:
228,384,25720,2,0,P|239:343|230:297,1,89.9999976158143,6|0,0:0|0:0,0:0:0:0:
64,128,26014,6,0,P|40:200|79:324,1,179.999995231629,6|0,0:0|0:0,0:0:0:0:
176,216,26455,1,4,0:0:0:0:
276,128,26602,1,12,0:0:0:0:
276,128,26749,1,0,0:0:0:0:
160,0,26896,2,0,L|144:124,1,89.9999976158143
364,176,27190,6,0,P|376:124|336:60,1,89.9999976158143,6|0,0:0|0:0,0:0:0:0:
232,236,27484,2,0,P|180:251|145:318,1,89.9999976158143,6|4,0:0|0:0,0:0:0:0:
348,312,27779,1,12,0:0:0:0:
348,312,27926,2,0,P|387:348|462:345,1,89.9999976158143,2|0,0:0|0:0,0:0:0:0:
440,228,28220,1,2,0:0:0:0:
287,169,28367,6,8,L|296:80,1,89.9999976158143,12|10,0:0|0:0,0:0:0:0:
384,124,28661,1,4,0:0:0:0:
192,124,28808,1,2,0:0:0:0:
416,124,28955,1,8,0:0:0:0:
220,124,29102,1,2,0:0:0:0:
296,28,29249,1,8,0:0:0:0:
220,236,29396,1,10,0:0:0:0:
144,28,29543,5,14,0:0:0:0:
232,144,29690,1,0,0:0:0:0:
124,4,29837,1,14,0:0:0:0:
212,120,29984,1,0,0:0:0:0:
80,248,30132,6,8,L|71:158,1,89.9999976158143,10|0,0:0|0:0,0:0:0:0:
