osu file format v14

[General]
AudioFilename: Island (Day) - Animal Crossing- New Leaf Music.mp3
AudioLeadIn: 0
PreviewTime: 2033
Countdown: 0
SampleSet: None
StackLeniency: 0.7
Mode: 0
LetterboxInBreaks: 0
WidescreenStoryboard: 0

[Editor]
DistanceSpacing: 1.2
BeatDivisor: 1
GridSize: 32
TimelineZoom: 1

[Metadata]
Title:Kotobuki Rando
TitleUnicode:コトブキランド
Artist:Manaka Kataoka & Atsuko Asahi
ArtistUnicode:朝日温子 & 片岡真央
Creator:PolkaMocha
Version:Normal
Source:とびだせ どうぶつの森
Tags:Day Animal Crossing: New Leaf Tortimer Island Land Beach Daytime Noon Tour 3DS Nintendo Game Theme Noon
BeatmapID:1252089
BeatmapSetID:329835

[Difficulty]
HPDrainRate:5
CircleSize:3.5
OverallDifficulty:5
ApproachRate:6.5
SliderMultiplier:1.6
SliderTickRate:2

[Events]
//Background and Video events
0,0,"AnimalCrossing_wallpaper_1920x1200-B.jpg",0,0
//Break Periods
//Storyboard Layer 0 (Background)
//Storyboard Layer 1 (Fail)
//Storyboard Layer 2 (Pass)
//Storyboard Layer 3 (Foreground)
//Storyboard Sound Samples

[TimingPoints]
160,588.235294117647,4,3,0,50,1,0
2485,588.235294117647,4,3,0,50,1,1
3071,-100,4,3,0,50,0,0
11894,-100,4,3,0,50,0,1
12482,-100,4,3,0,50,0,0

[Colours]
Combo1 : 253,94,26
Combo2 : 0,255,128
Combo3 : 0,210,255
SliderBorder : 255,216,132

[HitObjects]
0,200,122,5,2,0:0:0:0:
40,224,269,2,0,L|176:220,1,120,2|2,0:0|0:0,0:0:0:0:
200,244,857,1,2,0:0:0:0:
236,156,1151,1,2,0:0:0:0:
276,128,1298,2,0,P|312:124|360:132,1,53.3333333333333,8|8,0:0|0:0,0:0:0:0:
376,168,1690,2,0,P|402:168|428:165,1,53.3333333333333,4|4,0:0|0:0,0:0:0:0:
492,92,2180,1,4,0:0:0:0:
492,92,2437,6,0,P|472:144|512:256,1,160,4|4,0:1|0:0,0:0:0:0:
440,320,3319,1,0,0:0:0:0:
372,252,3613,2,0,B|312:256|312:256|280:284|280:284|192:288,1,160,8|4,0:0|0:0,0:0:0:0:
140,340,4495,1,0,0:0:0:0:
60,288,4789,5,8,0:0:0:0:
28,252,4937,2,0,P|20:212|44:148,1,80
60,140,5378,1,4,0:0:0:0:
128,72,5672,1,0,0:0:0:0:
196,140,5966,2,0,P|264:160|372:116,1,160,8|4,0:0|0:0,0:0:0:0:
416,68,6848,1,0,0:0:0:0:
488,132,7142,6,0,L|492:216,1,80,8|0,0:0|0:0,0:0:0:0:
424,280,7731,1,4,0:0:0:0:
392,244,7878,2,0,P|355:237|295:256,1,80
280,280,8319,2,0,L|168:284,1,80,8|0,0:0|0:0,0:0:0:0:
120,336,8907,1,4,0:0:0:0:
36,288,9201,1,0,0:0:0:0:
116,240,9495,6,0,L|88:188,1,40,4|0,0:0|0:0,0:0:0:0:
113,80,9937,2,0,L|131:115,2,40,0|8|0,0:0|0:0|0:0,0:0:0:0:
240,164,10525,2,0,L|221:128,2,40,0|4|0,0:0|0:0|0:0,0:0:0:0:
264,208,10966,1,0,0:0:0:0:
336,272,11260,1,8,0:0:0:0:
404,204,11554,1,0,0:0:0:0:
404,204,11848,6,0,P|428:128|372:36,1,160,4|8,0:1|0:0,0:0:0:0:
320,0,12731,1,0,0:0:0:0:
244,56,13025,2,0,L|152:60,1,80,4|0,0:0|0:0,0:0:0:0:
28,138,13613,2,0,L|107:135,1,80,8|0,0:0|0:0,0:0:0:0:
184,196,14201,5,4,0:0:0:0:
224,220,14348,2,0,P|272:224|312:212,1,80
340,188,14789,1,8,0:0:0:0:
260,132,15084,1,0,0:0:0:0:
188,68,15378,2,0,P|240:40|336:72,1,160,8|4,0:0|0:0,0:0:0:0:
412,16,16260,1,0,0:0:0:0:
492,68,16554,5,4,0:0:0:0:
428,140,16848,1,0,0:0:0:0:
496,208,17142,1,8,0:0:0:0:
436,284,17437,1,0,0:0:0:0:
372,360,17731,1,4,0:0:0:0:
332,332,17878,2,0,L|240:336,1,80
216,304,18319,1,8,0:0:0:0:
136,360,18613,1,0,0:0:0:0:
132,264,18907,6,0,P|130:236|135:202,1,40,8|0,0:0|0:0,0:0:0:0:
152,140,19348,2,0,P|132:139|112:141,2,40,0|4|0,0:0|0:0|0:0,0:0:0:0:
244,116,19936,2,0,P|246:144|241:178,2,40,0|8|0,0:0|0:0|0:0,0:0:0:0:
224,240,20525,2,0,P|243:240|263:238,2,40,0|4|0,0:0|0:0|0:0,0:0:0:0:
128,184,21113,1,0,0:0:0:0:
88,212,21260,6,0,L|92:336,1,120,4|0,0:1|0:0,0:0:0:0:
52,360,21848,1,8,0:0:0:0:
212,256,22436,2,0,P|264:240|328:256,1,120,4|0,0:0|0:0,0:0:0:0:
364,284,23025,2,0,L|432:280,1,40,8|0,0:0|0:0,0:0:0:0:
460,148,23613,5,4,0:0:0:0:
400,72,23907,2,0,L|296:80,1,80,0|8,0:0|0:0,0:0:0:0:
224,80,24495,1,0,0:0:0:0:
196,40,24642,2,0,P|148:36|112:44,1,80
36,96,25231,1,0,0:0:0:0:
12,136,25378,2,0,P|8:184|16:220,1,80,4|0,0:0|0:0,0:0:0:0:
24,312,25966,6,0,L|172:308,1,120,4|0,0:0|0:0,0:0:0:0:
180,340,26554,1,8,0:0:0:0:
240,268,26848,1,0,0:0:0:0:
324,316,27142,2,0,P|362:323|420:304,1,80,8|0,0:0|0:0,0:0:0:0:
472,248,27731,1,4,0:0:0:0:
496,208,27878,2,0,P|502:168|494:130,1,80
464,92,28319,6,0,L|460:16,1,40,4|0,0:0|0:0,0:0:0:0:
376,116,28760,2,0,L|380:184,2,40,0|8|0,0:0|0:0|0:0,0:0:0:0:
292,100,29348,2,0,L|288:28,1,40,0|8,0:0|0:0,0:0:0:0:
192,8,29789,1,0,0:0:0:0:
100,60,30084,2,0,L|104:164,1,80,4|0,0:0|0:0,0:0:0:0:
108,236,30672,5,4,0:1:0:0:
148,208,30819,2,0,P|204:192|288:224,1,120,0|8,0:0|0:0,0:0:0:0:
328,272,31554,1,0,0:0:0:0:
396,204,31848,2,0,L|392:88,1,80,4|0,0:0|0:0,0:0:0:0:
336,48,32436,1,8,0:0:0:0:
292,72,32584,2,0,P|246:81|199:66,1,80
172,52,33025,5,8,0:0:0:0:
92,108,33319,2,0,L|24:112,1,40
36,204,33760,2,0,L|140:200,1,80
156,224,34201,2,0,P|159:253|154:284,1,40,4|0,0:0|0:0,0:0:0:0:
226,331,34642,2,0,P|225:353|228:378,2,40,0|8|0,0:0|0:0|0:0,0:0:0:0:
300,268,35231,1,0,0:0:0:0:
332,232,35378,6,0,P|338:193|319:131,1,80,8|0,0:0|0:0,0:0:0:0:
296,120,35819,2,0,L|292:60,1,40,0|4,0:0|0:0,0:0:0:0:
220,20,36260,1,0,0:0:0:0:
144,80,36554,2,0,L|148:180,1,80,4|0,0:0|0:0,0:0:0:0:
68,216,37142,1,8,0:0:0:0:
36,252,37289,2,0,P|28:296|44:344,1,80
72,360,37731,1,8,0:0:0:0:
160,316,38025,5,0,0:0:0:0:
200,292,38172,2,0,L|304:288,1,80
372,268,38760,2,0,L|376:340,2,40,0|8|0,0:0|0:0|0:0,0:0:0:0:
308,200,39348,2,0,L|304:136,1,40,0|4,0:0|0:0,0:0:0:0:
296,64,39789,1,0,0:0:0:0:
208,20,40084,5,8,0:0:0:0:
132,84,40378,2,0,L|64:88,2,40,0|0|4,0:0|0:0|0:0,0:0:0:0:
112,176,40966,2,0,L|48:180,2,40,0|0|8,0:0|0:0|0:0,0:0:0:0:
180,244,41554,1,0,0:0:0:0:
180,244,41848,2,0,P|224:252|280:224,1,80,4|0,0:0|0:0,0:0:0:0:
324,172,42436,6,8,L|496:168,2,160,8|4|8,0:0|0:0|0:0,0:0:0:0:
232,144,43907,2,0,L|228:36,2,80,0|4|0,0:0|0:0|0:0,0:0:0:0:
140,176,44789,2,0,B|116:252|172:248|140:336,1,160,8|4,0:0|0:0,0:0:0:0:
228,372,45672,1,0,0:0:0:0:
316,332,45966,2,0,P|364:316|484:348,1,160,8|4,0:0|0:0,0:0:0:0:
504,248,46848,1,0,0:0:0:0:
456,164,47142,6,0,P|400:148|372:112,1,80,8|0,0:0|0:0,0:0:0:0:
288,136,47731,2,0,P|256:168|204:176,1,80,4|0,0:0|0:0,0:0:0:0:
132,136,48319,1,8,0:0:0:0:
