osu file format v14

[General]
AudioFilename: Island (Day) - Animal Crossing- New Leaf Music.mp3
AudioLeadIn: 0
PreviewTime: 2033
Countdown: 0
SampleSet: None
StackLeniency: 0.7
Mode: 0
LetterboxInBreaks: 0
WidescreenStoryboard: 1

[Editor]
Bookmarks: 48172
DistanceSpacing: 1.4
BeatDivisor: 4
GridSize: 4
TimelineZoom: 1.7

[Metadata]
Title:Kotobuki Rando
TitleUnicode:コトブキランド
Artist:Manaka Kataoka & Atsuko Asahi
ArtistUnicode:朝日温子 & 片岡真央
Creator:PolkaMocha
Version:Hard
Source:とびだせ どうぶつの森
Tags:Day Animal Crossing: New Leaf Tortimer Island Land Beach Daytime Noon Tour 3DS Nintendo Game Theme Noon
BeatmapID:1379931
BeatmapSetID:329835

[Difficulty]
HPDrainRate:5
CircleSize:3.5
OverallDifficulty:5
ApproachRate:7
SliderMultiplier:2.6
SliderTickRate:2

[Events]
//Background and Video events
0,0,"AnimalCrossing_wallpaper_1920x1200-B.jpg",0,0
//Break Periods
//Storyboard Layer 0 (Background)
//Storyboard Layer 1 (Fail)
//Storyboard Layer 2 (Pass)
//Storyboard Layer 3 (Foreground)
//Storyboard Sound Samples

[TimingPoints]
160,588.235294117647,4,3,0,50,1,0
2485,588.235294117647,4,3,0,50,1,1
3071,-100,4,3,0,50,0,0
11894,-100,4,3,0,50,0,1
12482,-100,4,3,0,50,0,0

[Colours]
Combo1 : 253,94,26
Combo2 : 0,255,128
Combo3 : 0,210,255
SliderBorder : 255,216,132

[HitObjects]
210,156,168,6,0,L|184:88,1,65
302,156,609,2,0,L|336:84,2,65
256,240,1197,1,0,0:0:0:0:
256,240,1344,2,0,L|256:360,2,86.6666666666667
256,80,1932,1,0,0:0:0:0:
328,144,2226,1,0,0:0:0:0:
184,144,2485,6,0,P|120:168|64:144,1,130
124,76,2926,1,0,0:0:0:0:
212,56,3073,2,0,B|220:52|220:52|228:56|228:56|236:52|236:52|244:56|244:56|252:52|252:52|260:56|260:56|268:52|268:52|276:56|276:56|284:52|284:52|292:56|292:56|304:52|304:52|312:56|312:56|320:52|320:52|328:56|328:56|340:52,1,130
416,80,3514,1,0,0:0:0:0:
476,148,3661,2,0,P|412:172|356:148,1,130
296,216,4102,1,0,0:0:0:0:
236,148,4249,2,0,P|176:128|88:172,1,130
60,320,4837,5,0,0:0:0:0:
148,348,4985,2,0,P|155:314|130:259,1,65
212,220,5279,1,0,0:0:0:0:
276,284,5426,2,0,B|344:300|344:252|416:288,1,130
464,352,5867,1,0,0:0:0:0:
496,268,6014,2,0,P|520:212|480:128,1,130
436,84,6455,1,0,0:0:0:0:
368,144,6602,2,0,P|307:163|244:144,1,130
280,324,7190,6,0,P|340:304|404:324,2,130
212,264,7926,2,0,B|148:248|148:292|68:264,1,130
32,196,8367,1,0,0:0:0:0:
184,92,8661,2,0,B|312:144|312:24|464:88,1,260
380,252,9543,5,0,0:0:0:0:
296,284,9690,2,0,B|288:252|288:252|300:212,1,65
368,164,9985,2,0,B|376:132|376:132|364:92,1,65
304,36,10279,2,0,L|144:52,1,130
92,8,10720,1,0,0:0:0:0:
92,8,10867,1,0,0:0:0:0:
92,100,11014,2,0,B|82:130|82:130|90:162,1,65
156,224,11308,2,0,B|165:254|165:254|157:286,1,65
84,340,11602,1,0,0:0:0:0:
260,296,11896,6,0,P|320:276|400:320,1,130
448,360,12337,1,0,0:0:0:0:
512,296,12484,2,0,B|511:294|511:294|515:286|515:286|511:278|511:278|515:270|515:270|511:258|511:258|515:250|515:250|511:242|511:242|515:234|515:234|511:226|511:226|515:218|515:218|511:210|511:210|515:202|515:202|511:194|511:194|515:186|515:186|511:178,1,130
444,116,12926,1,0,0:0:0:0:
376,176,13073,2,0,P|316:198|255:178,1,130
180,128,13514,1,0,0:0:0:0:
112,188,13661,2,0,P|89:128|109:67,1,130
284,12,14249,5,0,0:0:0:0:
352,72,14396,2,0,L|320:172,1,65
376,216,14690,1,0,0:0:0:0:
444,156,14837,2,0,P|463:216|441:276,1,130
356,308,15279,1,0,0:0:0:0:
284,252,15426,2,0,B|220:236|220:288|140:248,1,130
84,308,15867,1,0,0:0:0:0:
72,216,16014,2,0,P|66:181|88:136,1,65
24,76,16308,1,0,0:0:0:0:
204,40,16602,6,0,P|268:20|356:68,2,130
268,212,17485,1,0,0:0:0:0:
448,236,17779,2,0,P|454:195|432:152,2,65
504,308,18220,2,0,P|440:288|372:312,1,130
308,360,18661,1,0,0:0:0:0:
160,256,18955,5,0,0:0:0:0:
96,192,19102,2,0,L|112:108,1,65
76,44,19396,2,0,B|108:36|108:36|140:44,1,65
200,112,19690,2,0,B|232:120|232:120|264:112,1,65
328,52,19984,1,0,0:0:0:0:
396,112,20132,2,0,B|404:144|404:144|396:176,1,65
324,232,20426,2,0,B|316:264|316:264|324:296,1,65
392,352,20720,1,0,0:0:0:0:
464,296,20867,2,0,B|472:264|472:264|464:232,1,65
396,175,21161,1,0,0:0:0:0:
428,88,21308,6,0,B|364:64|364:112|300:88,1,130
228,36,21749,1,0,0:0:0:0:
156,92,21896,2,0,B|152:98|152:98|156:106|156:106|152:114|152:114|156:122|156:122|152:130|152:130|156:138|156:138|152:146|152:146|156:154|156:154|152:162|152:162|156:170|156:170|152:182|152:182|156:190|156:190|152:198|152:198|156:206|156:206|155:208,1,130
216,276,22337,1,0,0:0:0:0:
284,336,22484,2,0,P|307:276|284:214,1,130
112,272,23073,1,0,0:0:0:0:
196,304,23220,2,0,B|196:288|208:272|208:272|196:256|196:244,1,65
356,160,23661,5,0,0:0:0:0:
200,64,23955,2,0,B|194:60|194:60|186:64|186:64|178:60|178:60|170:64|170:64|162:60|162:60|154:64|154:64|146:60|146:60|138:64|138:64|130:60|130:60|122:64|122:64|110:60|110:60|102:64|102:64|94:60|94:60|86:64|86:64|84:63,1,130
16,124,24396,1,0,0:0:0:0:
172,220,24690,2,0,B|178:224|178:224|186:220|186:220|194:224|194:224|202:220|202:220|210:224|210:224|218:220|218:220|226:224|226:224|234:220|234:220|242:224|242:224|250:220|250:220|262:224|262:224|270:220|270:220|278:224|278:224|288:220|288:220|300:224|300:224|312:220|312:220|324:224|324:224|336:220|336:220|348:224|348:224|360:220,1,195
416,288,25279,1,0,0:0:0:0:
416,288,25426,1,0,0:0:0:0:
373,110,25720,2,0,P|380:79|364:32,1,65
288,80,26014,6,0,P|236:60|130:115,1,130
92,132,26455,1,0,0:0:0:0:
160,192,26602,2,0,P|140:244|200:352,1,130
332,360,27190,2,0,P|353:299|333:239,2,130
264,296,27926,2,0,B|196:276|196:320|128:296,1,130
160,212,28367,5,0,0:0:0:0:
128,128,28514,2,0,B|160:120|160:120|192:128,1,65
256,192,28808,2,0,B|288:200|288:200|320:192,1,65
384,128,29102,2,0,L|360:304,1,130
456,256,29543,2,0,L|468:176,1,65
476,100,29837,2,0,B|484:68|484:68|476:36,1,65
388,64,30132,2,0,B|348:56|348:56|308:76|308:76|260:64,1,130
84,36,30720,5,0,0:0:0:0:
28,108,30867,2,0,P|84:128|172:80,1,130
216,168,31308,2,0,P|237:228|217:288,1,130
144,344,31749,1,0,0:0:0:0:
68,292,31896,2,0,P|47:231|69:171,1,130
64,80,32337,1,0,0:0:0:0:
152,96,32484,2,0,P|191:91|244:112,2,65
184,180,32926,1,0,0:0:0:0:
276,168,33073,6,0,P|295:149|304:84,1,65
276,28,33367,1,0,0:0:0:0:
364,44,33514,2,0,B|394:37|394:37|428:44,1,65
464,128,33808,2,0,B|471:158|471:158|464:192,1,65
396,252,34102,1,0,0:0:0:0:
328,188,34249,2,0,B|321:154|321:154|328:124,2,65
268,256,34690,2,0,B|275:290|275:290|268:320,1,65
184,288,34984,2,0,P|124:308|36:264,1,130
120,220,35426,6,0,P|100:160|144:72,1,130
180,32,35867,1,0,0:0:0:0:
248,92,36014,2,0,B|312:112|312:64|392:88,1,130
247,218,36602,2,0,B|183:198|183:246|103:214,2,130
308,284,37337,2,0,P|376:308|444:264,1,130
488,220,37779,5,0,0:0:0:0:
380,76,38073,1,0,0:0:0:0:
296,44,38220,2,0,B|289:78|289:78|296:108,1,65
368,164,38514,2,0,B|375:198|375:198|368:228,1,65
292,280,38808,1,0,0:0:0:0:
220,228,38955,2,0,B|213:198|213:198|220:164,2,65
292,280,39396,1,0,0:0:0:0:
224,340,39543,2,0,P|160:364|80:320,1,130
24,180,40132,6,0,L|124:192,1,65
172,228,40426,2,0,P|180:188|152:136,1,65
112,100,40720,1,0,0:0:0:0:
264,0,41014,2,0,P|256:40|284:92,1,65
324,128,41308,1,0,0:0:0:0:
460,248,41602,2,0,P|467:284|440:340,1,65
388,364,41896,1,0,0:0:0:0:
316,308,42043,2,0,P|281:303|240:312,1,65
180,364,42337,6,0,B|184:358|184:358|180:350|180:350|184:342|184:342|180:334|180:334|184:326|184:326|180:318|180:318|184:310|184:310|180:302|180:302|184:294|184:294|180:286|180:286|184:274|184:274|180:266|180:266|184:258|184:258|180:248|180:248|184:236|184:236|180:224|180:224|184:212|184:212|180:200|180:200|184:188|184:188|180:176,1,195
120,116,42926,1,0,0:0:0:0:
180,48,43073,1,0,0:0:0:0:
180,48,43220,2,0,P|240:28|332:80,1,130
384,12,43661,2,0,P|392:48|355:103,1,65
316,132,43955,2,0,P|295:193|338:277,1,130
352,336,44396,2,0,P|312:344|248:300,1,65
224,276,44690,1,0,0:0:0:0:
156,336,44837,6,0,P|180:264|132:192,1,130
88,160,45279,1,0,0:0:0:0:
164,108,45426,2,0,P|160:68|172:24,2,65
248,72,45867,2,0,B|328:44|324:116|432:67,1,130
448,28,46308,1,0,0:0:0:0:
404,204,46602,2,0,P|412:268|384:312,1,65
352,336,46896,1,0,0:0:0:0:
304,260,47043,6,0,B|212:224|228:304|124:268,1,130
104,228,47484,2,0,L|88:132,1,65
184,160,47779,2,0,L|164:56,2,65
268,192,48220,1,4,1:0:0:0:
