osu file format v14

[General]
AudioFilename: audio.mp3
AudioLeadIn: 0
PreviewTime: 497
Countdown: 0
SampleSet: Soft
StackLeniency: 0.7
Mode: 0
LetterboxInBreaks: 0
WidescreenStoryboard: 1

[Editor]
Bookmarks: 41019
DistanceSpacing: 1.2
BeatDivisor: 1
GridSize: 32
TimelineZoom: 1

[Metadata]
Title:Gozen 1-ji (Rain)
TitleUnicode:午前1時 (Rain)
Artist:Manaka Kataoka & Atsuko Asahi
ArtistUnicode:朝日温子 & 片岡真央
Creator:Veridian
Version:1:45 AM (Rainy)
Source:とびだせ どうぶつの森
Tags:Janssen PolkaMocha Renumi Gero ezek Noffy Atsuro Animal Crossing: Crossing New Leaf Nintendo Game Slow Calm Xylophone Rainy 1 one am a.m. am. version short 3DS 1am
BeatmapID:1166729
BeatmapSetID:550486

[Difficulty]
HPDrainRate:5
CircleSize:6
OverallDifficulty:6.5
ApproachRate:6.5
SliderMultiplier:1.8
SliderTickRate:1

[Events]
//Background and Video events
0,0,"PhestHJ.jpg",0,0
//Break Periods
//Storyboard Layer 0 (Background)
//Storyboard Layer 1 (Fail)
//Storyboard Layer 2 (Pass)
//Storyboard Layer 3 (Foreground)
//Storyboard Sound Samples

[TimingPoints]
2064.44258212279,895.522388059701,4,2,2,100,1,0
2288,-100,4,2,2,5,0,0
2512,-100,4,2,2,100,0,0
2736,-100,4,2,2,5,0,0
2959,-100,4,2,1,100,0,0
3407,-100,4,2,1,5,0,0
3855,-100,4,2,2,100,0,0
4079,-100,4,2,2,5,0,0
4303,-100,4,2,2,100,0,0
4527,-100,4,2,2,5,0,0
4751,-100,4,2,1,100,0,0
4974,-100,4,2,1,5,0,0
5198,-100,4,2,1,100,0,0
5646,-100,4,2,2,100,0,0
5870,-100,4,2,2,5,0,0
6094,-100,4,2,2,100,0,0
6542,-100,4,2,1,100,0,0
6765,-100,4,2,1,5,0,0
6989,-100,4,2,1,100,0,0
8780,-100,4,2,0,100,0,0
9228,-100,4,2,2,100,0,0
9452,-100,4,2,2,5,0,0
9676,-100,4,2,2,100,0,0
9900,-100,4,2,2,5,0,0
10124,-100,4,2,1,100,0,0
10571,-100,4,2,1,5,0,0
11019,-100,4,2,2,100,0,0
11243,-100,4,2,2,5,0,0
11467,-100,4,2,2,100,0,0
11691,-100,4,2,2,5,0,0
11915,-100,4,2,1,100,0,0
12139,-100,4,2,1,5,0,0
12362,-100,4,2,1,100,0,0
12810,-100,4,2,2,100,0,0
13706,-100,4,2,1,100,0,0
15945,-100,4,2,0,100,0,0
16392,-100,4,2,2,100,0,0
16616,-100,4,2,2,5,0,0
16840,-100,4,2,2,100,0,0
17064,-100,4,2,2,5,0,0
17287,-100,4,2,1,100,0,0
17735,-100,4,2,1,5,0,0
18183,-100,4,2,2,100,0,0
18407,-100,4,2,2,5,0,0
18631,-100,4,2,2,100,0,0
18855,-100,4,2,2,5,0,0
19079,-100,4,2,1,100,0,0
19302,-100,4,2,1,5,0,0
19526,-100,4,2,1,100,0,0
19974,-100,4,2,2,100,0,0
20198,-100,4,2,2,5,0,0
20422,-100,4,2,2,100,0,0
20870,-100,4,2,1,100,0,0
21093,-100,4,2,1,5,0,0
21317,-100,4,2,1,100,0,0
22213,-100,4,2,0,100,0,0
23556,-100,4,2,2,100,0,0
23780,-100,4,2,2,5,0,0
24004,-100,4,2,2,100,0,0
24228,-100,4,2,2,5,0,0
24452,-100,4,2,1,100,0,0
24899,-100,4,2,1,5,0,0
25347,-100,4,2,2,100,0,0
25571,-100,4,2,2,5,0,0
25795,-100,4,2,2,100,0,0
26019,-100,4,2,2,5,0,0
26243,-100,4,2,1,100,0,0
26467,-100,4,2,1,5,0,0
26691,-100,4,2,1,100,0,0
27139,-100,4,2,2,100,0,0
28034,-100,4,2,1,100,0,0
30721,-100,4,2,2,100,0,0
30945,-100,4,2,2,5,0,0
31168,-100,4,2,2,100,0,0
31392,-100,4,2,2,5,0,0
31616,-100,4,2,1,100,0,0
32064,-100,4,2,1,5,0,0
32512,-100,4,2,2,100,0,0
32736,-100,4,2,2,5,0,0
32959,-100,4,2,2,100,0,0
33183,-100,4,2,2,5,0,0
33407,-100,4,2,1,100,0,0
33855,-100,4,2,1,5,0,0
34303,-100,4,2,2,100,0,0
35198,-100,4,2,1,100,0,0
37885,-100,4,2,2,100,0,0
38109,-100,4,2,2,5,0,0
38332,-100,4,2,2,100,0,0
38556,-100,4,2,2,5,0,0
38780,-100,4,2,1,100,0,0
39228,-100,4,2,1,5,0,0
39676,-100,4,2,2,100,0,0
39900,-100,4,2,2,5,0,0
40123,-100,4,2,2,100,0,0
40347,-100,4,2,2,5,0,0
40571,-100,4,2,1,100,0,0
41019,-100,4,2,1,5,0,0
41467,-100,4,2,2,100,0,0
42362,-100,4,2,1,100,0,0
45049,-100,4,2,2,100,0,0
45273,-100,4,2,2,5,0,0
45496,-100,4,2,2,100,0,0
45720,-100,4,2,2,5,0,0
45944,-100,4,2,1,100,0,0
46392,-100,4,2,1,5,0,0
46840,-100,4,2,2,100,0,0
47064,-100,4,2,2,5,0,0
47287,-100,4,2,2,100,0,0
47511,-100,4,2,2,5,0,0
47735,-100,4,2,1,100,0,0
48183,-100,4,2,1,5,0,0
48631,-100,4,2,2,100,0,0
49527,-100,4,2,1,100,0,0
52213,-100,4,2,2,100,0,0
52437,-100,4,2,2,5,0,0
52661,-100,4,2,2,100,0,0
52885,-100,4,2,2,5,0,0
53109,-100,4,2,1,100,0,0
53556,-100,4,2,1,5,0,0
54004,-100,4,2,2,100,0,0
54228,-100,4,2,2,5,0,0
54452,-100,4,2,2,100,0,0
54676,-100,4,2,2,5,0,0
54900,-100,4,2,1,100,0,0
55348,-100,4,2,1,5,0,0
55795,-100,4,2,1,100,0,0
58034,-100,4,2,0,100,0,0
59377,-100,4,2,2,100,0,0
59601,-100,4,2,2,5,0,0
59825,-100,4,2,2,100,0,0
60049,-100,4,2,2,5,0,0
60273,-100,4,2,1,100,0,0
60721,-100,4,2,1,5,0,0
61168,-100,4,2,2,100,0,0
61392,-100,4,2,2,5,0,0
61616,-100,4,2,2,100,0,0
61840,-100,4,2,2,5,0,0
62064,-100,4,2,1,100,0,0
62959,-100,4,2,2,100,0,0
63855,-100,4,2,2,70,0,0
64303,-100,4,2,2,40,0,0
64751,-100,4,2,2,10,0,0
65198,-100,4,2,2,5,0,0

[Colours]
Combo1 : 97,31,67
Combo2 : 128,128,255
Combo3 : 0,64,128
Combo4 : 0,128,128
Combo5 : 0,128,64
Combo6 : 243,100,58
SliderBorder : 209,249,157

[HitObjects]
192,228,2064,6,0,L|144:288,1,45,6|0,0:0|0:0,0:0:0:0:
256,292,2512,2,0,L|256:372,1,45
320,228,2959,2,0,L|380:304,1,90,10|0,0:0|0:0,0:0:0:0:
192,160,3855,2,0,L|144:100,1,45,6|0,0:0|0:0,0:0:0:0:
256,96,4303,2,0,L|256:16,1,45
320,160,4751,2,0,L|368:100,1,45,10|0,0:0|0:0,0:0:0:0:
404,64,5198,1,0,0:0:0:0:
460,156,5646,2,0,P|464:180|456:216,1,45,6|0,0:0|0:0,0:0:0:0:
412,268,6094,1,0,0:0:0:0:
268,148,6542,2,0,P|264:124|272:88,1,45,10|0,0:0|0:0,0:0:0:0:
312,36,6990,1,0,0:0:0:0:
352,204,7437,2,0,P|296:232|176:192,1,180,6|8,0:0|0:0,0:0:0:0:
270,56,8780,1,2,0:0:0:0:
352,204,9228,6,0,L|388:264,1,45,6|0,0:0|0:0,0:0:0:0:
280,268,9676,2,0,L|280:332,1,45
208,204,10124,2,0,L|140:280,1,90,10|0,0:0|0:0,0:0:0:0:
352,124,11019,2,0,L|388:64,1,45,6|0,0:0|0:0,0:0:0:0:
280,60,11467,2,0,L|280:-4,1,45
208,124,11915,2,0,L|156:64,1,45,10|0,0:0|0:0,0:0:0:0:
128,24,12362,1,0,0:0:0:0:
76,200,12810,2,0,P|64:244|88:300,1,90,6|0,0:0|0:0,0:0:0:0:
236,285,13706,2,0,P|248:242|236:199,1,90,10|0,0:0|0:0,0:0:0:0:
164,92,14601,1,6,0:0:0:0:
164,92,15945,1,2,0:0:0:0:
260,24,16392,6,0,L|308:-16,1,45,6|0,0:0|0:0,0:0:0:0:
296,92,16840,2,0,L|368:92,1,45
256,168,17288,2,0,L|352:212,1,90,10|0,0:0|0:0,0:0:0:0:
184,104,18183,2,0,L|136:64,1,45,6|0,0:0|0:0,0:0:0:0:
148,172,18631,2,0,L|76:172,1,45
188,252,19079,2,0,L|112:288,1,45,10|0,0:0|0:0,0:0:0:0:
72,312,19527,1,0,0:0:0:0:
284,168,19974,2,0,P|286:142|280:108,1,45,6|0,0:0|0:0,0:0:0:0:
256,48,20422,1,0,0:0:0:0:
216,236,20870,2,0,P|214:262|220:296,1,45,10|0,0:0|0:0,0:0:0:0:
244,356,21318,1,0,0:0:0:0:
360,236,21765,2,0,B|338:232|338:232|315:236,1,45,6|0,0:0|0:0,0:0:0:0:
464,256,22213,5,2,0:0:0:0:
276,152,22661,1,2,0:0:0:0:
376,344,23109,1,2,0:0:0:0:
464,152,23556,6,0,P|476:120|468:72,1,45,6|0,0:0|0:0,0:0:0:0:
392,108,24004,2,0,P|380:80|352:56,1,45
304,124,24452,2,0,P|256:112|208:128,1,90,10|0,0:0|0:0,0:0:0:0:
260,244,25348,2,0,P|248:276|256:324,1,45,6|0,0:0|0:0,0:0:0:0:
332,288,25796,2,0,P|344:316|372:340,1,45
420,272,26244,2,0,P|448:275|493:260,1,45,10|0,0:0|0:0,0:0:0:0:
442,192,26691,1,0,0:0:0:0:
484,80,27139,2,0,P|437:71|390:83,1,90,6|0,0:0|0:0,0:0:0:0:
308,192,28034,2,0,P|264:200|220:191,1,90,10|0,0:0|0:0,0:0:0:0:
128,84,28930,1,6,0:0:0:0:
128,80,30721,6,0,L|200:32,1,45,6|0,0:0|0:0,0:0:0:0:
192,128,31168,2,0,L|268:128,1,45
216,204,31616,2,0,L|304:252,1,90,10|0,0:0|0:0,0:0:0:0:
276,356,32512,2,0,P|300:359|337:350,1,45,6|0,0:0|0:0,0:0:0:0:
404,376,32959,2,0,P|407:352|398:315,1,45
448,248,33407,2,0,P|404:240|352:252,1,90,10|0,0:0|0:0,0:0:0:0:
196,332,34303,2,0,P|240:340|292:328,1,90,6|0,0:0|0:0,0:0:0:0:
120,244,35198,2,0,P|76:236|24:248,1,90,10|0,0:0|0:0,0:0:0:0:
76,344,36094,1,6,0:0:0:0:
76,344,37885,6,0,L|128:376,1,45,6|0,0:0|0:0,0:0:0:0:
144,288,38333,2,0,L|212:288,1,45
76,224,38780,2,0,L|180:180,1,90,10|0,0:0|0:0,0:0:0:0:
352,44,39676,2,0,L|300:12,1,45,6|0,0:0|0:0,0:0:0:0:
284,100,40124,2,0,L|216:100,1,45
348,176,40571,2,0,L|244:220,1,90,10|0,0:0|0:0,0:0:0:0:
148,272,41467,1,6,0:0:0:0:
224,92,41915,1,0,0:0:0:0:
32,196,42362,1,10,0:0:0:0:
256,196,42810,1,0,0:0:0:0:
76,92,43258,1,6,0:0:0:0:
80,88,45049,6,0,P|78:59|88:24,1,45,6|0,0:0|0:0,0:0:0:0:
172,68,45497,2,0,P|201:66|236:76,1,45
192,160,45945,2,0,P|200:212|184:264,1,90,10|0,0:0|0:0,0:0:0:0:
40,224,46840,2,0,L|104:204,1,45,6|0,0:0|0:0,0:0:0:0:
40,348,47288,2,0,L|84:364,1,45
96,288,47736,2,0,B|140:268|140:308|196:284,1,90,10|0,0:0|0:0,0:0:0:0:
328,204,48631,2,0,P|288:192|224:217,1,90,6|0,0:0|0:0,0:0:0:0:
384,288,49527,2,0,P|424:300|488:275,1,90,10|0,0:0|0:0,0:0:0:0:
428,172,50422,1,6,0:0:0:0:
424,168,52213,6,0,L|472:116,1,45,6|0,0:0|0:0,0:0:0:0:
368,96,52661,2,0,L|368:32,1,45
312,168,53109,2,0,L|232:104,1,90,10|0,0:0|0:0,0:0:0:0:
192,232,54004,2,0,L|252:280,1,45,6|0,0:0|0:0,0:0:0:0:
140,304,54452,2,0,L|140:368,1,45
88,232,54900,2,0,L|0:292,1,90,10|0,0:0|0:0,0:0:0:0:
208,152,55795,1,6,0:0:0:0:
392,252,56243,1,0,0:0:0:0:
180,252,56691,1,10,0:0:0:0:
364,152,57139,1,0,0:0:0:0:
288,324,57586,1,6,0:0:0:0:
288,96,58034,5,2,0:0:0:0:
416,272,58482,1,2,0:0:0:0:
164,272,58930,1,2,0:0:0:0:
288,72,59377,6,0,P|312:44|352:32,1,45,6|0,0:0|0:0,0:0:0:0:
360,108,59825,2,0,P|392:104|432:112,1,45
388,188,60273,2,0,P|396:240|376:292,1,90,10|0,0:0|0:0,0:0:0:0:
228,248,61168,2,0,P|225:211|244:174,1,45,6|0,0:0|0:0,0:0:0:0:
156,160,61616,2,0,P|175:134|209:111,1,45
144,48,62064,2,0,P|191:39|256:60,1,90,10|0,0:0|0:0,0:0:0:0:
344,120,62959,1,6,0:0:0:0:
256,192,63183,12,0,65646,0:0:0:0:
