osu file format v14

[General]
AudioFilename: audio.mp3
AudioLeadIn: 0
PreviewTime: 497
Countdown: 0
SampleSet: Soft
StackLeniency: 0.7
Mode: 0
LetterboxInBreaks: 0
WidescreenStoryboard: 0

[Editor]
DistanceSpacing: 1.2
BeatDivisor: 1
GridSize: 32
TimelineZoom: 1

[Metadata]
Title:Gozen 1-ji (Rain)
TitleUnicode:午前1時 (Rain)
Artist:Manaka Kataoka & Atsuko Asahi
ArtistUnicode:朝日温子 & 片岡真央
Creator:Veridian
Version:1:20 AM (Advanced)
Source:とびだせ どうぶつの森
Tags:Janssen PolkaMocha Renumi Gero ezek Noffy Atsuro Animal Crossing: Crossing New Leaf Nintendo Game Slow Calm Xylophone Rainy 1 one am a.m. am. version short 3DS 1am
BeatmapID:1166232
BeatmapSetID:550486

[Difficulty]
HPDrainRate:4
CircleSize:3.2
OverallDifficulty:4
ApproachRate:4
SliderMultiplier:1.5
SliderTickRate:1

[Events]
//Background and Video events
0,0,"PhestHJ.jpg",0,0
//Break Periods
//Storyboard Layer 0 (Background)
//Storyboard Layer 1 (Fail)
//Storyboard Layer 2 (Pass)
//Storyboard Layer 3 (Foreground)
//Storyboard Sound Samples

[TimingPoints]
2064,895.522388059701,4,2,2,100,1,0
2959,-100,4,2,1,100,0,0
3855,-100,4,2,2,100,0,0
4751,-100,4,2,1,100,0,0
5646,-100,4,2,2,100,0,0
6542,-100,4,2,1,100,0,0
8780,-100,4,2,0,100,0,0
9228,-100,4,2,2,100,0,0
10124,-100,4,2,1,100,0,0
11019,-100,4,2,2,100,0,0
11915,-100,4,2,1,100,0,0
12810,-100,4,2,2,100,0,0
13706,-100,4,2,1,100,0,0
15945,-100,4,2,0,100,0,0
16392,-100,4,2,2,100,0,0
17288,-100,4,2,1,100,0,0
18183,-100,4,2,2,100,0,0
19079,-100,4,2,1,100,0,0
19974,-100,4,2,2,100,0,0
20870,-100,4,2,1,100,0,0
22213,-100,4,2,3,100,0,0
23556,-100,4,2,2,100,0,0
24452,-100,4,2,1,100,0,0
25348,-100,4,2,2,100,0,0
26243,-100,4,2,1,100,0,0
27139,-100,4,2,2,100,0,0
28034,-100,4,2,1,100,0,0
30721,-100,4,2,2,100,0,0
31616,-100,4,2,1,100,0,0
32512,-100,4,2,2,100,0,0
33407,-100,4,2,1,100,0,0
34303,-100,4,2,2,100,0,0
35198,-100,4,2,1,100,0,0
37885,-100,4,2,2,100,0,0
38780,-100,4,2,1,100,0,0
39676,-100,4,2,2,100,0,0
40571,-100,4,2,1,100,0,0
41467,-100,4,2,2,100,0,0
42362,-100,4,2,1,100,0,0
45049,-100,4,2,2,100,0,0
45945,-100,4,2,1,100,0,0
46840,-100,4,2,2,100,0,0
47736,-100,4,2,1,100,0,0
48631,-100,4,2,2,100,0,0
49527,-100,4,2,1,100,0,0
52213,-100,4,2,2,100,0,0
53109,-100,4,2,1,100,0,0
54004,-100,4,2,2,100,0,0
54900,-100,4,2,1,100,0,0
58034,-100,4,2,3,100,0,0
59377,-100,4,2,2,100,0,0
60273,-100,4,2,1,100,0,0
61168,-100,4,2,2,100,0,0
62064,-100,4,2,1,100,0,0
62959,-100,4,2,2,100,0,0
63855,-100,4,2,2,70,0,0
64303,-100,4,2,2,40,0,0
64751,-100,4,2,2,10,0,0
65198,-100,4,2,2,5,0,0

[Colours]
Combo1 : 97,31,67
Combo2 : 128,128,255
Combo3 : 0,64,128
Combo4 : 0,128,128
Combo5 : 0,128,64
Combo6 : 243,100,58
SliderBorder : 209,249,157

[HitObjects]
128,332,2064,6,0,L|232:304,1,75,6|0,0:0|0:0,0:0:0:0:
284,284,2959,1,10,0:0:0:0:
452,224,3855,2,0,L|348:196,1,75,6|0,0:0|0:0,0:0:0:0:
296,176,4750,1,10,0:0:0:0:
244,104,5198,1,0,0:0:0:0:
244,104,5646,6,0,P|256:144|228:280,1,150,6|10,0:0|0:0,0:0:0:0:
176,308,6989,1,0,0:0:0:0:
108,252,7437,1,6,0:0:0:0:
284,44,8780,1,2,0:0:0:0:
352,104,9228,6,0,L|436:104,1,75,6|0,0:0|0:0,0:0:0:0:
496,160,10124,1,10,0:0:0:0:
336,244,11019,2,0,L|240:244,1,75,6|0,0:0|0:0,0:0:0:0:
188,300,11915,1,10,0:0:0:0:
116,248,12362,1,0,0:0:0:0:
116,248,12810,6,0,P|108:196|124:156,1,75,6|0,0:0|0:0,0:0:0:0:
184,120,13706,2,0,P|192:72|172:24,1,75,10|0,0:0|0:0,0:0:0:0:
100,84,14601,2,0,B|252:84|252:84|336:120,1,225,6|2,0:0|0:0,0:0:0:0:
400,72,16392,6,0,P|408:124|388:168,1,75,4|2,0:0|0:0,0:0:0:0:
332,204,17287,1,10,0:0:0:0:
220,348,18183,2,0,P|212:296|232:252,1,75,4|2,0:0|0:0,0:0:0:0:
288,216,19078,1,10,0:0:0:0:
360,148,19527,1,0,0:0:0:0:
360,148,19974,6,0,B|288:176|288:176|196:144,1,150,6|10,0:0|0:0,0:0:0:0:
148,96,21318,1,0,0:0:0:0:
76,152,21765,1,6,0:0:0:0:
148,208,22213,2,0,P|154:253|143:292,2,75,2|2|2,0:0|0:0|0:0,0:0:0:0:
64,244,23556,6,0,P|57:280|64:317,1,75,6|0,0:0|0:0,0:0:0:0:
136,372,24452,1,10,0:0:0:0:
300,296,25348,2,0,P|306:259|299:222,1,75,6|0,0:0|0:0,0:0:0:0:
228,168,26244,1,10,0:0:0:0:
228,168,26691,1,0,0:0:0:0:
300,108,27139,6,0,L|388:92,1,75,6|0,0:0|0:0,0:0:0:0:
352,188,28034,2,0,L|372:284,1,75,10|0,0:0|0:0,0:0:0:0:
272,248,28930,2,0,L|96:280,1,150,6|0,0:0|0:0,0:0:0:0:
184,104,30721,6,0,L|280:84,1,75,6|0,0:0|0:0,0:0:0:0:
344,68,31616,1,10,0:0:0:0:
444,216,32512,2,0,L|348:196,1,75,6|0,0:0|0:0,0:0:0:0:
284,180,33407,1,10,0:0:0:0:
112,128,34303,6,0,P|119:176|104:220,1,75,6|0,0:0|0:0,0:0:0:0:
52,268,35198,2,0,P|45:316|60:360,1,75,10|0,0:0|0:0,0:0:0:0:
132,304,36094,2,0,B|192:320|200:268|296:308,1,150,6|0,0:0|0:0,0:0:0:0:
412,180,37885,5,6,0:0:0:0:
344,120,38333,1,0,0:0:0:0:
276,180,38780,1,10,0:0:0:0:
148,308,39676,1,6,0:0:0:0:
80,368,40123,1,0,0:0:0:0:
12,308,40571,1,10,0:0:0:0:
80,140,41467,6,0,L|80:244,2,75,6|0|10,0:0|0:0|0:0,0:0:0:0:
144,76,42810,1,0,0:0:0:0:
212,136,43258,2,0,B|280:168|280:104|360:133,1,150,6|0,0:0|0:0,0:0:0:0:
432,296,45049,6,0,P|392:304|336:288,1,75,6|0,0:0|0:0,0:0:0:0:
280,256,45945,1,10,0:0:0:0:
244,80,46840,2,0,P|284:72|340:88,1,75,6|0,0:0|0:0,0:0:0:0:
396,120,47736,1,10,0:0:0:0:
284,260,48631,6,0,B|245:266|245:266|193:257,1,75,6|0,0:0|0:0,0:0:0:0:
188,172,49527,2,0,B|152:165|152:165|113:171,1,75,10|0,0:0|0:0,0:0:0:0:
36,216,50422,2,0,P|56:160|24:60,1,150,6|0,0:0|0:0,0:0:0:0:
168,196,52213,5,6,0:0:0:0:
252,232,52661,1,0,0:0:0:0:
332,192,53109,1,10,0:0:0:0:
460,64,54004,1,6,0:0:0:0:
376,28,54452,1,0,0:0:0:0:
296,68,54900,1,10,0:0:0:0:
388,224,55795,6,0,P|396:184|384:140,2,75,6|0|10,0:0|0:0|0:0,0:0:0:0:
324,288,57139,1,0,0:0:0:0:
324,288,57586,1,6,0:0:0:0:
260,224,58034,2,0,P|252:184|264:140,2,75,2|2|2,0:0|0:0|0:0,0:0:0:0:
328,284,59377,6,0,B|260:256|260:256|184:284,1,150,6|10,0:0|0:0,0:0:0:0:
64,152,61168,2,0,B|132:180|132:180|208:148,1,150,6|10,0:0|0:0,0:0:0:0:
280,104,62512,1,0,0:0:0:0:
360,148,62959,1,6,0:0:0:0:
256,192,63183,12,0,65646,0:0:0:0:
