osu file format v14

[General]
AudioFilename: audio.mp3
AudioLeadIn: 0
PreviewTime:48919
Countdown: 0
SampleSet: Normal
StackLeniency: 0.7
Mode: 1
LetterboxInBreaks: 0
WidescreenStoryboard: 1

[Editor]
DistanceSpacing: 0.1
BeatDivisor: 4
GridSize: 32
TimelineZoom: 2.899999

[Metadata]
Title:Tenshi
TitleUnicode:テンシ
Artist:Manabu Namiki
ArtistUnicode:並木学
Creator:iceOC
Version:Muzukashii
Source:怒首領蜂最大往生
Tags:video game electronic instrumental hardcore terrorcore dodonpachi saidaioujou 陽蜂 陰蜂 cave true final boss オリジナルサウンドトラック original soundtrack maximum
BeatmapID:3470733
BeatmapSetID:1680689

[Difficulty]
HPDrainRate:6.6
CircleSize:5
OverallDifficulty:4.4
ApproachRate:5
SliderMultiplier:1.1
SliderTickRate:1

[Events]
//Background and Video events
0,0,"BG.jpg",0,0
//Break Periods
//Storyboard Layer 0 (Background)
//Storyboard Layer 1 (Fail)
//Storyboard Layer 2 (Pass)
//Storyboard Layer 3 (Foreground)
//Storyboard Layer 4 (Overlay)
//Storyboard Sound Samples

[TimingPoints]
31,222.222222222222,4,1,0,100,1,0
49808,-100,4,1,0,100,0,1
64030,-100,4,1,0,100,0,0

[HitObjects]
256,192,31,5,4,0:0:0:0:
256,192,253,1,8,0:0:0:0:
256,192,364,1,8,0:0:0:0:
256,192,475,1,0,0:0:0:0:
256,192,919,1,8,0:0:0:0:
256,192,1142,1,0,0:0:0:0:
256,192,1253,1,8,0:0:0:0:
256,192,1808,1,8,0:0:0:0:
256,192,2030,1,0,0:0:0:0:
256,192,2142,1,8,0:0:0:0:
256,192,2697,1,8,0:0:0:0:
256,192,2808,1,0,0:0:0:0:
256,192,2919,1,0,0:0:0:0:
256,192,3030,1,8,0:0:0:0:
256,192,3586,5,0,0:0:0:0:
256,192,3808,1,8,0:0:0:0:
256,192,3919,1,8,0:0:0:0:
256,192,4030,1,0,0:0:0:0:
256,192,4475,1,8,0:0:0:0:
256,192,4697,1,0,0:0:0:0:
256,192,4808,1,8,0:0:0:0:
256,192,5364,1,8,0:0:0:0:
256,192,5475,1,0,0:0:0:0:
256,192,5586,1,0,0:0:0:0:
256,192,5697,1,8,0:0:0:0:
256,192,6253,1,0,0:0:0:0:
256,192,6475,1,8,0:0:0:0:
256,192,6697,1,0,0:0:0:0:
256,192,6808,1,8,0:0:0:0:
256,192,6919,1,0,0:0:0:0:
256,192,7142,1,4,0:0:0:0:
256,192,7475,1,8,0:0:0:0:
256,192,7697,1,0,0:0:0:0:
256,192,7808,1,8,0:0:0:0:
256,192,8030,1,0,0:0:0:0:
256,192,8253,1,8,0:0:0:0:
256,192,8364,1,8,0:0:0:0:
256,192,8586,1,0,0:0:0:0:
256,192,8697,1,8,0:0:0:0:
256,192,8919,1,0,0:0:0:0:
256,192,9253,1,8,0:0:0:0:
256,192,9475,1,0,0:0:0:0:
256,192,9586,1,8,0:0:0:0:
256,192,9808,1,0,0:0:0:0:
256,192,9919,1,0,0:0:0:0:
256,192,10030,1,8,0:0:0:0:
256,192,10253,1,0,0:0:0:0:
256,192,10697,1,0,0:0:0:0:
256,192,11030,1,8,0:0:0:0:
256,192,11253,1,0,0:0:0:0:
256,192,11364,1,8,0:0:0:0:
256,192,11586,1,0,0:0:0:0:
256,192,11808,1,8,0:0:0:0:
256,192,11919,1,8,0:0:0:0:
256,192,12142,1,0,0:0:0:0:
256,192,12253,1,8,0:0:0:0:
256,192,12475,1,0,0:0:0:0:
256,192,12808,1,8,0:0:0:0:
256,192,13030,1,0,0:0:0:0:
256,192,13142,1,8,0:0:0:0:
256,192,13364,1,0,0:0:0:0:
256,192,13586,1,8,0:0:0:0:
256,192,13697,1,8,0:0:0:0:
256,192,13808,1,0,0:0:0:0:
256,192,14253,1,0,0:0:0:0:
256,192,14586,1,8,0:0:0:0:
256,192,14808,1,0,0:0:0:0:
256,192,14919,1,8,0:0:0:0:
256,192,15142,1,0,0:0:0:0:
256,192,15364,1,8,0:0:0:0:
256,192,15475,1,8,0:0:0:0:
256,192,15697,1,0,0:0:0:0:
256,192,15808,1,8,0:0:0:0:
256,192,16030,1,0,0:0:0:0:
256,192,16364,1,8,0:0:0:0:
256,192,16586,1,0,0:0:0:0:
256,192,16697,1,8,0:0:0:0:
256,192,16919,1,0,0:0:0:0:
256,192,17030,1,0,0:0:0:0:
256,192,17142,1,8,0:0:0:0:
256,192,17364,1,0,0:0:0:0:
256,192,17808,1,0,0:0:0:0:
256,192,18142,1,8,0:0:0:0:
256,192,18364,1,0,0:0:0:0:
256,192,18475,1,8,0:0:0:0:
256,192,18697,1,0,0:0:0:0:
256,192,18919,1,8,0:0:0:0:
256,192,19030,1,8,0:0:0:0:
256,192,19253,1,0,0:0:0:0:
256,192,19364,1,8,0:0:0:0:
256,192,19586,1,0,0:0:0:0:
256,192,19808,1,8,0:0:0:0:
256,192,19919,1,8,0:0:0:0:
256,192,20030,1,0,0:0:0:0:
256,192,20253,1,8,0:0:0:0:
256,192,21364,1,4,0:0:0:0:
256,192,21697,1,0,0:0:0:0:
256,192,21919,1,8,0:0:0:0:
256,192,22142,1,0,0:0:0:0:
256,192,22253,1,0,0:0:0:0:
256,192,22364,1,8,0:0:0:0:
256,192,22586,1,0,0:0:0:0:
256,192,23030,1,0,0:0:0:0:
256,192,23253,1,8,0:0:0:0:
256,192,23475,1,0,0:0:0:0:
256,192,23586,1,0,0:0:0:0:
256,192,23697,1,8,0:0:0:0:
256,192,23919,1,0,0:0:0:0:
256,192,24142,1,8,0:0:0:0:
256,192,24364,1,8,0:0:0:0:
256,192,24475,1,0,0:0:0:0:
256,192,24919,1,0,0:0:0:0:
256,192,25253,1,0,0:0:0:0:
256,192,25475,1,8,0:0:0:0:
256,192,25697,1,0,0:0:0:0:
256,192,25808,1,0,0:0:0:0:
256,192,25919,1,8,0:0:0:0:
256,192,26142,1,0,0:0:0:0:
256,192,26586,1,0,0:0:0:0:
256,192,26808,1,8,0:0:0:0:
256,192,27030,1,0,0:0:0:0:
256,192,27142,1,0,0:0:0:0:
256,192,27253,1,8,0:0:0:0:
256,192,27475,1,0,0:0:0:0:
256,192,28475,1,4,0:0:0:0:
256,192,28808,1,0,0:0:0:0:
256,192,29030,1,8,0:0:0:0:
256,192,29253,1,0,0:0:0:0:
256,192,29364,1,0,0:0:0:0:
256,192,29475,1,8,0:0:0:0:
256,192,29697,1,0,0:0:0:0:
256,192,30142,1,0,0:0:0:0:
256,192,30364,1,8,0:0:0:0:
256,192,30586,1,8,0:0:0:0:
256,192,30697,1,0,0:0:0:0:
256,192,30808,1,8,0:0:0:0:
256,192,31030,1,0,0:0:0:0:
256,192,31253,1,8,0:0:0:0:
256,192,31475,1,8,0:0:0:0:
256,192,31586,1,0,0:0:0:0:
256,192,32030,1,8,0:0:0:0:
256,192,32364,1,0,0:0:0:0:
256,192,32586,1,8,0:0:0:0:
256,192,32808,1,0,0:0:0:0:
256,192,32919,1,0,0:0:0:0:
256,192,33030,1,8,0:0:0:0:
256,192,33253,1,0,0:0:0:0:
256,192,33697,1,0,0:0:0:0:
256,192,33919,1,8,0:0:0:0:
256,192,34142,1,8,0:0:0:0:
256,192,34253,1,0,0:0:0:0:
256,192,34364,1,0,0:0:0:0:
256,192,34475,1,8,0:0:0:0:
256,192,34697,1,12,0:0:0:0:
256,192,34919,1,12,0:0:0:0:
256,192,35142,1,0,0:0:0:0:
256,192,35253,1,0,0:0:0:0:
256,192,35364,1,8,0:0:0:0:
256,192,35586,1,4,0:0:0:0:
256,192,36030,1,0,0:0:0:0:
256,192,36142,1,0,0:0:0:0:
256,192,36253,1,8,0:0:0:0:
256,192,36475,1,0,0:0:0:0:
256,192,36697,1,8,0:0:0:0:
256,192,36919,1,0,0:0:0:0:
256,192,37030,1,0,0:0:0:0:
256,192,37142,1,0,0:0:0:0:
256,192,37364,1,8,0:0:0:0:
256,192,37808,1,0,0:0:0:0:
256,192,37919,1,0,0:0:0:0:
256,192,38030,1,8,0:0:0:0:
256,192,38253,1,0,0:0:0:0:
256,192,38475,1,8,0:0:0:0:
256,192,38586,1,8,0:0:0:0:
256,192,38697,1,0,0:0:0:0:
256,192,38919,1,8,0:0:0:0:
256,192,39142,1,0,0:0:0:0:
256,192,39586,1,0,0:0:0:0:
256,192,39697,1,0,0:0:0:0:
256,192,39808,1,8,0:0:0:0:
256,192,40030,1,0,0:0:0:0:
256,192,40253,1,8,0:0:0:0:
256,192,40475,1,0,0:0:0:0:
256,192,40586,1,0,0:0:0:0:
256,192,40697,1,0,0:0:0:0:
256,192,40919,1,8,0:0:0:0:
256,192,41364,1,0,0:0:0:0:
256,192,41475,1,0,0:0:0:0:
256,192,41586,1,8,0:0:0:0:
256,192,42697,1,0,0:0:0:0:
256,192,43142,1,0,0:0:0:0:
256,192,43253,1,0,0:0:0:0:
256,192,43364,1,8,0:0:0:0:
256,192,43586,1,0,0:0:0:0:
256,192,43808,1,8,0:0:0:0:
256,192,44030,1,0,0:0:0:0:
256,192,44142,1,0,0:0:0:0:
256,192,44253,1,0,0:0:0:0:
256,192,44475,1,8,0:0:0:0:
256,192,44919,1,0,0:0:0:0:
256,192,45030,1,0,0:0:0:0:
256,192,45142,1,8,0:0:0:0:
256,192,45364,1,0,0:0:0:0:
256,192,45586,1,8,0:0:0:0:
256,192,45697,1,8,0:0:0:0:
256,192,45808,1,0,0:0:0:0:
256,192,46030,1,8,0:0:0:0:
256,192,46253,1,0,0:0:0:0:
256,192,46697,1,0,0:0:0:0:
256,192,46808,1,0,0:0:0:0:
256,192,46919,1,8,0:0:0:0:
256,192,47142,1,0,0:0:0:0:
256,192,47364,1,8,0:0:0:0:
256,192,47586,1,0,0:0:0:0:
256,192,47697,1,0,0:0:0:0:
256,192,47808,1,0,0:0:0:0:
256,192,48030,1,8,0:0:0:0:
256,192,48253,1,0,0:0:0:0:
256,192,48364,1,0,0:0:0:0:
256,192,48475,1,8,0:0:0:0:
256,192,48697,1,8,0:0:0:0:
256,192,48808,1,0,0:0:0:0:
256,192,49808,1,4,0:0:0:0:
256,192,50253,1,8,0:0:0:0:
256,192,50364,1,8,0:0:0:0:
256,192,50475,1,0,0:0:0:0:
256,192,50697,1,8,0:0:0:0:
256,192,50919,1,0,0:0:0:0:
256,192,51030,1,0,0:0:0:0:
256,192,51142,1,8,0:0:0:0:
256,192,51364,1,8,0:0:0:0:
256,192,51586,1,0,0:0:0:0:
256,192,52030,1,0,0:0:0:0:
256,192,52142,1,0,0:0:0:0:
256,192,52253,1,8,0:0:0:0:
256,192,52475,1,0,0:0:0:0:
256,192,52697,1,8,0:0:0:0:
256,192,52808,1,8,0:0:0:0:
256,192,52919,1,0,0:0:0:0:
256,192,53142,1,8,0:0:0:0:
256,192,53364,1,0,0:0:0:0:
256,192,53808,1,8,0:0:0:0:
256,192,53919,1,8,0:0:0:0:
256,192,54030,1,0,0:0:0:0:
256,192,54253,1,8,0:0:0:0:
256,192,54475,1,0,0:0:0:0:
256,192,54586,1,0,0:0:0:0:
256,192,54697,1,8,0:0:0:0:
256,192,54919,1,8,0:0:0:0:
256,192,55142,1,0,0:0:0:0:
256,192,55586,1,8,0:0:0:0:
256,192,55697,1,8,0:0:0:0:
256,192,55808,1,0,0:0:0:0:
256,192,56030,1,8,0:0:0:0:
256,192,56253,1,0,0:0:0:0:
256,192,56364,1,0,0:0:0:0:
256,192,56475,1,8,0:0:0:0:
256,192,56697,1,8,0:0:0:0:
256,192,56919,1,4,0:0:0:0:
256,192,57364,1,0,0:0:0:0:
256,192,57475,1,8,0:0:0:0:
256,192,57586,1,0,0:0:0:0:
256,192,57808,1,8,0:0:0:0:
256,192,58030,1,0,0:0:0:0:
256,192,58142,1,0,0:0:0:0:
256,192,58253,1,8,0:0:0:0:
256,192,58475,1,8,0:0:0:0:
256,192,58697,1,4,0:0:0:0:
256,192,59142,1,8,0:0:0:0:
256,192,59253,1,0,0:0:0:0:
256,192,59364,1,8,0:0:0:0:
256,192,59586,1,0,0:0:0:0:
256,192,59697,1,0,0:0:0:0:
256,192,59808,1,8,0:0:0:0:
256,192,59919,1,8,0:0:0:0:
256,192,60030,1,0,0:0:0:0:
256,192,60475,1,4,0:0:0:0:
256,192,60697,1,8,0:0:0:0:
256,192,60919,1,0,0:0:0:0:
256,192,61030,1,0,0:0:0:0:
256,192,61142,1,8,0:0:0:0:
256,192,61364,1,4,0:0:0:0:
256,192,61586,1,8,0:0:0:0:
256,192,61697,1,8,0:0:0:0:
256,192,61808,1,0,0:0:0:0:
256,192,61919,1,0,0:0:0:0:
256,192,62030,1,8,0:0:0:0:
256,192,62253,1,8,0:0:0:0:
256,192,62364,1,0,0:0:0:0:
256,192,62475,1,8,0:0:0:0:
256,192,62586,1,8,0:0:0:0:
256,192,62697,1,0,0:0:0:0:
256,192,62808,1,0,0:0:0:0:
256,192,62919,1,8,0:0:0:0:
256,192,63142,1,0,0:0:0:0:
256,192,63253,1,0,0:0:0:0:
256,192,63364,1,8,0:0:0:0:
256,192,63475,1,8,0:0:0:0:
256,192,63586,1,0,0:0:0:0:
256,192,63808,1,8,0:0:0:0:
