osu file format v14

[General]
AudioFilename: True Final Boss.mp3
AudioLeadIn: 0
PreviewTime: 48919
Countdown: 0
SampleSet: Soft
StackLeniency: 0.7
Mode: 0
LetterboxInBreaks: 1
WidescreenStoryboard: 1

[Editor]
Bookmarks: 7146,10701,14257,17812,21368,42701,53364
DistanceSpacing: 1.4
BeatDivisor: 4
GridSize: 4
TimelineZoom: 3.499999

[Metadata]
Title:Tenshi
TitleUnicode:テンシ
Artist:Manabu Namiki
ArtistUnicode:並木 学
Creator:Snow Note
Version:Insane
Source:Do-Don-Pachi Saidaioujou
Tags:7odoa 怒首領蜂最大往生 MAXIMUM ORIGINAL SOUNDTRACK. 陽蜂 true boss 陰蜂 danmaku game CAVE Firce777
BeatmapID:312910
BeatmapSetID:120515

[Difficulty]
HPDrainRate:5
CircleSize:4
OverallDifficulty:8.5
ApproachRate:9.5
SliderMultiplier:1.7
SliderTickRate:2

[Events]
//Background and Video events
0,0,"BG.jpg",0,0
//Break Periods
//Storyboard Layer 0 (Background)
//Storyboard Layer 1 (Fail)
//Storyboard Layer 2 (Pass)
//Storyboard Layer 3 (Foreground)
//Storyboard Sound Samples

[TimingPoints]
31,222.222222222222,4,1,0,55,1,0
6253,-100,4,2,0,70,0,0
7142,-83.3333333333333,4,1,0,70,0,0
20475,-100,4,2,0,70,0,0
21364,-83.3333333333333,4,1,0,70,0,0
48919,-83.3333333333333,4,2,0,70,0,0
49808,-76.9230769230769,4,1,0,70,0,1
63142,-76.9230769230769,4,2,0,70,0,1
64030,-100,4,1,0,55,0,0

[Colours]
Combo1 : 255,0,0
Combo2 : 0,255,0
Combo3 : 0,255,255

[HitObjects]
173,239,31,6,0,P|177:285|71:334,1,170,4|0,0:0|0:0,0:0:0:0:
36,264,364,1,2,0:0:0:0:
16,180,475,2,0,P|8:128|108:72,1,170,0|0,0:0|0:0,0:0:0:0:
180,76,808,1,0,0:0:0:0:
256,112,919,6,0,P|344:132|408:80,1,170,2|0,0:0|0:0,0:0:0:0:
380,204,1253,2,0,P|360:292|412:356,1,170,2|0,0:0|0:0,0:0:0:0:
488,312,1586,2,0,L|500:220,1,85,0|0,0:0|0:0,0:0:0:0:
428,124,1808,6,0,P|348:112|288:180,1,170,2|0,0:0|0:0,0:0:0:0:
176,320,2142,2,0,P|239:370|325:341,1,170,2|0,0:0|0:0,0:0:0:0:
208,244,2475,2,0,P|172:236|124:252,1,85,0|0,0:0|0:0,0:0:0:0:
336,268,2697,6,0,P|368:220|340:116,1,170,6|0,0:0|0:0,0:0:0:0:
92,24,3030,2,0,P|60:72|88:176,1,170,6|0,0:0|0:0,0:0:0:0:
176,144,3364,1,0,0:0:0:0:
256,192,3475,1,0,0:0:0:0:
256,284,3586,6,0,P|224:344|112:340,1,170,2|0,0:0|0:0,0:0:0:0:
84,280,3919,1,2,0:0:0:0:
172,280,4030,2,0,P|184:216|112:152,1,170,0|0,0:0|0:0,0:0:0:0:
16,84,4364,1,0,0:0:0:0:
16,84,4475,6,0,B|56:88|56:88|92:64|92:64|192:80,1,170,2|0,0:0|0:0,0:0:0:0:
326,148,4808,2,0,P|326:67|256:28,1,170,2|0,0:0|0:0,0:0:0:0:
256,112,5142,1,0,0:0:0:0:
256,196,5253,1,0,0:0:0:0:
328,240,5364,6,0,P|396:216|408:124,1,170,6|0,0:0|0:0,0:0:0:0:
184,144,5697,2,0,P|116:168|104:260,1,170,6|0,0:0|0:0,0:0:0:0:
256,328,6030,2,0,L|348:328,1,85,0|0,0:0|0:0,0:0:0:0:
256,196,6253,6,0,L|204:196,3,42.5,0|0|0|0,0:0|0:0|0:0|0:0,0:0:0:0:
216,240,6475,2,0,L|164:240,3,42.5,0|0|0|0,0:0|0:0|0:0|0:0,0:0:0:0:
184,280,6697,2,0,L|132:280,3,42.5,0|0|0|0,0:0|0:0|0:0|0:0,0:0:0:0:
144,324,6919,2,0,L|92:324,3,42.5,0|0|0|0,0:0|0:0|0:0|0:0,0:0:0:0:
48,320,7142,6,0,P|16:228|76:148,1,203.999993774414,6|8,0:0|0:0,0:0:0:0:
100,52,7475,1,2,0:0:0:0:
188,104,7586,2,0,B|224:112|224:112|292:96,1,101.999996887207,0|0,0:0|0:0,0:0:0:0:
392,36,7808,2,0,B|384:88|384:88|400:140,1,101.999996887207,10|0,0:0|0:0,0:0:0:0:
512,192,8030,6,0,P|464:168|332:236,1,203.999993774414,2|8,0:0|0:0,0:0:0:0:
332,348,8364,1,2,0:0:0:0:
452,340,8475,2,0,P|464:304|436:244,1,101.999996887207,0|0,0:0|0:0,0:0:0:0:
208,164,8697,2,0,B|200:216|200:216|220:276,1,101.999996887207,10|0,0:0|0:0,0:0:0:0:
352,96,8919,6,0,P|328:52|164:64,1,203.999993774414,2|8,0:0|0:0,0:0:0:0:
104,116,9253,1,2,0:0:0:0:
300,200,9364,2,0,L|420:192,1,101.999996887207,0|0,0:0|0:0,0:0:0:0:
104,116,9586,2,0,P|88:160|110:217,1,101.999996887207,10|0,0:0|0:0,0:0:0:0:
180,280,9808,6,0,B|196:332|156:372|156:372|48:372,1,203.999993774414,2|8,0:0|0:0,0:0:0:0:
4,280,10142,1,2,0:0:0:0:
76,208,10253,1,0,0:0:0:0:
176,188,10364,1,0,0:0:0:0:
268,228,10475,1,10,0:0:0:0:
328,308,10586,1,0,0:0:0:0:
424,344,10697,6,0,P|484:332|484:204,1,203.999993774414,2|8,0:0|0:0,0:0:0:0:
376,168,11030,1,2,0:0:0:0:
268,228,11142,2,0,B|216:240|216:240|156:224,1,101.999996887207,0|0,0:0|0:0,0:0:0:0:
216,72,11364,2,0,B|268:60|268:60|328:76,1,101.999996887207,10|0,0:0|0:0,0:0:0:0:
132,328,11586,6,0,P|80:308|96:184,1,203.999993774414,2|8,0:0|0:0,0:0:0:0:
196,156,11919,1,2,0:0:0:0:
268,228,12030,2,0,L|272:352,1,101.999996887207,0|0,0:0|0:0,0:0:0:0:
16,120,12253,2,0,P|16:85|56:32,1,101.999996887207,10|0,0:0|0:0,0:0:0:0:
156,256,12475,6,0,P|112:288|4:204,1,203.999993774414,2|8,0:0|0:0,0:0:0:0:
196,156,12808,1,2,0:0:0:0:
196,156,12919,2,0,L|316:180,1,101.999996887207,0|0,0:0|0:0,0:0:0:0:
376,332,13142,2,0,L|256:356,1,101.999996887207,10|0,0:0|0:0,0:0:0:0:
216,72,13364,6,0,B|316:92|316:92|372:104|384:172,1,203.999993774414,2|8,0:0|0:0,0:0:0:0:
352,260,13697,1,0,0:0:0:0:
260,300,13808,1,2,0:0:0:0:
160,260,13919,1,0,0:0:0:0:
116,168,14030,1,8,0:0:0:0:
144,68,14142,1,0,0:0:0:0:
232,20,14253,6,0,P|292:24|368:136,1,203.999993774414,2|8,0:0|0:0,0:0:0:0:
256,192,14586,1,2,0:0:0:0:
144,162,14697,2,0,P|127:115|144:68,1,101.999996887207,0|0,0:0|0:0,0:0:0:0:
286,303,14919,2,0,P|253:341|204:350,1,101.999996887207,10|0,0:0|0:0,0:0:0:0:
337,109,15142,6,0,P|386:119|432:256,1,203.999993774414,2|8,0:0|0:0,0:0:0:0:
256,192,15475,1,2,0:0:0:0:
256,44,15586,2,0,P|292:20|352:16,1,101.999996887207,0|0,0:0|0:0,0:0:0:0:
256,340,15808,2,0,P|220:364|160:368,1,101.999996887207,10|0,0:0|0:0,0:0:0:0:
52,192,16030,6,0,L|256:192,1,203.999993774414,2|8,0:0|0:0,0:0:0:0:
192,284,16364,1,2,0:0:0:0:
112,100,16475,2,0,B|112:44|112:44|148:4,1,101.999996887207,0|0,0:0|0:0,0:0:0:0:
360,192,16697,2,0,B|360:248|360:248|324:288,1,101.999996887207,10|0,0:0|0:0,0:0:0:0:
228,76,16919,6,0,B|256:44|256:44|420:44,1,203.999993774414,2|8,0:0|0:0,0:0:0:0:
496,128,17253,1,2,0:0:0:0:
504,240,17364,1,0,0:0:0:0:
444,336,17475,1,0,0:0:0:0:
336,300,17586,1,10,0:0:0:0:
256,376,17697,1,0,0:0:0:0:
176,300,17808,6,0,P|132:208|180:120,1,203.999993774414,2|8,0:0|0:0,0:0:0:0:
328,192,18142,1,2,0:0:0:0:
328,192,18253,2,0,B|304:216|304:216|236:216,1,101.999996887207,0|0,0:0|0:0,0:0:0:0:
104,48,18475,2,0,B|128:24|128:24|196:24,1,101.999996887207,10|0,0:0|0:0,0:0:0:0:
428,288,18697,6,0,B|416:348|364:356|364:356|260:356,1,203.999993774414,2|8,0:0|0:0,0:0:0:0:
328,192,19030,1,2,0:0:0:0:
504,248,19142,2,0,P|520:296|504:344,1,101.999996887207,0|0,0:0|0:0,0:0:0:0:
184,192,19364,2,0,P|168:144|184:96,1,101.999996887207,10|0,0:0|0:0,0:0:0:0:
328,192,19586,6,0,P|344:240|240:328,1,203.999993774414,2|8,0:0|0:0,0:0:0:0:
8,192,19919,1,2,0:0:0:0:
8,192,20030,2,0,P|-8:144|8:96,1,101.999996887207,0|0,0:0|0:0,0:0:0:0:
256,16,20253,2,0,L|368:16,1,101.999996887207,10|0,0:0|0:0,0:0:0:0:
463,317,20475,6,0,P|454:347|430:368,2,56.6666666666667,0|0|0,0:0|0:0|0:0,0:0:0:0:
375,289,20697,2,0,P|345:299|314:292,2,56.6666666666667,0|0|0,0:0|0:0|0:0,0:0:0:0:
351,201,20919,2,0,P|325:182|313:153,2,56.6666666666667,0|0|0,0:0|0:0|0:0,0:0:0:0:
408,128,21142,2,0,P|408:96|425:69,2,56.6666666666667,0|0|0,0:0|0:0|0:0,0:0:0:0:
440,224,21364,6,0,P|448:276|432:328,1,101.999996887207,4|0,0:0|0:0,0:0:0:0:
172,244,21586,2,0,P|164:192|180:140,1,101.999996887207,8|0,0:0|0:0,0:0:0:0:
340,140,21808,2,0,P|348:192|332:244,1,101.999996887207,0|0,0:0|0:0,0:0:0:0:
72,160,22030,2,0,P|64:108|80:56,1,101.999996887207,8|0,0:0|0:0,0:0:0:0:
184,0,22253,5,0,0:0:0:0:
208,356,22475,1,8,0:0:0:0:
0,192,22697,1,0,0:0:0:0:
312,56,22919,1,8,0:0:0:0:
344,248,23142,6,0,B|352:300|352:300|340:352,1,101.999996887207,0|0,0:0|0:0,0:0:0:0:
168,136,23364,2,0,B|160:84|160:84|172:32,1,101.999996887207,8|0,0:0|0:0,0:0:0:0:
200,280,23586,2,0,B|148:288|148:288|96:276,1,101.999996887207
312,56,23808,2,0,L|420:68,1,101.999996887207,8|0,0:0|0:0,0:0:0:0:
497,188,24030,5,0,0:0:0:0:
455,287,24142,1,0,0:0:0:0:
363,341,24253,1,8,0:0:0:0:
256,356,24364,1,0,0:0:0:0:
148,341,24475,1,0,0:0:0:0:
56,287,24586,1,0,0:0:0:0:
14,188,24697,1,8,0:0:0:0:
14,188,24919,6,0,L|136:200,1,101.999996887207,0|0,0:0|0:0,0:0:0:0:
168,100,25142,2,0,L|46:88,1,101.999996887207,8|0,0:0|0:0,0:0:0:0:
344,284,25364,2,0,L|445:293,1,101.999996887207,0|0,0:0|0:0,0:0:0:0:
497,195,25586,2,0,L|396:185,1,101.999996887207,8|0,0:0|0:0,0:0:0:0:
408,376,25808,5,0,0:0:0:0:
448,48,26030,1,8,0:0:0:0:
64,336,26253,1,0,0:0:0:0:
104,8,26475,1,8,0:0:0:0:
256,317,26697,6,0,P|306:316|344:284,1,101.999996887207,0|0,0:0|0:0,0:0:0:0:
255,66,26919,2,0,P|205:67|168:100,1,101.999996887207,8|0,0:0|0:0,0:0:0:0:
360,140,27142,2,0,L|376:28,1,101.999996887207,0|0,0:0|0:0,0:0:0:0:
152,244,27364,2,0,L|136:356,1,101.999996887207,8|0,0:0|0:0,0:0:0:0:
256,192,27586,12,0,28364,0:0:0:0:
60,144,28475,6,0,P|36:100|48:40,1,101.999996887207,4|0,0:0|0:0,0:0:0:0:
160,80,28697,2,0,P|174:31|225:-2,1,101.999996887207,8|0,0:0|0:0,0:0:0:0:
292,96,28919,2,0,P|336:72|396:84,1,101.999996887207,0|0,0:0|0:0,0:0:0:0:
356,196,29142,2,0,P|404:210|438:261,1,101.999996887207,8|0,0:0|0:0,0:0:0:0:
388,364,29364,5,0,0:0:0:0:
84,324,29586,1,8,0:0:0:0:
124,20,29808,1,0,0:0:0:0:
428,60,30030,1,8,0:0:0:0:
324,288,30253,6,0,L|212:300,1,101.999996887207,0|0,0:0|0:0,0:0:0:0:
188,96,30475,2,0,L|300:84,1,101.999996887207,8|0,0:0|0:0,0:0:0:0:
352,316,30697,2,0,L|240:328,1,101.999996887207,0|0,0:0|0:0,0:0:0:0:
160,68,30919,2,0,L|272:56,1,101.999996887207,8|0,0:0|0:0,0:0:0:0:
496,144,31142,5,0,0:0:0:0:
452,236,31253,1,0,0:0:0:0:
356,204,31364,1,8,0:0:0:0:
256,228,31475,1,0,0:0:0:0:
168,176,31586,1,0,0:0:0:0:
92,244,31697,1,0,0:0:0:0:
136,336,31808,1,8,0:0:0:0:
136,336,32030,6,0,P|164:292|160:232,1,101.999996887207,4|0,0:0|0:0,0:0:0:0:
112,104,32253,2,0,L|224:72,1,101.999996887207,8|0,0:0|0:0,0:0:0:0:
404,24,32475,2,0,P|412:72|380:124,1,101.999996887207,0|0,0:0|0:0,0:0:0:0:
400,248,32697,2,0,P|352:256|300:224,1,101.999996887207,8|0,0:0|0:0,0:0:0:0:
324,64,32919,5,0,0:0:0:0:
480,296,33142,1,8,0:0:0:0:
188,320,33364,1,0,0:0:0:0:
32,88,33586,1,8,0:0:0:0:
352,124,33808,6,0,L|364:236,1,101.999996887207,0|0,0:0|0:0,0:0:0:0:
160,260,34030,2,0,L|148:148,1,101.999996887207,8|0,0:0|0:0,0:0:0:0:
380,96,34253,2,0,L|392:208,1,101.999996887207,0|0,0:0|0:0,0:0:0:0:
132,288,34475,2,0,L|120:176,1,101.999996887207,8|0,0:0|0:0,0:0:0:0:
256,8,34697,5,6,0:0:0:0:
256,100,34808,1,2,0:0:0:0:
256,192,34919,1,2,0:0:0:0:
256,284,35030,1,2,0:0:0:0:
256,376,35142,5,0,0:0:0:0:
172,248,35253,1,0,0:0:0:0:
340,248,35364,1,6,0:0:0:0:
340,248,35586,6,0,B|360:296|360:296|352:352,1,101.999996887207,4|0,0:0|0:0,0:0:0:0:
159,345,35808,2,0,B|152:296|152:296|172:248,1,101.999996887207,8|0,0:0|0:0,0:0:0:0:
420,236,36030,2,0,L|476:256,2,50.9999984436036,0|0|0,0:0|0:0|0:0,0:0:0:0:
92,236,36253,2,0,L|36:256,2,50.9999984436036,8|0|0,0:0|0:0|0:0,0:0:0:0:
340,136,36475,6,0,B|360:88|360:88|352:32,1,101.999996887207,0|0,0:0|0:0,0:0:0:0:
159,38,36697,2,0,B|152:88|152:88|172:136,1,101.999996887207,8|0,0:0|0:0,0:0:0:0:
420,148,36919,2,0,L|476:128,2,50.9999984436036,0|0|0,0:0|0:0|0:0,0:0:0:0:
92,148,37142,2,0,L|36:128,2,50.9999984436036,8|0|0,0:0|0:0|0:0,0:0:0:0:
256,248,37364,6,0,B|312:256|312:256|368:236,1,101.999996887207,0|0,0:0|0:0,0:0:0:0:
452,268,37586,1,8,0:0:0:0:
404,360,37697,1,0,0:0:0:0:
304,352,37808,2,0,L|236:344,2,50.9999984436036,0|0|0,0:0|0:0|0:0,0:0:0:0:
256,248,38030,2,0,L|264:180,2,50.9999984436036,8|0|0,0:0|0:0|0:0,0:0:0:0:
368,268,38253,6,0,L|472:256,1,101.999996887207,0|2,0:0|0:0,0:0:0:0:
488,240,38419,1,0,0:0:0:0:
488,240,38475,2,0,B|492:192|492:192|472:140,1,101.999996887207,10|0,0:0|0:0,0:0:0:0:
352,168,38697,5,2,0:0:0:0:
240,116,38808,1,0,0:0:0:0:
296,8,38919,1,10,0:0:0:0:
408,60,39030,1,0,0:0:0:0:
240,116,39142,6,0,L|124:96,1,101.999996887207,4|0,0:0|0:0,0:0:0:0:
192,264,39364,2,0,L|292:246,1,101.999996887207,8|0,0:0|0:0,0:0:0:0:
92,192,39586,2,0,L|34:182,2,50.9999984436036,0|0|0,0:0|0:0|0:0,0:0:0:0:
76,312,39808,2,0,L|86:370,2,50.9999984436036,8|0|0,0:0|0:0|0:0,0:0:0:0:
192,264,40030,6,0,L|204:156,1,101.999996887207,0|0,0:0|0:0,0:0:0:0:
80,90,40253,2,0,L|92:192,1,101.999996887207,8|0,0:0|0:0,0:0:0:0:
180,60,40475,2,0,L|184:8,2,50.9999984436036,0|0|0,0:0|0:0|0:0,0:0:0:0:
296,168,40697,2,0,L|292:220,2,50.9999984436036,8|0|0,0:0|0:0|0:0,0:0:0:0:
368,96,40919,6,0,B|352:62|352:62|288:50,1,101.999996887207,0|0,0:0|0:0,0:0:0:0:
400,192,41142,1,8,0:0:0:0:
400,192,41253,1,0,0:0:0:0:
468,84,41364,2,0,L|464:32,2,50.9999984436036,0|0|0,0:0|0:0|0:0,0:0:0:0:
504,196,41586,2,0,L|508:248,2,50.9999984436036,8|0|0,0:0|0:0|0:0,0:0:0:0:
256,192,41808,12,0,42586,0:0:0:0:
256,356,42697,6,0,L|136:344,1,101.999996887207,4|0,0:0|0:0,0:0:0:0:
64,260,42919,2,0,L|184:248,1,101.999996887207,8|0,0:0|0:0,0:0:0:0:
276,192,43142,2,0,L|336:186,2,50.9999984436036,0|0|0,0:0|0:0|0:0,0:0:0:0:
196,100,43364,2,0,L|202:40,2,50.9999984436036,8|0|0,0:0|0:0|0:0,0:0:0:0:
64,260,43586,6,0,P|72:296|136:348,1,101.999996887207,0|0,0:0|0:0,0:0:0:0:
132,192,43808,2,0,B|100:168|100:168|32:176,1,101.999996887207,8|0,0:0|0:0,0:0:0:0:
192,280,44030,2,0,L|252:274,2,50.9999984436036,0|0|0,0:0|0:0|0:0,0:0:0:0:
320,336,44253,2,0,L|380:342,2,50.9999984436036,8|0|0,0:0|0:0|0:0,0:0:0:0:
444,264,44475,6,0,L|464:368,1,101.999996887207,0|0,0:0|0:0,0:0:0:0:
348,244,44697,1,8,0:0:0:0:
348,244,44808,1,0,0:0:0:0:
452,180,44919,2,0,L|512:188,2,50.9999984436036,0|0|0,0:0|0:0|0:0,0:0:0:0:
336,136,45142,2,0,L|276:144,2,50.9999984436036,8|0|0,0:0|0:0|0:0,0:0:0:0:
200,208,45364,6,0,L|96:196,1,101.999996887207,0|2,0:0|0:0,0:0:0:0:
80,180,45530,1,0,0:0:0:0:
80,180,45586,2,0,B|76:132|76:132|96:80,1,101.999996887207,10|0,0:0|0:0,0:0:0:0:
216,60,45808,5,2,0:0:0:0:
336,136,45919,1,0,0:0:0:0:
312,268,46030,1,10,0:0:0:0:
188,316,46142,1,0,0:0:0:0:
92,228,46253,6,0,L|72:116,1,101.999996887207,4|0,0:0|0:0,0:0:0:0:
203,219,46475,2,0,B|212:260|212:260|188:316,1,101.999996887207,8|0,0:0|0:0,0:0:0:0:
84,356,46697,2,0,L|32:348,2,50.9999984436036,0|0|0,0:0|0:0|0:0,0:0:0:0:
256,376,46919,2,0,L|308:368,2,50.9999984436036,8|0|0,0:0|0:0|0:0,0:0:0:0:
400,296,47142,6,0,P|416:248|400:192,1,101.999996887207,0|0,0:0|0:0,0:0:0:0:
296,148,47364,2,0,L|324:256,1,101.999996887207,8|0,0:0|0:0,0:0:0:0:
420,124,47586,2,0,L|428:68,2,50.9999984436036,0|0|0,0:0|0:0|0:0,0:0:0:0:
320,56,47808,2,0,L|284:12,2,50.9999984436036,8|0|0,0:0|0:0|0:0,0:0:0:0:
212,112,48030,6,0,L|104:96,1,101.999996887207,0|0,0:0|0:0,0:0:0:0:
8,28,48253,1,8,0:0:0:0:
8,28,48364,1,0,0:0:0:0:
24,148,48475,2,0,L|12:208,2,50.9999984436036,0|0|0,0:0|0:0|0:0,0:0:0:0:
144,176,48697,2,0,L|212:188,2,50.9999984436036,8|0|0,0:0|0:0|0:0,0:0:0:0:
300,360,49030,5,0,0:0:0:0:
300,360,49086,2,0,L|192:352,1,101.999996887207,0|0,0:0|0:0,0:0:0:0:
198,352,49253,2,0,B|152:328|152:328|87:339,1,101.999996887207,2|0,0:0|0:0,0:0:0:0:
224,280,49475,2,0,L|284:283,1,50.9999984436036
448,236,49697,1,0,0:0:0:0:
448,236,49753,1,0,0:0:0:0:
448,236,49808,6,0,P|468:280|452:352,1,110.499994941712,4|0,0:0|0:0,0:0:0:0:
160,188,50030,2,0,P|140:144|156:72,1,110.499994941712,8|0,0:0|0:0,0:0:0:0:
352,288,50253,2,0,P|343:335|288:385,1,110.499994941712,0|0,0:0|0:0,0:0:0:0:
256,136,50475,2,0,P|264:88|319:38,1,110.499994941712,8|0,0:0|0:0,0:0:0:0:
432,192,50697,6,0,P|388:212|328:204,1,110.499994941712,0|0,0:0|0:0,0:0:0:0:
80,52,50919,2,0,P|124:32|184:40,1,110.499994941712,8|0,0:0|0:0,0:0:0:0:
180,252,51142,1,0,0:0:0:0:
160,372,51253,1,0,0:0:0:0:
40,352,51364,1,8,0:0:0:0:
60,232,51475,1,0,0:0:0:0:
180,252,51586,6,0,B|240:260|240:260|292:232,1,110.499994941712,0|0,0:0|0:0,0:0:0:0:
320,56,51808,2,0,B|260:48|260:48|208:76,1,110.499994941712,8|0,0:0|0:0,0:0:0:0:
328,312,52030,2,0,B|388:320|388:320|440:292,1,110.499994941712,0|0,0:0|0:0,0:0:0:0:
468,116,52253,2,0,B|408:108|408:108|356:136,1,110.499994941712,8|0,0:0|0:0,0:0:0:0:
512,356,52475,5,0,0:0:0:0:
508,244,52586,1,0,0:0:0:0:
400,216,52697,1,8,0:0:0:0:
328,300,52808,1,0,0:0:0:0:
220,272,52919,5,0,0:0:0:0:
176,160,53030,1,0,0:0:0:0:
256,64,53142,1,8,0:0:0:0:
256,64,53364,6,0,L|144:48,1,110.499994941712,4|0,0:0|0:0,0:0:0:0:
400,240,53586,2,0,L|512:224,1,110.499994941712,8|0,0:0|0:0,0:0:0:0:
256,196,53808,2,0,B|232:232|232:232|240:300,1,110.499994941712,0|0,0:0|0:0,0:0:0:0:
400,104,54030,2,0,B|424:68|424:68|416:0,1,110.499994941712,8|0,0:0|0:0,0:0:0:0:
340,320,54253,6,0,L|449:330,1,110.499994941712,0|0,0:0|0:0,0:0:0:0:
176,136,54475,2,0,L|67:146,1,110.499994941712,8|0,0:0|0:0,0:0:0:0:
8,252,54697,1,0,0:0:0:0:
64,360,54808,1,0,0:0:0:0:
184,364,54919,1,8,0:0:0:0:
248,260,55030,1,0,0:0:0:0:
300,148,55142,6,0,P|328:140|416:172,1,110.499994941712,0|0,0:0|0:0,0:0:0:0:
444,333,55364,2,0,P|390:341|340:320,1,110.499994941712,8|0,0:0|0:0,0:0:0:0:
67,50,55586,2,0,P|121:42|172:64,1,110.499994941712,0|0,0:0|0:0,0:0:0:0:
212,236,55808,2,0,P|183:243|96:212,1,110.499994941712,8|0,0:0|0:0,0:0:0:0:
300,148,56030,5,0,0:0:0:0:
332,256,56142,1,0,0:0:0:0:
268,344,56253,1,8,0:0:0:0:
156,344,56364,1,0,0:0:0:0:
92,256,56475,5,0,0:0:0:0:
164,144,56586,1,0,0:0:0:0:
68,52,56697,1,8,0:0:0:0:
68,52,56919,6,0,L|-4:48,2,55.2499974708558,4|0|0,0:0|0:0|0:0,0:0:0:0:
232,92,57142,2,0,L|304:96,2,55.2499974708558,8|0|0,0:0|0:0|0:0,0:0:0:0:
96,136,57364,2,0,L|24:132,2,55.2499974708558,0|0|0,0:0|0:0|0:0,0:0:0:0:
260,176,57586,2,0,L|332:180,2,55.2499974708558,8|0|0,0:0|0:0|0:0,0:0:0:0:
124,224,57808,6,0,L|-20:216,1,110.499994941712,0|0,0:0|0:0,0:0:0:0:
180,132,58030,1,8,0:0:0:0:
180,132,58142,1,0,0:0:0:0:
208,280,58253,2,0,P|212:328|164:384,1,110.499994941712,0|0,0:0|0:0,0:0:0:0:
69,125,58475,2,0,L|180:132,1,110.499994941712,8|0,0:0|0:0,0:0:0:0:
304,300,58697,6,0,L|320:364,2,55.2499974708558,4|0|0,0:0|0:0|0:0,0:0:0:0:
328,160,58919,2,0,L|312:96,2,55.2499974708558,8|0|0,0:0|0:0|0:0,0:0:0:0:
404,324,59142,2,0,L|420:388,2,55.2499974708558,0|0|0,0:0|0:0|0:0,0:0:0:0:
428,184,59364,2,0,L|412:120,2,55.2499974708558,8|0|0,0:0|0:0|0:0,0:0:0:0:
304,300,59586,6,0,L|192:308,1,110.499994941712,0|0,0:0|0:0,0:0:0:0:
88,212,59808,1,8,0:0:0:0:
88,212,59919,1,0,0:0:0:0:
232,216,60030,2,0,B|264:188|264:188|256:108,1,110.499994941712,0|0,0:0|0:0,0:0:0:0:
16,176,60253,2,0,P|8:228|44:276,1,110.499994941712,8|0,0:0|0:0,0:0:0:0:
180,128,60475,6,0,L|172:64,2,55.2499974708558,4|0|0,0:0|0:0|0:0,0:0:0:0:
320,116,60697,2,0,L|384:108,2,55.2499974708558,8|0|0,0:0|0:0|0:0,0:0:0:0:
332,256,60919,2,0,L|340:320,2,55.2499974708558,0|0|0,0:0|0:0|0:0,0:0:0:0:
192,268,61142,2,0,L|128:276,2,55.2499974708558,8|0|0,0:0|0:0|0:0,0:0:0:0:
128,112,61364,6,0,L|136:48,2,55.2499974708558,4|0|0,0:0|0:0|0:0,0:0:0:0:
336,64,61586,2,0,L|399:72,2,55.2499974708558,8|0|0,0:0|0:0|0:0,0:0:0:0:
384,272,61808,2,0,L|375:335,2,55.2499974708558,0|0|0,0:0|0:0|0:0,0:0:0:0:
176,320,62030,2,0,L|112:311,2,55.2499974708558,8|0|0,0:0|0:0|0:0,0:0:0:0:
36,136,62253,6,0,B|36:68|36:68|64:36,1,110.499994941712,4|0,0:0|0:0,0:0:0:0:
288,192,62475,2,0,B|308:244|308:244|288:296,1,110.499994941712,12|0,0:0|0:0,0:0:0:0:
88,232,62697,1,0,0:0:0:0:
252,96,62808,1,0,0:0:0:0:
63,36,62919,1,12,0:0:0:0:
304,28,63142,6,0,L|384:16,1,55.2499974708558,6|0,0:0|0:0,0:0:0:0:
352,92,63253,2,0,L|432:80,1,55.2499974708558
400,156,63364,2,0,L|480:144,1,55.2499974708558
448,220,63475,2,0,L|528:208,1,55.2499974708558
492,288,63586,6,0,L|464:359,1,55.2499974708558
404,300,63697,2,0,L|376:371,1,55.2499974708558
316,312,63808,2,2,L|299:348,7,27.6249987354279
