osu file format v14

[General]
AudioFilename: True Final Boss.mp3
AudioLeadIn: 0
PreviewTime: 48919
Countdown: 0
SampleSet: Normal
StackLeniency: 0.7
Mode: 0
LetterboxInBreaks: 1
WidescreenStoryboard: 1

[Editor]
Bookmarks: 7146,10701,14257,17812,21368,42701,53364
DistanceSpacing: 1.1
BeatDivisor: 4
GridSize: 4
TimelineZoom: 1.9

[Metadata]
Title:Tenshi
TitleUnicode:テンシ
Artist:Manabu Namiki
ArtistUnicode:並木 学
Creator:Snow Note
Version:Hard
Source:Do-Don-Pachi Saidaioujou
Tags:7odoa 怒首領蜂最大往生 MAXIMUM ORIGINAL SOUNDTRACK. 陽蜂 true boss 陰蜂 danmaku game CAVE Firce777
BeatmapID:313849
BeatmapSetID:120515

[Difficulty]
HPDrainRate:5
CircleSize:4
OverallDifficulty:7.5
ApproachRate:8.4
SliderMultiplier:1.4
SliderTickRate:2

[Events]
//Background and Video events
0,0,"BG.jpg",0,0
//Break Periods
//Storyboard Layer 0 (Background)
//Storyboard Layer 1 (Fail)
//Storyboard Layer 2 (Pass)
//Storyboard Layer 3 (Foreground)
//Storyboard Sound Samples

[TimingPoints]
31,222.222222222222,4,1,0,55,1,0
6253,-100,4,2,0,70,0,0
7142,-83.3333333333333,4,1,0,70,0,0
20475,-100,4,2,0,70,0,0
21364,-83.3333333333333,4,1,0,70,0,0
48919,-83.3333333333333,4,2,0,70,0,0
49808,-76.9230769230769,4,1,0,70,0,1
63142,-76.9230769230769,4,2,0,70,0,1
64030,-100,4,1,0,55,0,0

[Colours]
Combo1 : 255,0,0
Combo2 : 0,255,0
Combo3 : 0,255,255

[HitObjects]
392,244,31,6,0,P|328:192|196:216,1,210,4|2,0:0|0:0,0:0:0:0:
32,36,697,1,0,0:0:0:0:
32,36,808,1,0,0:0:0:0:
32,36,919,2,0,P|56:100|132:112,1,140,2|0,0:0|0:0,0:0:0:0:
180,76,1253,2,0,L|324:76,1,140,2|0,0:0|0:0,0:0:0:0:
384,44,1586,1,0,0:0:0:0:
360,180,1808,6,0,B|360:252|360:252|404:308,1,140,2|0,0:0|0:0,0:0:0:0:
472,304,2142,2,0,L|324:304,1,140,2|0,0:0|0:0,0:0:0:0:
288,248,2475,2,0,L|288:176,1,70,0|0,0:0|0:0,0:0:0:0:
316,108,2697,5,6,0:0:0:0:
140,192,2919,1,0,0:0:0:0:
140,192,3030,2,0,B|108:192|108:192|88:184|88:184|76:204|76:204|60:192|60:192|16:192,1,140,6|0,0:0|0:0,0:0:0:0:
128,120,3364,2,0,L|204:120,1,70,0|0,0:0|0:0,0:0:0:0:
224,192,3586,6,0,P|228:256|108:312,1,210,2|2,0:0|0:0,0:0:0:0:
316,200,4253,1,0,0:0:0:0:
316,200,4364,1,0,0:0:0:0:
316,200,4475,2,0,B|319:144|319:144|297:122|297:122|300:70,1,140,2|0,0:0|0:0,0:0:0:0:
376,92,4808,2,0,B|476:72|476:72|512:104,1,140,2|0,0:0|0:0,0:0:0:0:
460,160,5142,2,0,L|460:232,1,70,0|0,0:0|0:0,0:0:0:0:
504,292,5364,5,6,0:0:0:0:
316,352,5586,1,0,0:0:0:0:
316,352,5697,2,0,B|284:352|284:352|264:344|264:344|252:364|252:364|236:352|236:352|192:352,1,140,6|0,0:0|0:0,0:0:0:0:
164,288,6030,2,0,P|191:262|224:252,1,70,0|0,0:0|0:0,0:0:0:0:
256,192,6253,12,0,6919,0:0:0:0:
256,96,7142,5,6,0:0:0:0:
304,256,7364,1,8,0:0:0:0:
464,208,7586,1,0,0:0:0:0:
416,48,7808,1,10,0:0:0:0:
256,96,8030,6,0,L|84:96,1,167.999994873047,2|8,0:0|0:0,0:0:0:0:
28,156,8364,1,2,0:0:0:0:
108,180,8475,2,0,P|140:240|104:328,1,167.999994873047,0|10,0:0|0:0,0:0:0:0:
28,292,8808,1,0,0:0:0:0:
28,292,8919,5,2,0:0:0:0:
184,360,9142,1,8,0:0:0:0:
320,260,9364,1,0,0:0:0:0:
476,328,9587,1,10,0:0:0:0:
320,260,9808,6,0,P|296:200|352:104,1,167.999994873047,2|8,0:0|0:0,0:0:0:0:
420,88,10142,1,2,0:0:0:0:
420,88,10253,2,0,P|360:88|280:16,1,167.999994873047,0|10,0:0|0:0,0:0:0:0:
200,12,10586,1,0,0:0:0:0:
120,44,10697,5,2,0:0:0:0:
56,200,10919,1,8,0:0:0:0:
56,200,11030,1,2,0:0:0:0:
56,200,11142,1,0,0:0:0:0:
216,144,11364,1,10,0:0:0:0:
380,164,11586,5,2,0:0:0:0:
404,332,11808,1,8,0:0:0:0:
404,332,11919,1,2,0:0:0:0:
404,332,12030,1,0,0:0:0:0:
256,252,12253,1,10,0:0:0:0:
108,332,12475,6,0,P|40:304|28:216,1,167.999994873047,2|8,0:0|0:0,0:0:0:0:
60,140,12808,1,2,0:0:0:0:
144,152,12919,2,0,P|220:124|224:44,1,167.999994873047,0|10,0:0|0:0,0:0:0:0:
256,212,13364,5,2,0:0:0:0:
356,80,13586,1,8,0:0:0:0:
356,80,13697,1,0,0:0:0:0:
356,80,13808,1,2,0:0:0:0:
256,212,14030,1,8,0:0:0:0:
156,80,14253,5,2,0:0:0:0:
172,248,14475,1,8,0:0:0:0:
256,104,14697,1,0,0:0:0:0:
100,168,14919,1,10,0:0:0:0:
340,248,15142,6,0,P|416:272|480:212,1,167.999994873047,2|8,0:0|0:0,0:0:0:0:
472,136,15475,1,2,0:0:0:0:
412,77,15586,2,0,P|329:66|256:104,1,167.999994873047,0|10,0:0|0:0,0:0:0:0:
256,188,15919,1,0,0:0:0:0:
256,188,16030,5,2,0:0:0:0:
348,332,16253,1,8,0:0:0:0:
404,172,16475,1,0,0:0:0:0:
256,280,16697,1,10,0:0:0:0:
108,172,16919,6,0,P|104:96|196:56,1,167.999994873047,2|8,0:0|0:0,0:0:0:0:
256,80,17253,1,2,0:0:0:0:
336,52,17364,2,0,P|405:92|404:172,1,167.999994873047,0|10,0:0|0:0,0:0:0:0:
348,328,17808,5,2,0:0:0:0:
472,216,18030,1,8,0:0:0:0:
472,216,18142,1,2,0:0:0:0:
472,216,18253,1,0,0:0:0:0:
472,384,18475,1,10,0:0:0:0:
328,192,18697,5,2,0:0:0:0:
496,116,18919,1,8,0:0:0:0:
496,116,19030,1,2,0:0:0:0:
496,116,19142,1,0,0:0:0:0:
504,300,19364,1,10,0:0:0:0:
256,348,19586,6,0,P|192:364|100:304,1,167.999994873047,2|8,0:0|0:0,0:0:0:0:
80,236,19919,1,2,0:0:0:0:
96,152,20030,1,0,0:0:0:0:
256,192,20253,1,10,0:0:0:0:
432,235,20475,6,0,P|456:224|476:204,2,46.6666666666667,0|0|0,0:0|0:0|0:0,0:0:0:0:
432,172,20697,2,0,P|446:149|454:122,2,46.6666666666667,0|0|0,0:0|0:0|0:0,0:0:0:0:
400,116,20919,2,0,P|401:89|394:61,2,46.6666666666667,0|0|0,0:0|0:0|0:0,0:0:0:0:
344,84,21141,2,0,P|332:60|312:40,2,46.6666666666667,0|0|0,0:0|0:0|0:0,0:0:0:0:
280,96,21364,6,0,P|240:120|128:92,1,167.999994873047,4|8,0:0|0:0,0:0:0:0:
108,12,21697,1,0,0:0:0:0:
40,64,21808,2,0,B|32:124|32:124|68:156|68:156|56:228,1,167.999994873047,0|8,0:0|0:0,0:0:0:0:
200,336,22253,5,0,0:0:0:0:
400,248,22475,1,8,0:0:0:0:
312,48,22697,1,0,0:0:0:0:
112,136,22919,1,8,0:0:0:0:
200,336,23142,6,0,P|264:296|256:204,1,167.999994873047,0|8,0:0|0:0,0:0:0:0:
188,168,23475,1,0,0:0:0:0:
192,252,23586,2,0,P|140:272|52:216,1,167.999994873047,0|8,0:0|0:0,0:0:0:0:
64,52,24030,6,0,B|100:24|100:24|160:24,1,83.9999974365235,0|0,0:0|0:0,0:0:0:0:
208,72,24253,2,0,B|244:100|244:100|304:100,1,83.9999974365235,8|0,0:0|0:0,0:0:0:0:
352,52,24475,2,0,L|448:52,2,83.9999974365235,0|0|8,0:0|0:0|0:0,0:0:0:0:
336,328,24919,6,0,P|404:368|476:320,1,167.999994873047,0|8,0:0|0:0,0:0:0:0:
488,244,25253,1,0,0:0:0:0:
436,180,25364,2,0,P|380:168|288:224,1,167.999994873047,0|8,0:0|0:0,0:0:0:0:
256,300,25697,1,0,0:0:0:0:
180,336,25808,5,0,0:0:0:0:
256,112,26030,1,8,0:0:0:0:
332,336,26253,1,0,0:0:0:0:
140,204,26475,1,8,0:0:0:0:
372,204,26697,6,0,B|420:200|456:216|456:216|508:152,1,167.999994873047,0|8,0:0|0:0,0:0:0:0:
492,68,27030,1,0,0:0:0:0:
419,110,27142,2,0,L|256:72,1,167.999994873047,0|8,0:0|0:0,0:0:0:0:
256,192,27586,12,0,28364,0:0:0:0:
104,240,28475,6,0,P|100:300|180:368,1,167.999994873047,4|8,0:0|0:0,0:0:0:0:
256,344,28808,1,0,0:0:0:0:
336,367,28919,2,0,P|403:321|408:240,1,167.999994873047,0|8,0:0|0:0,0:0:0:0:
380,160,29253,1,0,0:0:0:0:
404,80,29364,5,0,0:0:0:0:
256,260,29586,1,8,0:0:0:0:
108,80,29808,1,0,0:0:0:0:
256,260,30030,1,8,0:0:0:0:
492,288,30253,6,0,L|476:120,1,167.999994873047,0|8,0:0|0:0,0:0:0:0:
404,80,30586,1,0,0:0:0:0:
344,140,30697,2,0,P|260:156|188:108,1,167.999994873047,0|8,0:0|0:0,0:0:0:0:
144,48,31030,1,0,0:0:0:0:
100,120,31142,6,0,P|112:160|156:192,1,83.9999974365235,0|0,0:0|0:0,0:0:0:0:
80,244,31364,2,0,P|116:263|170:255,1,83.9999974365235,8|0,0:0|0:0,0:0:0:0:
184,348,31586,2,0,P|224:336|256:292,1,83.9999974365235,0|0,0:0|0:0,0:0:0:0:
308,368,31808,1,8,0:0:0:0:
308,368,32030,6,0,L|480:328,1,167.999994873047,4|8,0:0|0:0,0:0:0:0:
444,248,32364,1,0,0:0:0:0:
444,248,32475,2,0,B|364:228|364:228|344:136,1,167.999994873047,0|8,0:0|0:0,0:0:0:0:
344,60,32808,1,0,0:0:0:0:
420,96,32919,5,0,0:0:0:0:
176,160,33142,1,8,0:0:0:0:
356,336,33364,1,0,0:0:0:0:
420,96,33586,1,8,0:0:0:0:
176,160,33808,6,0,P|208:212|312:196,1,167.999994873047,0|8,0:0|0:0,0:0:0:0:
320,120,34142,1,0,0:0:0:0:
256,64,34253,2,0,P|232:48|88:64,1,167.999994873047,0|8,0:0|0:0,0:0:0:0:
24,203,34697,6,0,L|124:211,1,83.9999974365235,6|2,0:0|0:0,0:0:0:0:
143,285,34919,2,0,L|60:279,1,83.9999974365235,2|2,0:0|0:0,0:0:0:0:
92,356,35142,2,0,L|176:363,1,83.9999974365235,0|0,0:0|0:0,0:0:0:0:
256,340,35364,1,6,0:0:0:0:
256,340,35586,6,0,B|332:316|332:316|412:356,1,167.999994873047,4|8,0:0|0:0,0:0:0:0:
296,232,36030,2,0,P|276:188|328:76,1,167.999994873047,0|8,0:0|0:0,0:0:0:0:
400,60,36364,1,0,0:0:0:0:
472,104,36475,5,0,0:0:0:0:
376,244,36697,1,8,0:0:0:0:
208,236,36919,1,0,0:0:0:0:
140,84,37142,2,0,B|96:80|96:80|56:104,1,83.9999974365235,8|0,0:0|0:0,0:0:0:0:
20,172,37364,6,0,P|0:228|36:328,1,167.999994873047,0|8,0:0|0:0,0:0:0:0:
196,360,37808,2,0,L|300:340,1,83.9999974365235,0|0,0:0|0:0,0:0:0:0:
296,264,38030,2,0,L|192:284,1,83.9999974365235,8|0,0:0|0:0,0:0:0:0:
172,204,38253,6,0,L|196:124,2,83.9999974365235,0|2|10,0:0|0:0|0:0,0:0:0:0:
120,268,38586,1,0,0:0:0:0:
120,268,38697,1,2,0:0:0:0:
16,116,38919,1,10,0:0:0:0:
180,28,39142,6,0,P|211:69|173:167,1,167.999994873047,4|8,0:0|0:0,0:0:0:0:
188,336,39586,2,0,P|208:287|312:272,1,167.999994873047,0|8,0:0|0:0,0:0:0:0:
368,336,39919,2,0,L|464:328,1,83.9999974365235,0|0,0:0|0:0,0:0:0:0:
512,128,40253,5,8,0:0:0:0:
396,248,40475,1,0,0:0:0:0:
344,88,40697,1,8,0:0:0:0:
512,128,40919,6,0,L|504:300,1,167.999994873047,0|8,0:0|0:0,0:0:0:0:
448,360,41253,1,0,0:0:0:0:
372,328,41364,2,0,P|312:316|204:352,1,167.999994873047,0|8,0:0|0:0,0:0:0:0:
132,320,41697,1,0,0:0:0:0:
256,192,41808,12,0,42586,0:0:0:0:
192,84,42697,6,0,B|184:148|184:148|152:160|152:160|144:232,1,167.999994873047,4|8,0:0|0:0,0:0:0:0:
320,300,43142,2,0,B|328:236|328:236|360:224|360:224|368:152,1,167.999994873047,0|8,0:0|0:0,0:0:0:0:
332,80,43475,1,0,0:0:0:0:
332,80,43586,6,0,P|396:72|452:152,1,167.999994873047,0|8,0:0|0:0,0:0:0:0:
180,304,44030,2,0,P|116:312|60:232,1,167.999994873047,0|8,0:0|0:0,0:0:0:0:
100,160,44364,1,0,0:0:0:0:
140,236,44475,6,0,P|184:288|280:284,1,167.999994873047,0|8,0:0|0:0,0:0:0:0:
372,148,44919,2,0,P|328:96|232:100,1,167.999994873047,0|8,0:0|0:0,0:0:0:0:
256,192,45253,1,0,0:0:0:0:
328,232,45364,6,0,L|424:224,1,83.9999974365235,0|2,0:0|0:0,0:0:0:0:
455,141,45586,2,0,L|372:148,1,83.9999974365235,10|0,0:0|0:0,0:0:0:0:
412,64,45808,1,2,0:0:0:0:
504,224,46030,1,10,0:0:0:0:
344,320,46253,6,0,P|288:336|172:296,1,167.999994873047,4|8,0:0|0:0,0:0:0:0:
16,304,46697,2,0,P|88:280|116:192,1,167.999994873047,0|8,0:0|0:0,0:0:0:0:
92,120,47030,1,0,0:0:0:0:
36,184,47142,5,0,0:0:0:0:
192,248,47364,1,8,0:0:0:0:
172,80,47586,1,0,0:0:0:0:
192,248,47808,1,8,0:0:0:0:
36,184,48030,6,0,P|16:120|80:48,1,167.999994873047,0|8,0:0|0:0,0:0:0:0:
204,160,48475,2,0,P|256:160|344:92,1,167.999994873047,0|8,0:0|0:0,0:0:0:0:
364,8,48808,1,0,0:0:0:0:
396,172,49030,6,0,P|396:216|432:264,2,83.9999974365235,0|0|2,0:0|0:0|0:0,0:0:0:0:
352,336,49475,2,0,P|390:358|449:350,2,83.9999974365235,0|0|2,0:0|0:0|0:0,0:0:0:0:
312,256,49808,5,4,0:0:0:0:
488,192,50030,1,8,0:0:0:0:
288,128,50253,1,0,0:0:0:0:
512,320,50475,1,8,0:0:0:0:
312,256,50697,5,0,0:0:0:0:
428,72,50919,1,8,0:0:0:0:
436,344,51142,1,0,0:0:0:0:
184,200,51364,2,0,L|188:88,1,90.9999958343508,8|0,0:0|0:0,0:0:0:0:
256,36,51586,5,0,0:0:0:0:
412,212,51808,1,8,0:0:0:0:
204,324,52030,1,0,0:0:0:0:
256,36,52253,1,8,0:0:0:0:
488,264,52475,6,0,L|500:360,1,90.9999958343508,0|0,0:0|0:0,0:0:0:0:
396,253,52697,2,0,L|408:344,1,90.9999958343508,8|0,0:0|0:0,0:0:0:0:
308,244,52919,2,0,L|320:340,1,90.9999958343508,0|0,0:0|0:0,0:0:0:0:
220,232,53142,1,8,0:0:0:0:
412,128,53364,5,4,0:0:0:0:
204,324,53586,1,8,0:0:0:0:
204,60,53808,1,0,0:0:0:0:
412,256,54030,1,8,0:0:0:0:
44,192,54253,5,0,0:0:0:0:
320,40,54475,1,8,0:0:0:0:
320,344,54697,1,0,0:0:0:0:
128,168,54919,2,0,L|140:72,1,90.9999958343508,8|0,0:0|0:0,0:0:0:0:
220,16,55142,5,0,0:0:0:0:
196,308,55364,1,8,0:0:0:0:
24,72,55586,1,0,0:0:0:0:
392,252,55808,1,8,0:0:0:0:
96,352,56030,6,0,L|4:360,1,90.9999958343508,0|0,0:0|0:0,0:0:0:0:
104,260,56253,2,0,L|12:268,1,90.9999958343508,8|0,0:0|0:0,0:0:0:0:
112,168,56475,2,0,L|20:176,1,90.9999958343508,0|0,0:0|0:0,0:0:0:0:
120,76,56697,1,8,0:0:0:0:
320,148,56919,6,0,P|340:108|332:56,1,90.9999958343508,4|0,0:0|0:0,0:0:0:0:
248,84,57142,2,0,P|228:124|236:176,1,90.9999958343508,8|0,0:0|0:0,0:0:0:0:
296,236,57364,2,0,L|400:248,1,90.9999958343508,0|0,0:0|0:0,0:0:0:0:
460,192,57586,1,8,0:0:0:0:
344,332,57808,6,0,L|248:348,1,90.9999958343508,0|0,0:0|0:0,0:0:0:0:
204,272,58030,2,0,L|220:164,1,90.9999958343508,8|0,0:0|0:0,0:0:0:0:
300,140,58253,1,0,0:0:0:0:
92,204,58475,1,8,0:0:0:0:
254,346,58697,6,0,L|344:332,1,90.9999958343508,4|0,0:0|0:0,0:0:0:0:
296,236,58919,2,0,L|385:221,1,90.9999958343508,8|0,0:0|0:0,0:0:0:0:
328,128,59142,2,0,L|417:113,1,90.9999958343508,0|0,0:0|0:0,0:0:0:0:
369,17,59364,2,0,L|458:2,1,90.9999958343508,8|0,0:0|0:0,0:0:0:0:
504,132,59586,5,0,0:0:0:0:
498,169,59697,1,0,0:0:0:0:
493,207,59808,1,8,0:0:0:0:
487,244,59919,1,0,0:0:0:0:
482,282,60030,1,0,0:0:0:0:
476,319,60141,1,0,0:0:0:0:
471,357,60252,1,8,0:0:0:0:
252,344,60475,6,0,L|173:298,1,90.9999958343508,4|0,0:0|0:0,0:0:0:0:
104,188,60697,2,0,L|149:109,1,90.9999958343508,8|0,0:0|0:0,0:0:0:0:
260,40,60919,2,0,L|338:85,1,90.9999958343508,0|0,0:0|0:0,0:0:0:0:
408,196,61141,2,0,L|362:274,1,90.9999958343508,8|0,0:0|0:0,0:0:0:0:
252,344,61364,6,0,B|208:356|208:356|160:344,1,90.9999958343508,4|0,0:0|0:0,0:0:0:0:
104,188,61586,2,0,B|92:144|92:144|104:96,1,90.9999958343508,8|0,0:0|0:0,0:0:0:0:
260,40,61808,2,0,B|304:28|304:28|352:40,1,90.9999958343508,0|0,0:0|0:0,0:0:0:0:
408,196,62030,2,0,B|420:240|420:240|408:288,1,90.9999958343508,8|0,0:0|0:0,0:0:0:0:
252,344,62253,6,0,L|152:368,1,90.9999958343508,4|0,0:0|0:0,0:0:0:0:
244,216,62475,2,0,L|332:238,1,90.9999958343508,12|0,0:0|0:0,0:0:0:0:
104,264,62697,1,0,0:0:0:0:
0,96,62919,1,12,0:0:0:0:
260,40,63142,6,0,L|356:28,1,90.9999958343508,4|0,0:0|0:0,0:0:0:0:
428,108,63364,2,0,L|332:120,1,90.9999958343508,0|0,0:0|0:0,0:0:0:0:
224,172,63586,1,0,0:0:0:0:
300,248,63697,1,0,0:0:0:0:
408,232,63808,2,0,L|448:228,7,22.7499989585877,0|0|0|0|0|0|0|0,0:0|0:0|0:0|0:0|0:0|0:0|0:0|0:0,0:0:0:0:
