osu file format v13

[General]
AudioFilename: True Final Boss.mp3
AudioLeadIn: 0
PreviewTime: 48919
Countdown: 0
SampleSet: None
StackLeniency: 0.7
Mode: 1
LetterboxInBreaks: 0
WidescreenStoryboard: 1

[Editor]
Bookmarks: 7146,10701,14257,17812,21368,42701,53364
DistanceSpacing: 0.6
BeatDivisor: 4
GridSize: 4
TimelineZoom: 1

[Metadata]
Title:Tenshi
TitleUnicode:テンシ
Artist:Manabu Namiki
ArtistUnicode:並木 学
Creator:Snow Note
Version:Firce777's Inner Oni
Source:Do-Don-Pachi Saidaioujou
Tags:7odoa 怒首領蜂最大往生 MAXIMUM ORIGINAL SOUNDTRACK. 陽蜂 true boss 陰蜂 danmaku game CAVE Firce777
BeatmapID:328085
BeatmapSetID:120515

[Difficulty]
HPDrainRate:7
CircleSize:5
OverallDifficulty:6
ApproachRate:6
SliderMultiplier:1.4
SliderTickRate:2

[Events]
//Background and Video events
0,0,"BG.jpg",0,0
//Break Periods
//Storyboard Layer 0 (Background)
//Storyboard Layer 1 (Fail)
//Storyboard Layer 2 (Pass)
//Storyboard Layer 3 (Foreground)
//Storyboard Sound Samples
//Background Colour Transformations
3,100,163,162,255

[TimingPoints]
31,222.222222222222,4,1,0,55,1,0
49808,-100,4,1,0,70,0,1
64030,-100,4,1,0,55,0,0

[Colours]
Combo1 : 255,0,0
Combo2 : 0,255,0
Combo3 : 0,255,255

[HitObjects]
256,192,31,1,4,0:0:0:0:
256,192,142,1,2,0:0:0:0:
256,192,253,1,0,0:0:0:0:
256,192,308,1,0,0:0:0:0:
256,192,364,1,2,0:0:0:0:
256,192,475,1,0,0:0:0:0:
256,192,697,1,0,0:0:0:0:
256,192,808,1,0,0:0:0:0:
256,192,919,1,2,0:0:0:0:
256,192,1030,1,0,0:0:0:0:
256,192,1086,1,0,0:0:0:0:
256,192,1142,1,0,0:0:0:0:
256,192,1253,1,2,0:0:0:0:
256,192,1475,1,0,0:0:0:0:
256,192,1586,1,2,0:0:0:0:
256,192,1642,1,2,0:0:0:0:
256,192,1697,1,2,0:0:0:0:
256,192,1808,1,0,0:0:0:0:
256,192,2030,1,2,0:0:0:0:
256,192,2142,1,0,0:0:0:0:
256,192,2253,1,0,0:0:0:0:
256,192,2308,1,0,0:0:0:0:
256,192,2364,1,0,0:0:0:0:
256,192,2475,1,2,0:0:0:0:
256,192,2697,1,0,0:0:0:0:
256,192,2753,1,0,0:0:0:0:
256,192,2808,1,0,0:0:0:0:
256,192,2919,1,0,0:0:0:0:
256,192,3030,1,2,0:0:0:0:
256,192,3142,1,0,0:0:0:0:
256,192,3197,1,0,0:0:0:0:
256,192,3253,1,0,0:0:0:0:
256,192,3364,1,2,0:0:0:0:
256,192,3586,1,0,0:0:0:0:
256,192,3697,1,2,0:0:0:0:
256,192,3808,1,0,0:0:0:0:
256,192,3864,1,0,0:0:0:0:
256,192,3919,1,0,0:0:0:0:
256,192,4030,1,2,0:0:0:0:
256,192,4253,1,0,0:0:0:0:
256,192,4364,1,0,0:0:0:0:
256,192,4475,1,2,0:0:0:0:
256,192,4586,1,0,0:0:0:0:
256,192,4642,1,0,0:0:0:0:
256,192,4697,1,0,0:0:0:0:
256,192,4808,1,2,0:0:0:0:
256,192,5030,1,0,0:0:0:0:
256,192,5142,1,2,0:0:0:0:
256,192,5197,1,2,0:0:0:0:
256,192,5253,1,2,0:0:0:0:
256,192,5364,1,4,0:0:0:0:
256,192,5586,1,2,0:0:0:0:
256,192,5697,1,0,0:0:0:0:
256,192,5808,1,0,0:0:0:0:
256,192,5864,1,0,0:0:0:0:
256,192,5919,1,0,0:0:0:0:
256,192,6030,1,2,0:0:0:0:
256,192,6086,1,2,0:0:0:0:
256,192,6142,1,2,0:0:0:0:
256,192,6253,1,0,0:0:0:0:
256,192,6308,1,0,0:0:0:0:
256,192,6364,1,0,0:0:0:0:
256,192,6419,1,0,0:0:0:0:
256,192,6475,1,2,0:0:0:0:
256,192,6530,1,2,0:0:0:0:
256,192,6586,1,2,0:0:0:0:
256,192,6642,1,2,0:0:0:0:
256,192,6697,1,0,0:0:0:0:
256,192,6753,1,0,0:0:0:0:
256,192,6808,1,2,0:0:0:0:
256,192,6864,1,2,0:0:0:0:
256,192,6919,1,0,0:0:0:0:
256,192,6975,1,0,0:0:0:0:
256,192,7030,1,0,0:0:0:0:
256,192,7142,1,4,0:0:0:0:
256,192,7253,1,0,0:0:0:0:
256,192,7364,1,2,0:0:0:0:
256,192,7419,1,2,0:0:0:0:
256,192,7475,1,2,0:0:0:0:
256,192,7530,1,2,0:0:0:0:
256,192,7586,1,0,0:0:0:0:
256,192,7697,1,0,0:0:0:0:
256,192,7753,1,0,0:0:0:0:
256,192,7808,1,2,0:0:0:0:
256,192,7864,1,2,0:0:0:0:
256,192,7919,1,2,0:0:0:0:
256,192,8030,1,0,0:0:0:0:
256,192,8142,1,0,0:0:0:0:
256,192,8253,1,2,0:0:0:0:
256,192,8308,1,2,0:0:0:0:
256,192,8364,1,2,0:0:0:0:
256,192,8419,1,2,0:0:0:0:
256,192,8475,1,0,0:0:0:0:
256,192,8586,1,0,0:0:0:0:
256,192,8642,1,0,0:0:0:0:
256,192,8697,1,2,0:0:0:0:
256,192,8753,1,2,0:0:0:0:
256,192,8808,1,2,0:0:0:0:
256,192,8919,1,0,0:0:0:0:
256,192,9030,1,0,0:0:0:0:
256,192,9142,1,2,0:0:0:0:
256,192,9197,1,2,0:0:0:0:
256,192,9253,1,2,0:0:0:0:
256,192,9308,1,2,0:0:0:0:
256,192,9364,1,0,0:0:0:0:
256,192,9475,1,0,0:0:0:0:
256,192,9530,1,0,0:0:0:0:
256,192,9586,1,2,0:0:0:0:
256,192,9642,1,2,0:0:0:0:
256,192,9697,1,2,0:0:0:0:
256,192,9808,1,0,0:0:0:0:
256,192,9864,1,0,0:0:0:0:
256,192,9919,1,0,0:0:0:0:
256,192,9975,1,0,0:0:0:0:
256,192,10030,1,2,0:0:0:0:
256,192,10142,1,2,0:0:0:0:
256,192,10197,1,2,0:0:0:0:
256,192,10253,1,0,0:0:0:0:
256,192,10364,1,0,0:0:0:0:
256,192,10419,1,0,0:0:0:0:
256,192,10475,1,2,0:0:0:0:
256,192,10530,1,2,0:0:0:0:
256,192,10586,1,2,0:0:0:0:
256,192,10642,1,2,0:0:0:0:
256,192,10697,1,0,0:0:0:0:
256,192,10808,1,0,0:0:0:0:
256,192,10919,1,2,0:0:0:0:
256,192,10975,1,2,0:0:0:0:
256,192,11030,1,2,0:0:0:0:
256,192,11086,1,2,0:0:0:0:
256,192,11142,1,0,0:0:0:0:
256,192,11253,1,0,0:0:0:0:
256,192,11308,1,0,0:0:0:0:
256,192,11364,1,2,0:0:0:0:
256,192,11419,1,2,0:0:0:0:
256,192,11475,1,2,0:0:0:0:
256,192,11586,1,0,0:0:0:0:
256,192,11697,1,0,0:0:0:0:
256,192,11808,1,2,0:0:0:0:
256,192,11864,1,2,0:0:0:0:
256,192,11919,1,2,0:0:0:0:
256,192,11975,1,2,0:0:0:0:
256,192,12030,1,0,0:0:0:0:
256,192,12142,1,0,0:0:0:0:
256,192,12197,1,0,0:0:0:0:
256,192,12253,1,2,0:0:0:0:
256,192,12308,1,2,0:0:0:0:
256,192,12364,1,2,0:0:0:0:
256,192,12475,1,0,0:0:0:0:
256,192,12586,1,0,0:0:0:0:
256,192,12642,1,0,0:0:0:0:
256,192,12697,1,2,0:0:0:0:
256,192,12753,1,2,0:0:0:0:
256,192,12808,1,2,0:0:0:0:
256,192,12864,1,0,0:0:0:0:
256,192,12919,1,0,0:0:0:0:
256,192,13030,1,0,0:0:0:0:
256,192,13086,1,0,0:0:0:0:
256,192,13142,1,2,0:0:0:0:
256,192,13197,1,2,0:0:0:0:
256,192,13253,1,0,0:0:0:0:
256,192,13364,1,0,0:0:0:0:
256,192,13475,1,0,0:0:0:0:
256,192,13530,1,0,0:0:0:0:
256,192,13586,1,2,0:0:0:0:
256,192,13697,1,0,0:0:0:0:
256,192,13808,1,2,0:0:0:0:
256,192,13864,1,2,0:0:0:0:
256,192,13919,1,2,0:0:0:0:
256,192,13975,1,2,0:0:0:0:
256,192,14030,1,0,0:0:0:0:
256,192,14086,1,0,0:0:0:0:
256,192,14142,1,2,0:0:0:0:
256,192,14197,1,0,0:0:0:0:
256,192,14253,1,0,0:0:0:0:
256,192,14364,1,0,0:0:0:0:
256,192,14419,1,0,0:0:0:0:
256,192,14475,1,2,0:0:0:0:
256,192,14586,1,2,0:0:0:0:
256,192,14642,1,2,0:0:0:0:
256,192,14697,1,0,0:0:0:0:
256,192,14808,1,0,0:0:0:0:
256,192,14864,1,0,0:0:0:0:
256,192,14919,1,2,0:0:0:0:
256,192,14975,1,2,0:0:0:0:
256,192,15030,1,2,0:0:0:0:
256,192,15086,1,2,0:0:0:0:
256,192,15142,1,0,0:0:0:0:
256,192,15253,1,0,0:0:0:0:
256,192,15308,1,0,0:0:0:0:
256,192,15364,1,2,0:0:0:0:
256,192,15475,1,2,0:0:0:0:
256,192,15530,1,2,0:0:0:0:
256,192,15586,1,0,0:0:0:0:
256,192,15697,1,0,0:0:0:0:
256,192,15753,1,0,0:0:0:0:
256,192,15808,1,2,0:0:0:0:
256,192,15864,1,2,0:0:0:0:
256,192,15919,1,2,0:0:0:0:
256,192,15975,1,2,0:0:0:0:
256,192,16030,1,0,0:0:0:0:
256,192,16142,1,0,0:0:0:0:
256,192,16197,1,0,0:0:0:0:
256,192,16253,1,2,0:0:0:0:
256,192,16364,1,2,0:0:0:0:
256,192,16419,1,2,0:0:0:0:
256,192,16475,1,0,0:0:0:0:
256,192,16586,1,0,0:0:0:0:
256,192,16642,1,0,0:0:0:0:
256,192,16697,1,2,0:0:0:0:
256,192,16753,1,2,0:0:0:0:
256,192,16808,1,2,0:0:0:0:
256,192,16864,1,2,0:0:0:0:
256,192,16919,1,0,0:0:0:0:
256,192,16975,1,0,0:0:0:0:
256,192,17030,1,0,0:0:0:0:
256,192,17086,1,0,0:0:0:0:
256,192,17142,1,2,0:0:0:0:
256,192,17253,1,2,0:0:0:0:
256,192,17308,1,2,0:0:0:0:
256,192,17364,1,0,0:0:0:0:
256,192,17475,1,0,0:0:0:0:
256,192,17530,1,0,0:0:0:0:
256,192,17586,1,2,0:0:0:0:
256,192,17642,1,2,0:0:0:0:
256,192,17697,1,2,0:0:0:0:
256,192,17753,1,2,0:0:0:0:
256,192,17808,1,0,0:0:0:0:
256,192,17919,1,0,0:0:0:0:
256,192,17975,1,0,0:0:0:0:
256,192,18030,1,2,0:0:0:0:
256,192,18142,1,2,0:0:0:0:
256,192,18197,1,2,0:0:0:0:
256,192,18253,1,0,0:0:0:0:
256,192,18364,1,0,0:0:0:0:
256,192,18419,1,0,0:0:0:0:
256,192,18475,1,2,0:0:0:0:
256,192,18530,1,2,0:0:0:0:
256,192,18586,1,2,0:0:0:0:
256,192,18642,1,2,0:0:0:0:
256,192,18697,1,0,0:0:0:0:
256,192,18808,1,0,0:0:0:0:
256,192,18864,1,0,0:0:0:0:
256,192,18919,1,2,0:0:0:0:
256,192,19030,1,2,0:0:0:0:
256,192,19086,1,2,0:0:0:0:
256,192,19142,1,0,0:0:0:0:
256,192,19253,1,0,0:0:0:0:
256,192,19308,1,0,0:0:0:0:
256,192,19364,1,2,0:0:0:0:
256,192,19419,1,2,0:0:0:0:
256,192,19475,1,2,0:0:0:0:
256,192,19530,1,2,0:0:0:0:
256,192,19586,1,0,0:0:0:0:
256,192,19697,1,0,0:0:0:0:
256,192,19753,1,0,0:0:0:0:
256,192,19808,1,2,0:0:0:0:
256,192,19919,1,2,0:0:0:0:
256,192,19975,1,2,0:0:0:0:
256,192,20030,1,0,0:0:0:0:
256,192,20086,1,0,0:0:0:0:
256,192,20142,1,0,0:0:0:0:
256,192,20197,1,0,0:0:0:0:
256,192,20253,1,2,0:0:0:0:
256,192,20308,1,2,0:0:0:0:
256,192,20364,1,2,0:0:0:0:
256,192,20475,1,0,0:0:0:0:
256,192,20530,1,2,0:0:0:0:
256,192,20586,1,2,0:0:0:0:
256,192,20642,1,2,0:0:0:0:
256,192,20697,1,0,0:0:0:0:
256,192,20753,1,2,0:0:0:0:
256,192,20808,1,2,0:0:0:0:
256,192,20864,1,2,0:0:0:0:
256,192,20919,1,0,0:0:0:0:
256,192,20975,1,0,0:0:0:0:
256,192,21030,1,2,0:0:0:0:
256,192,21086,1,2,0:0:0:0:
256,192,21142,1,0,0:0:0:0:
256,192,21197,1,2,0:0:0:0:
256,192,21253,1,0,0:0:0:0:
256,192,21364,1,0,0:0:0:0:
256,192,21475,1,0,0:0:0:0:
256,192,21530,1,0,0:0:0:0:
256,192,21586,1,2,0:0:0:0:
256,192,21697,1,2,0:0:0:0:
256,192,21808,1,0,0:0:0:0:
256,192,21864,1,0,0:0:0:0:
256,192,21919,1,0,0:0:0:0:
256,192,21975,1,0,0:0:0:0:
256,192,22030,1,2,0:0:0:0:
256,192,22142,1,2,0:0:0:0:
256,192,22253,1,0,0:0:0:0:
256,192,22364,1,2,0:0:0:0:
256,192,22419,1,2,0:0:0:0:
256,192,22475,1,0,0:0:0:0:
256,192,22586,1,2,0:0:0:0:
256,192,22697,1,0,0:0:0:0:
256,192,22753,1,2,0:0:0:0:
256,192,22808,1,2,0:0:0:0:
256,192,22864,1,2,0:0:0:0:
256,192,22919,1,0,0:0:0:0:
256,192,23030,1,2,0:0:0:0:
256,192,23142,1,0,0:0:0:0:
256,192,23253,1,0,0:0:0:0:
256,192,23308,1,0,0:0:0:0:
256,192,23364,1,2,0:0:0:0:
256,192,23475,1,2,0:0:0:0:
256,192,23586,1,0,0:0:0:0:
256,192,23642,1,0,0:0:0:0:
256,192,23697,1,0,0:0:0:0:
256,192,23753,1,0,0:0:0:0:
256,192,23808,1,2,0:0:0:0:
256,192,23919,1,2,0:0:0:0:
256,192,24030,1,0,0:0:0:0:
256,192,24142,1,2,0:0:0:0:
256,192,24197,1,2,0:0:0:0:
256,192,24253,1,0,0:0:0:0:
256,192,24364,1,2,0:0:0:0:
256,192,24475,1,0,0:0:0:0:
256,192,24530,1,2,0:0:0:0:
256,192,24586,1,2,0:0:0:0:
256,192,24642,1,2,0:0:0:0:
256,192,24697,1,0,0:0:0:0:
256,192,24808,1,2,0:0:0:0:
256,192,24919,1,0,0:0:0:0:
256,192,25030,1,0,0:0:0:0:
256,192,25086,1,0,0:0:0:0:
256,192,25142,1,0,0:0:0:0:
256,192,25253,1,2,0:0:0:0:
256,192,25364,1,0,0:0:0:0:
256,192,25419,1,0,0:0:0:0:
256,192,25475,1,0,0:0:0:0:
256,192,25530,1,0,0:0:0:0:
256,192,25586,1,0,0:0:0:0:
256,192,25697,1,2,0:0:0:0:
256,192,25808,1,0,0:0:0:0:
256,192,25919,1,2,0:0:0:0:
256,192,25975,1,2,0:0:0:0:
256,192,26030,1,0,0:0:0:0:
256,192,26142,1,2,0:0:0:0:
256,192,26253,1,0,0:0:0:0:
256,192,26308,1,2,0:0:0:0:
256,192,26364,1,2,0:0:0:0:
256,192,26419,1,2,0:0:0:0:
256,192,26475,1,0,0:0:0:0:
256,192,26586,1,2,0:0:0:0:
256,192,26697,1,0,0:0:0:0:
256,192,26808,1,0,0:0:0:0:
256,192,26864,1,0,0:0:0:0:
256,192,26919,1,0,0:0:0:0:
256,192,27030,1,2,0:0:0:0:
256,192,27142,1,0,0:0:0:0:
256,192,27197,1,0,0:0:0:0:
256,192,27253,1,0,0:0:0:0:
256,192,27308,1,0,0:0:0:0:
256,192,27364,1,0,0:0:0:0:
256,192,27475,1,2,0:0:0:0:
256,192,27586,1,0,0:0:0:0:
256,192,27642,1,2,0:0:0:0:
256,192,27697,1,2,0:0:0:0:
256,192,27753,1,2,0:0:0:0:
256,192,27808,1,0,0:0:0:0:
256,192,27919,1,2,0:0:0:0:
256,192,27975,1,2,0:0:0:0:
256,192,28030,1,0,0:0:0:0:
256,192,28086,1,2,0:0:0:0:
256,192,28142,1,2,0:0:0:0:
256,192,28197,1,2,0:0:0:0:
256,192,28253,1,0,0:0:0:0:
256,192,28364,1,2,0:0:0:0:
256,192,28419,1,2,0:0:0:0:
256,192,28475,1,0,0:0:0:0:
256,192,28586,1,0,0:0:0:0:
256,192,28642,1,0,0:0:0:0:
256,192,28697,1,2,0:0:0:0:
256,192,28808,1,2,0:0:0:0:
256,192,28864,1,2,0:0:0:0:
256,192,28919,1,0,0:0:0:0:
256,192,29030,1,0,0:0:0:0:
256,192,29086,1,0,0:0:0:0:
256,192,29142,1,2,0:0:0:0:
256,192,29197,1,2,0:0:0:0:
256,192,29253,1,2,0:0:0:0:
256,192,29308,1,2,0:0:0:0:
256,192,29364,1,0,0:0:0:0:
256,192,29475,1,2,0:0:0:0:
256,192,29530,1,2,0:0:0:0:
256,192,29586,1,0,0:0:0:0:
256,192,29697,1,2,0:0:0:0:
256,192,29808,1,0,0:0:0:0:
256,192,29919,1,2,0:0:0:0:
256,192,29975,1,2,0:0:0:0:
256,192,30030,1,0,0:0:0:0:
256,192,30086,1,2,0:0:0:0:
256,192,30142,1,2,0:0:0:0:
256,192,30197,1,2,0:0:0:0:
256,192,30253,1,0,0:0:0:0:
256,192,30364,1,0,0:0:0:0:
256,192,30419,1,0,0:0:0:0:
256,192,30475,1,2,0:0:0:0:
256,192,30586,1,2,0:0:0:0:
256,192,30642,1,2,0:0:0:0:
256,192,30697,1,0,0:0:0:0:
256,192,30808,1,0,0:0:0:0:
256,192,30864,1,0,0:0:0:0:
256,192,30919,1,2,0:0:0:0:
256,192,30975,1,2,0:0:0:0:
256,192,31030,1,2,0:0:0:0:
256,192,31086,1,2,0:0:0:0:
256,192,31142,1,0,0:0:0:0:
256,192,31253,1,2,0:0:0:0:
256,192,31308,1,2,0:0:0:0:
256,192,31364,1,0,0:0:0:0:
256,192,31475,1,2,0:0:0:0:
256,192,31586,1,0,0:0:0:0:
256,192,31642,1,2,0:0:0:0:
256,192,31697,1,2,0:0:0:0:
256,192,31753,1,2,0:0:0:0:
256,192,31808,1,0,0:0:0:0:
256,192,31864,1,2,0:0:0:0:
256,192,31919,1,2,0:0:0:0:
256,192,31975,1,2,0:0:0:0:
256,192,32030,1,0,0:0:0:0:
256,192,32142,1,0,0:0:0:0:
256,192,32197,1,2,0:0:0:0:
256,192,32253,1,2,0:0:0:0:
256,192,32364,1,2,0:0:0:0:
256,192,32419,1,2,0:0:0:0:
256,192,32475,1,0,0:0:0:0:
256,192,32586,1,0,0:0:0:0:
256,192,32642,1,2,0:0:0:0:
256,192,32697,1,2,0:0:0:0:
256,192,32808,1,2,0:0:0:0:
256,192,32864,1,2,0:0:0:0:
256,192,32919,1,0,0:0:0:0:
256,192,33030,1,2,0:0:0:0:
256,192,33086,1,2,0:0:0:0:
256,192,33142,1,0,0:0:0:0:
256,192,33197,1,2,0:0:0:0:
256,192,33253,1,2,0:0:0:0:
256,192,33308,1,2,0:0:0:0:
256,192,33364,1,0,0:0:0:0:
256,192,33475,1,2,0:0:0:0:
256,192,33530,1,2,0:0:0:0:
256,192,33586,1,0,0:0:0:0:
256,192,33642,1,2,0:0:0:0:
256,192,33697,1,2,0:0:0:0:
256,192,33753,1,2,0:0:0:0:
256,192,33808,1,0,0:0:0:0:
256,192,33919,1,0,0:0:0:0:
256,192,33975,1,2,0:0:0:0:
256,192,34030,1,2,0:0:0:0:
256,192,34142,1,2,0:0:0:0:
256,192,34197,1,2,0:0:0:0:
256,192,34253,1,0,0:0:0:0:
256,192,34364,1,0,0:0:0:0:
256,192,34419,1,2,0:0:0:0:
256,192,34475,1,2,0:0:0:0:
256,192,34586,1,2,0:0:0:0:
256,192,34697,1,6,0:0:0:0:
256,192,34808,1,2,0:0:0:0:
256,192,34919,1,6,0:0:0:0:
256,192,35030,1,2,0:0:0:0:
256,192,35142,1,4,0:0:0:0:
256,192,35253,1,0,0:0:0:0:
256,192,35364,1,4,0:0:0:0:
256,192,35586,1,0,0:0:0:0:
256,192,35697,1,0,0:0:0:0:
256,192,35753,1,0,0:0:0:0:
256,192,35808,1,2,0:0:0:0:
256,192,35919,1,0,0:0:0:0:
256,192,35975,1,0,0:0:0:0:
256,192,36030,1,0,0:0:0:0:
256,192,36086,1,0,0:0:0:0:
256,192,36142,1,0,0:0:0:0:
256,192,36197,1,0,0:0:0:0:
256,192,36253,1,2,0:0:0:0:
256,192,36364,1,0,0:0:0:0:
256,192,36419,1,0,0:0:0:0:
256,192,36475,1,0,0:0:0:0:
256,192,36586,1,0,0:0:0:0:
256,192,36642,1,0,0:0:0:0:
256,192,36697,1,2,0:0:0:0:
256,192,36808,1,0,0:0:0:0:
256,192,36864,1,0,0:0:0:0:
256,192,36919,1,0,0:0:0:0:
256,192,37030,1,0,0:0:0:0:
256,192,37086,1,0,0:0:0:0:
256,192,37142,1,2,0:0:0:0:
256,192,37253,1,0,0:0:0:0:
256,192,37364,1,0,0:0:0:0:
256,192,37475,1,0,0:0:0:0:
256,192,37530,1,0,0:0:0:0:
256,192,37586,1,2,0:0:0:0:
256,192,37697,1,0,0:0:0:0:
256,192,37753,1,0,0:0:0:0:
256,192,37808,1,0,0:0:0:0:
256,192,37864,1,0,0:0:0:0:
256,192,37919,1,0,0:0:0:0:
256,192,37975,1,0,0:0:0:0:
256,192,38030,1,2,0:0:0:0:
256,192,38142,1,0,0:0:0:0:
256,192,38197,1,0,0:0:0:0:
256,192,38253,1,0,0:0:0:0:
256,192,38364,1,2,0:0:0:0:
256,192,38419,1,2,0:0:0:0:
256,192,38475,1,0,0:0:0:0:
256,192,38586,1,0,0:0:0:0:
256,192,38697,1,2,0:0:0:0:
256,192,38753,1,2,0:0:0:0:
256,192,38808,1,0,0:0:0:0:
256,192,38919,1,0,0:0:0:0:
256,192,38975,1,0,0:0:0:0:
256,192,39030,1,2,0:0:0:0:
256,192,39086,1,0,0:0:0:0:
256,192,39142,1,0,0:0:0:0:
256,192,39253,1,0,0:0:0:0:
256,192,39308,1,0,0:0:0:0:
256,192,39364,1,2,0:0:0:0:
256,192,39475,1,0,0:0:0:0:
256,192,39530,1,0,0:0:0:0:
256,192,39586,1,0,0:0:0:0:
256,192,39642,1,0,0:0:0:0:
256,192,39697,1,0,0:0:0:0:
256,192,39753,1,0,0:0:0:0:
256,192,39808,1,2,0:0:0:0:
256,192,39919,1,0,0:0:0:0:
256,192,39975,1,0,0:0:0:0:
256,192,40030,1,0,0:0:0:0:
256,192,40142,1,0,0:0:0:0:
256,192,40197,1,0,0:0:0:0:
256,192,40253,1,2,0:0:0:0:
256,192,40364,1,0,0:0:0:0:
256,192,40419,1,0,0:0:0:0:
256,192,40475,1,0,0:0:0:0:
256,192,40586,1,0,0:0:0:0:
256,192,40642,1,0,0:0:0:0:
256,192,40697,1,2,0:0:0:0:
256,192,40808,1,0,0:0:0:0:
256,192,40919,1,0,0:0:0:0:
256,192,41030,1,0,0:0:0:0:
256,192,41086,1,0,0:0:0:0:
256,192,41142,1,2,0:0:0:0:
256,192,41253,1,0,0:0:0:0:
256,192,41308,1,0,0:0:0:0:
256,192,41364,1,0,0:0:0:0:
256,192,41419,1,0,0:0:0:0:
256,192,41475,1,0,0:0:0:0:
256,192,41530,1,0,0:0:0:0:
256,192,41586,1,2,0:0:0:0:
256,192,41697,1,0,0:0:0:0:
256,192,41808,1,0,0:0:0:0:
256,192,41919,1,2,0:0:0:0:
256,192,41975,1,2,0:0:0:0:
256,192,42030,1,0,0:0:0:0:
256,192,42142,1,2,0:0:0:0:
256,192,42197,1,2,0:0:0:0:
256,192,42253,1,0,0:0:0:0:
256,192,42308,1,2,0:0:0:0:
256,192,42364,1,2,0:0:0:0:
256,192,42419,1,2,0:0:0:0:
256,192,42475,1,0,0:0:0:0:
256,192,42586,1,2,0:0:0:0:
256,192,42642,1,2,0:0:0:0:
256,192,42697,1,0,0:0:0:0:
256,192,42808,1,0,0:0:0:0:
256,192,42864,1,0,0:0:0:0:
256,192,42919,1,2,0:0:0:0:
256,192,43030,1,0,0:0:0:0:
256,192,43086,1,0,0:0:0:0:
256,192,43142,1,0,0:0:0:0:
256,192,43197,1,0,0:0:0:0:
256,192,43253,1,0,0:0:0:0:
256,192,43308,1,0,0:0:0:0:
256,192,43364,1,2,0:0:0:0:
256,192,43475,1,0,0:0:0:0:
256,192,43530,1,0,0:0:0:0:
256,192,43586,1,0,0:0:0:0:
256,192,43697,1,0,0:0:0:0:
256,192,43753,1,0,0:0:0:0:
256,192,43808,1,2,0:0:0:0:
256,192,43919,1,0,0:0:0:0:
256,192,43975,1,0,0:0:0:0:
256,192,44030,1,0,0:0:0:0:
256,192,44142,1,0,0:0:0:0:
256,192,44197,1,0,0:0:0:0:
256,192,44253,1,2,0:0:0:0:
256,192,44364,1,0,0:0:0:0:
256,192,44475,1,0,0:0:0:0:
256,192,44586,1,0,0:0:0:0:
256,192,44642,1,0,0:0:0:0:
256,192,44697,1,2,0:0:0:0:
256,192,44808,1,0,0:0:0:0:
256,192,44864,1,0,0:0:0:0:
256,192,44919,1,0,0:0:0:0:
256,192,44975,1,0,0:0:0:0:
256,192,45030,1,0,0:0:0:0:
256,192,45086,1,0,0:0:0:0:
256,192,45142,1,2,0:0:0:0:
256,192,45253,1,0,0:0:0:0:
256,192,45308,1,0,0:0:0:0:
256,192,45364,1,0,0:0:0:0:
256,192,45475,1,2,0:0:0:0:
256,192,45530,1,2,0:0:0:0:
256,192,45586,1,0,0:0:0:0:
256,192,45697,1,0,0:0:0:0:
256,192,45808,1,2,0:0:0:0:
256,192,45864,1,2,0:0:0:0:
256,192,45919,1,0,0:0:0:0:
256,192,46030,1,0,0:0:0:0:
256,192,46086,1,0,0:0:0:0:
256,192,46142,1,2,0:0:0:0:
256,192,46197,1,0,0:0:0:0:
256,192,46253,1,0,0:0:0:0:
256,192,46364,1,0,0:0:0:0:
256,192,46419,1,0,0:0:0:0:
256,192,46475,1,2,0:0:0:0:
256,192,46586,1,0,0:0:0:0:
256,192,46642,1,0,0:0:0:0:
256,192,46697,1,0,0:0:0:0:
256,192,46753,1,0,0:0:0:0:
256,192,46808,1,0,0:0:0:0:
256,192,46864,1,0,0:0:0:0:
256,192,46919,1,2,0:0:0:0:
256,192,47030,1,0,0:0:0:0:
256,192,47086,1,0,0:0:0:0:
256,192,47142,1,0,0:0:0:0:
256,192,47253,1,0,0:0:0:0:
256,192,47308,1,0,0:0:0:0:
256,192,47364,1,2,0:0:0:0:
256,192,47475,1,0,0:0:0:0:
256,192,47530,1,0,0:0:0:0:
256,192,47586,1,0,0:0:0:0:
256,192,47697,1,0,0:0:0:0:
256,192,47753,1,0,0:0:0:0:
256,192,47808,1,2,0:0:0:0:
256,192,47919,1,0,0:0:0:0:
256,192,48030,1,0,0:0:0:0:
256,192,48142,1,0,0:0:0:0:
256,192,48197,1,0,0:0:0:0:
256,192,48253,1,2,0:0:0:0:
256,192,48308,1,2,0:0:0:0:
256,192,48364,1,0,0:0:0:0:
256,192,48419,1,0,0:0:0:0:
256,192,48475,1,0,0:0:0:0:
256,192,48530,1,0,0:0:0:0:
256,192,48586,1,0,0:0:0:0:
256,192,48642,1,0,0:0:0:0:
256,192,48697,1,2,0:0:0:0:
256,192,48753,1,2,0:0:0:0:
256,192,48808,1,2,0:0:0:0:
256,192,48864,1,2,0:0:0:0:
256,192,48919,1,0,0:0:0:0:
256,192,49030,1,0,0:0:0:0:
256,192,49086,1,0,0:0:0:0:
256,192,49197,1,0,0:0:0:0:
256,192,49253,1,2,0:0:0:0:
256,192,49308,1,2,0:0:0:0:
256,192,49364,1,2,0:0:0:0:
256,192,49475,1,0,0:0:0:0:
256,192,49530,1,0,0:0:0:0:
256,192,49642,1,0,0:0:0:0:
256,192,49697,1,2,0:0:0:0:
256,192,49753,1,2,0:0:0:0:
256,192,49808,1,0,0:0:0:0:
256,192,49919,1,2,0:0:0:0:
256,192,49975,1,2,0:0:0:0:
256,192,50030,1,0,0:0:0:0:
256,192,50142,1,2,0:0:0:0:
256,192,50197,1,2,0:0:0:0:
256,192,50253,1,0,0:0:0:0:
256,192,50364,1,2,0:0:0:0:
256,192,50419,1,2,0:0:0:0:
256,192,50475,1,0,0:0:0:0:
256,192,50530,1,0,0:0:0:0:
256,192,50586,1,2,0:0:0:0:
256,192,50642,1,2,0:0:0:0:
256,192,50697,1,0,0:0:0:0:
256,192,50808,1,2,0:0:0:0:
256,192,50864,1,2,0:0:0:0:
256,192,50919,1,0,0:0:0:0:
256,192,51030,1,2,0:0:0:0:
256,192,51086,1,2,0:0:0:0:
256,192,51142,1,0,0:0:0:0:
256,192,51253,1,2,0:0:0:0:
256,192,51308,1,2,0:0:0:0:
256,192,51364,1,0,0:0:0:0:
256,192,51419,1,2,0:0:0:0:
256,192,51475,1,0,0:0:0:0:
256,192,51530,1,2,0:0:0:0:
256,192,51586,1,0,0:0:0:0:
256,192,51697,1,2,0:0:0:0:
256,192,51753,1,2,0:0:0:0:
256,192,51808,1,0,0:0:0:0:
256,192,51919,1,2,0:0:0:0:
256,192,51975,1,2,0:0:0:0:
256,192,52030,1,0,0:0:0:0:
256,192,52142,1,2,0:0:0:0:
256,192,52197,1,2,0:0:0:0:
256,192,52253,1,0,0:0:0:0:
256,192,52308,1,0,0:0:0:0:
256,192,52364,1,2,0:0:0:0:
256,192,52419,1,2,0:0:0:0:
256,192,52475,1,0,0:0:0:0:
256,192,52586,1,0,0:0:0:0:
256,192,52642,1,0,0:0:0:0:
256,192,52697,1,2,0:0:0:0:
256,192,52808,1,2,0:0:0:0:
256,192,52864,1,2,0:0:0:0:
256,192,52919,1,0,0:0:0:0:
256,192,53030,1,0,0:0:0:0:
256,192,53086,1,0,0:0:0:0:
256,192,53142,1,2,0:0:0:0:
256,192,53197,1,2,0:0:0:0:
256,192,53253,1,2,0:0:0:0:
256,192,53308,1,2,0:0:0:0:
256,192,53364,1,0,0:0:0:0:
256,192,53475,1,2,0:0:0:0:
256,192,53530,1,2,0:0:0:0:
256,192,53586,1,0,0:0:0:0:
256,192,53697,1,2,0:0:0:0:
256,192,53753,1,2,0:0:0:0:
256,192,53808,1,0,0:0:0:0:
256,192,53919,1,2,0:0:0:0:
256,192,53975,1,2,0:0:0:0:
256,192,54030,1,0,0:0:0:0:
256,192,54086,1,0,0:0:0:0:
256,192,54142,1,2,0:0:0:0:
256,192,54197,1,2,0:0:0:0:
256,192,54253,1,0,0:0:0:0:
256,192,54364,1,2,0:0:0:0:
256,192,54419,1,2,0:0:0:0:
256,192,54475,1,0,0:0:0:0:
256,192,54586,1,2,0:0:0:0:
256,192,54642,1,2,0:0:0:0:
256,192,54697,1,0,0:0:0:0:
256,192,54808,1,2,0:0:0:0:
256,192,54864,1,2,0:0:0:0:
256,192,54919,1,0,0:0:0:0:
256,192,54975,1,2,0:0:0:0:
256,192,55030,1,0,0:0:0:0:
256,192,55086,1,2,0:0:0:0:
256,192,55142,1,0,0:0:0:0:
256,192,55253,1,0,0:0:0:0:
256,192,55308,1,0,0:0:0:0:
256,192,55364,1,2,0:0:0:0:
256,192,55475,1,0,0:0:0:0:
256,192,55530,1,0,0:0:0:0:
256,192,55586,1,0,0:0:0:0:
256,192,55697,1,0,0:0:0:0:
256,192,55753,1,0,0:0:0:0:
256,192,55808,1,2,0:0:0:0:
256,192,55864,1,2,0:0:0:0:
256,192,55919,1,2,0:0:0:0:
256,192,55975,1,2,0:0:0:0:
256,192,56030,1,0,0:0:0:0:
256,192,56142,1,2,0:0:0:0:
256,192,56197,1,2,0:0:0:0:
256,192,56253,1,0,0:0:0:0:
256,192,56364,1,2,0:0:0:0:
256,192,56419,1,2,0:0:0:0:
256,192,56475,1,0,0:0:0:0:
256,192,56586,1,2,0:0:0:0:
256,192,56642,1,2,0:0:0:0:
256,192,56697,1,0,0:0:0:0:
256,192,56753,1,0,0:0:0:0:
256,192,56808,1,0,0:0:0:0:
256,192,56864,1,0,0:0:0:0:
256,192,56919,1,0,0:0:0:0:
256,192,57030,1,2,0:0:0:0:
256,192,57086,1,2,0:0:0:0:
256,192,57142,1,0,0:0:0:0:
256,192,57197,1,2,0:0:0:0:
256,192,57253,1,2,0:0:0:0:
256,192,57308,1,2,0:0:0:0:
256,192,57364,1,0,0:0:0:0:
256,192,57475,1,2,0:0:0:0:
256,192,57530,1,2,0:0:0:0:
256,192,57586,1,0,0:0:0:0:
256,192,57642,1,0,0:0:0:0:
256,192,57697,1,2,0:0:0:0:
256,192,57753,1,2,0:0:0:0:
256,192,57808,1,0,0:0:0:0:
256,192,57919,1,2,0:0:0:0:
256,192,57975,1,2,0:0:0:0:
256,192,58030,1,0,0:0:0:0:
256,192,58086,1,2,0:0:0:0:
256,192,58142,1,2,0:0:0:0:
256,192,58197,1,2,0:0:0:0:
256,192,58253,1,0,0:0:0:0:
256,192,58364,1,2,0:0:0:0:
256,192,58419,1,2,0:0:0:0:
256,192,58475,1,0,0:0:0:0:
256,192,58530,1,2,0:0:0:0:
256,192,58586,1,0,0:0:0:0:
256,192,58642,1,2,0:0:0:0:
256,192,58697,1,0,0:0:0:0:
256,192,58808,1,2,0:0:0:0:
256,192,58864,1,2,0:0:0:0:
256,192,58919,1,0,0:0:0:0:
256,192,58975,1,2,0:0:0:0:
256,192,59030,1,2,0:0:0:0:
256,192,59086,1,2,0:0:0:0:
256,192,59142,1,0,0:0:0:0:
256,192,59253,1,2,0:0:0:0:
256,192,59308,1,2,0:0:0:0:
256,192,59364,1,0,0:0:0:0:
256,192,59419,1,0,0:0:0:0:
256,192,59475,1,2,0:0:0:0:
256,192,59530,1,2,0:0:0:0:
256,192,59586,1,0,0:0:0:0:
256,192,59642,1,0,0:0:0:0:
256,192,59697,1,0,0:0:0:0:
256,192,59753,1,0,0:0:0:0:
256,192,59808,1,2,0:0:0:0:
256,192,59919,1,2,0:0:0:0:
256,192,59975,1,2,0:0:0:0:
256,192,60030,1,0,0:0:0:0:
256,192,60142,1,0,0:0:0:0:
256,192,60197,1,0,0:0:0:0:
256,192,60253,1,2,0:0:0:0:
256,192,60308,1,2,0:0:0:0:
256,192,60364,1,2,0:0:0:0:
256,192,60475,1,0,0:0:0:0:
256,192,60530,1,0,0:0:0:0:
256,192,60586,1,0,0:0:0:0:
256,192,60642,1,0,0:0:0:0:
256,192,60697,1,2,0:0:0:0:
256,192,60753,1,2,0:0:0:0:
256,192,60808,1,2,0:0:0:0:
256,192,60864,1,2,0:0:0:0:
256,192,60919,1,0,0:0:0:0:
256,192,60975,1,0,0:0:0:0:
256,192,61030,1,0,0:0:0:0:
256,192,61086,1,0,0:0:0:0:
256,192,61142,1,2,0:0:0:0:
256,192,61197,1,2,0:0:0:0:
256,192,61253,1,2,0:0:0:0:
256,192,61364,1,0,0:0:0:0:
256,192,61419,1,0,0:0:0:0:
256,192,61475,1,2,0:0:0:0:
256,192,61530,1,2,0:0:0:0:
256,192,61586,1,0,0:0:0:0:
256,192,61642,1,0,0:0:0:0:
256,192,61697,1,2,0:0:0:0:
256,192,61753,1,2,0:0:0:0:
256,192,61808,1,0,0:0:0:0:
256,192,61864,1,0,0:0:0:0:
256,192,61919,1,0,0:0:0:0:
256,192,61975,1,0,0:0:0:0:
256,192,62030,1,2,0:0:0:0:
256,192,62086,1,2,0:0:0:0:
256,192,62142,1,2,0:0:0:0:
256,192,62253,1,0,0:0:0:0:
256,192,62308,1,0,0:0:0:0:
256,192,62364,1,2,0:0:0:0:
256,192,62419,1,2,0:0:0:0:
256,192,62475,1,0,0:0:0:0:
256,192,62530,1,0,0:0:0:0:
256,192,62586,1,2,0:0:0:0:
256,192,62642,1,2,0:0:0:0:
256,192,62697,1,0,0:0:0:0:
256,192,62753,1,0,0:0:0:0:
256,192,62808,1,2,0:0:0:0:
256,192,62864,1,2,0:0:0:0:
256,192,62919,1,0,0:0:0:0:
256,192,62975,1,2,0:0:0:0:
256,192,63030,1,2,0:0:0:0:
256,192,63142,1,0,0:0:0:0:
256,192,63197,1,2,0:0:0:0:
256,192,63253,1,0,0:0:0:0:
256,192,63308,1,0,0:0:0:0:
256,192,63364,1,0,0:0:0:0:
256,192,63419,1,2,0:0:0:0:
256,192,63475,1,0,0:0:0:0:
256,192,63530,1,2,0:0:0:0:
256,192,63586,1,0,0:0:0:0:
256,192,63642,1,2,0:0:0:0:
256,192,63697,1,0,0:0:0:0:
256,192,63753,1,2,0:0:0:0:
256,192,63808,1,0,0:0:0:0:
256,192,63845,1,0,0:0:0:0:
256,192,63882,1,0,0:0:0:0:
256,192,63919,1,0,0:0:0:0:
256,192,63956,1,0,0:0:0:0:
256,192,63993,1,0,0:0:0:0:
256,192,64030,1,0,0:0:0:0:
