osu file format v13

[General]
AudioFilename: True Final Boss.mp3
AudioLeadIn: 0
PreviewTime: 48919
Countdown: 0
SampleSet: None
StackLeniency: 0.7
Mode: 0
LetterboxInBreaks: 1
WidescreenStoryboard: 1

[Editor]
Bookmarks: 7146,10701,14257,17812,21368,42701,53364
DistanceSpacing: 1
BeatDivisor: 1
GridSize: 4
TimelineZoom: 1

[Metadata]
Title:Tenshi
TitleUnicode:テンシ
Artist:Manabu Namiki
ArtistUnicode:並木 学
Creator:Snow Note
Version:Easy
Source:Do-Don-Pachi Saidaioujou
Tags:7odoa 怒首領蜂最大往生 MAXIMUM ORIGINAL SOUNDTRACK. 陽蜂 true boss 陰蜂 danmaku game CAVE Firce777
BeatmapID:314941
BeatmapSetID:120515

[Difficulty]
HPDrainRate:3
CircleSize:3
OverallDifficulty:3
ApproachRate:4
SliderMultiplier:0.500000005960464
SliderTickRate:2

[Events]
//Background and Video events
0,0,"BG.jpg",0,0
//Break Periods
//Storyboard Layer 0 (Background)
//Storyboard Layer 1 (Fail)
//Storyboard Layer 2 (Pass)
//Storyboard Layer 3 (Foreground)
//Storyboard Sound Samples
//Background Colour Transformations
3,100,163,162,255

[TimingPoints]
31,222.222222222222,4,1,0,55,1,0
6253,-100,4,2,0,70,0,0
7142,-83.3333333333333,4,1,0,70,0,0
20475,-100,4,2,0,70,0,0
21364,-83.3333333333333,4,1,0,70,0,0
48919,-83.3333333333333,4,2,0,70,0,0
49808,-76.9230769230769,4,1,0,70,0,1
63142,-76.9230769230769,4,2,0,70,0,1
64030,-100,4,1,0,55,0,0

[Colours]
Combo1 : 255,0,0
Combo2 : 0,255,0
Combo3 : 0,255,255

[HitObjects]
256,192,31,6,0,L|256:296,1,100.000001192093,4|0,0:0|0:0,0:0:0:0:
172,236,919,2,0,P|160:188|268:96,2,200.000002384186,2|2|6,0:0|0:0|0:0,0:0:0:0:
256,288,3142,1,0,0:0:0:0:
340,236,3586,6,0,P|400:188|504:236,2,200.000002384186,2|2|6,0:0|0:0|0:0,0:0:0:0:
340,336,5808,1,0,0:0:0:0:
340,336,6253,2,0,B|308:356|308:356|280:340|280:340|256:360|256:360|232:340|232:340|204:356|204:356|172:336,1,200.000002384186,0|6,0:0|0:0,0:0:0:0:
256,248,7586,5,0,0:0:0:0:
376,248,8030,2,0,P|396:200|380:132,1,119.999997768402,2|0,0:0|0:0,0:0:0:0:
316,36,8919,2,0,L|196:36,1,119.999997768402,2|0,0:0|0:0,0:0:0:0:
129,135,9808,2,0,P|115:192|136:248,1,119.999997768402,2|0,0:0|0:0,0:0:0:0:
256,228,10697,6,0,L|256:168,2,59.999998884201,2|8|0,0:0|0:0|0:0,0:0:0:0:
376,208,11586,2,0,L|436:208,2,59.999998884201,2|8|0,0:0|0:0|0:0,0:0:0:0:
316,312,12475,2,0,L|336:368,2,59.999998884201,2|8|0,0:0|0:0|0:0,0:0:0:0:
196,312,13364,2,0,L|176:368,2,59.999998884201,2|8|2,0:0|0:0|0:0,0:0:0:0:
256,208,14253,6,0,B|200:188|200:188|140:208,1,119.999997768402,2|0,0:0|0:0,0:0:0:0:
60,296,15142,1,2,0:0:0:0:
0,192,15586,1,0,0:0:0:0:
60,88,16030,2,0,B|100:88|100:88|132:72|132:72|188:72,1,119.999997768402,2|0,0:0|0:0,0:0:0:0:
256,160,16919,1,2,0:0:0:0:
140,192,17364,1,0,0:0:0:0:
220,280,17808,6,0,L|220:344,2,59.999998884201,2|8|0,0:0|0:0|0:0,0:0:0:0:
336,244,18697,2,0,L|336:308,2,59.999998884201,2|8|0,0:0|0:0|0:0,0:0:0:0:
452,208,19586,2,0,L|452:272,2,59.999998884201,2|8|0,0:0|0:0|0:0,0:0:0:0:
452,108,20475,2,0,P|452:92|312:72,1,200.000002384186,0|4,0:0|0:0,0:0:0:0:
256,168,21808,5,0,0:0:0:0:
340,252,22253,2,0,B|340:300|340:300|328:324|328:324|328:376,1,119.999997768402,0|0,0:0|0:0,0:0:0:0:
256,276,23142,1,0,0:0:0:0:
184,372,23586,1,0,0:0:0:0:
172,252,24030,2,0,B|172:192,1,59.999998884201,0|8,0:0|0:0,0:0:0:0:
212,144,24475,2,0,B|212:84,1,59.999998884201,0|8,0:0|0:0,0:0:0:0:
256,44,24919,6,0,B|288:68|288:68|380:68,1,119.999997768402,0|0,0:0|0:0,0:0:0:0:
480,28,25808,1,0,0:0:0:0:
460,148,26253,1,0,0:0:0:0:
508,260,26697,1,0,0:0:0:0:
488,380,27142,1,0,0:0:0:0:
140,228,28475,6,0,P|92:244|28:212,1,119.999997768402,4|0,0:0|0:0,0:0:0:0:
32,96,29364,2,0,L|56:32,2,59.999998884201,0|8|0,0:0|0:0|0:0,0:0:0:0:
144,140,30253,1,0,0:0:0:0:
256,100,30697,1,0,0:0:0:0:
368,140,31142,2,0,L|356:208,1,59.999998884201,0|8,0:0|0:0,0:0:0:0:
348,260,31586,2,0,L|360:328,1,59.999998884201,0|8,0:0|0:0,0:0:0:0:
372,376,32030,6,0,L|256:348,1,119.999997768402,4|0,0:0|0:0,0:0:0:0:
256,228,32919,2,0,L|256:168,2,59.999998884201,0|8|0,0:0|0:0|0:0,0:0:0:0:
256,348,33808,2,0,L|140:376,1,119.999997768402,0|0,0:0|0:0,0:0:0:0:
32,324,34697,2,0,B|20:264|20:264|140:232,1,179.999996652603,6|6,0:0|0:0,0:0:0:0:
134,233,35586,6,0,P|136:176|96:116,1,119.999997768402,4|0,0:0|0:0,0:0:0:0:
200,48,36475,1,0,0:0:0:0:
256,68,36697,1,8,0:0:0:0:
312,48,36919,1,0,0:0:0:0:
407,123,37364,2,0,P|376:174|377:233,1,119.999997768402,0|0,0:0|0:0,0:0:0:0:
460,320,38253,2,0,L|396:316,1,59.999998884201,0|10,0:0|0:0,0:0:0:0:
352,352,38697,2,0,L|288:348,1,59.999998884201,2|10,0:0|0:0,0:0:0:0:
236,328,39142,6,0,P|168:320|100:348,1,119.999997768402,4|0,0:0|0:0,0:0:0:0:
32,252,40030,1,0,0:0:0:0:
32,192,40253,1,8,0:0:0:0:
76,148,40475,1,0,0:0:0:0:
188,196,40919,2,0,P|256:204|324:176,1,119.999997768402,0|0,0:0|0:0,0:0:0:0:
416,20,42697,6,0,P|372:12|296:44,1,119.999997768402,4|0,0:0|0:0,0:0:0:0:
256,148,43586,1,0,0:0:0:0:
276,204,43808,1,8,0:0:0:0:
324,240,44030,1,0,0:0:0:0:
444,228,44475,2,0,L|432:356,1,119.999997768402,0|0,0:0|0:0,0:0:0:0:
312,348,45364,1,0,0:0:0:0:
256,328,45586,1,10,0:0:0:0:
200,348,45808,2,0,L|136:340,2,59.999998884201,2|10|4,0:0|0:0|0:0,0:0:0:0:
212,228,46697,5,0,0:0:0:0:
328,256,47142,2,0,L|340:128,1,119.999997768402,0|0,0:0|0:0,0:0:0:0:
256,52,48030,2,0,L|256:112,2,59.999998884201,0|8|0,0:0|0:0|0:0,0:0:0:0:
356,360,49808,6,0,P|424:368|460:324,1,129.999995598793,4|0,0:0|0:0,0:0:0:0:
372,228,50697,1,0,0:0:0:0:
256,288,51142,1,0,0:0:0:0:
140,228,51586,2,0,L|108:92,1,129.999995598793,0|0,0:0|0:0,0:0:0:0:
228,44,52475,2,0,L|248:120,1,64.9999977993966,0|8,0:0|0:0,0:0:0:0:
220,168,52919,2,0,L|295:188,1,64.9999977993966,0|8,0:0|0:0,0:0:0:0:
348,196,53364,5,4,0:0:0:0:
468,148,53808,1,0,0:0:0:0:
388,48,54253,1,0,0:0:0:0:
328,76,54475,1,8,0:0:0:0:
384,112,54697,1,0,0:0:0:0:
440,232,55142,2,0,B|452:300|452:300|424:368,1,129.999995598793,0|0,0:0|0:0,0:0:0:0:
300,380,56030,2,0,L|228:372,1,64.9999977993966,0|8,0:0|0:0,0:0:0:0:
180,340,56475,2,0,L|108:332,1,64.9999977993966,0|8,0:0|0:0,0:0:0:0:
56,304,56919,5,4,0:0:0:0:
116,188,57364,1,0,0:0:0:0:
224,260,57808,2,0,L|296:252,1,64.9999977993966,0|8,0:0|0:0,0:0:0:0:
352,240,58253,1,0,0:0:0:0:
456,164,58697,1,4,0:0:0:0:
396,48,59142,1,0,0:0:0:0:
288,120,59586,2,0,L|216:112,1,64.9999977993966,0|8,0:0|0:0,0:0:0:0:
160,100,60030,1,0,0:0:0:0:
196,224,60475,6,0,L|268:216,1,64.9999977993966,4|8,0:0|0:0,0:0:0:0:
324,208,60919,1,0,0:0:0:0:
292,336,61364,2,0,L|220:328,1,64.9999977993966,4|8,0:0|0:0,0:0:0:0:
164,320,61808,1,0,0:0:0:0:
40,279,62253,5,4,0:0:0:0:
25,217,62475,1,12,0:0:0:0:
32,152,62697,1,0,0:0:0:0:
68,98,62919,1,12,0:0:0:0:
126,68,63142,2,0,P|192:61|272:160,1,194.99999339819,4|0,0:0|0:0,0:0:0:0:
