osu file format v14

[General]
AudioFilename: True Final Boss.mp3
AudioLeadIn: 0
PreviewTime: 48919
Countdown: 0
SampleSet: Normal
StackLeniency: 0.7
Mode: 0
LetterboxInBreaks: 1
WidescreenStoryboard: 1

[Editor]
Bookmarks: 7146,10701,14257,17812,21368,42701,53364
DistanceSpacing: 1
BeatDivisor: 4
GridSize: 4
TimelineZoom: 5.199998

[Metadata]
Title:Tenshi
TitleUnicode:テンシ
Artist:Manabu Namiki
ArtistUnicode:並木 学
Creator:Snow Note
Version:Inbachi
Source:Do-Don-Pachi Saidaioujou
Tags:7odoa 怒首領蜂最大往生 MAXIMUM ORIGINAL SOUNDTRACK. 陽蜂 true boss 陰蜂 danmaku game CAVE Firce777
BeatmapID:308917
BeatmapSetID:120515

[Difficulty]
HPDrainRate:5
CircleSize:4
OverallDifficulty:9.8
ApproachRate:10
SliderMultiplier:2.2
SliderTickRate:2

[Events]
//Background and Video events
0,0,"BG.jpg",0,0
//Break Periods
//Storyboard Layer 0 (Background)
//Storyboard Layer 1 (Fail)
//Storyboard Layer 2 (Pass)
//Storyboard Layer 3 (Foreground)
//Storyboard Sound Samples

[TimingPoints]
31,222.222222222222,4,1,0,55,1,0
6253,-100,4,2,0,70,0,0
7142,-83.3333333333333,4,1,0,70,0,0
20475,-100,4,2,0,70,0,0
21364,-83.3333333333333,4,1,0,70,0,0
27586,-83.3333333333333,4,2,0,70,0,0
28475,-83.3333333333333,4,1,0,70,0,0
41808,-83.3333333333333,4,2,0,70,0,0
42697,-83.3333333333333,4,1,0,70,0,0
48919,-83.3333333333333,4,2,0,70,0,0
49808,-76.9230769230769,4,1,0,70,0,1
63142,-76.9230769230769,4,2,0,70,0,1
64030,-100,4,1,0,55,0,0

[Colours]
Combo1 : 255,0,0
Combo2 : 0,255,0
Combo3 : 0,255,255

[HitObjects]
320,328,31,6,0,P|384:336|472:220,1,220,4|0,0:0|0:0,0:0:0:0:
256,144,364,1,2,0:0:0:0:
192,328,475,2,0,P|128:336|40:220,1,220
256,144,808,1,0,0:0:0:0:
256,252,919,5,2,0:0:0:0:
164,192,1030,1,0,0:0:0:0:
348,112,1142,1,0,0:0:0:0:
256,44,1253,2,0,P|216:32|88:144,1,220,2|0,0:0|0:0,0:0:0:0:
424,144,1586,2,0,P|452:100|444:40,1,110
256,144,1808,5,2,0:0:0:0:
348,252,1919,1,0,0:0:0:0:
376,76,2030,1,0,0:0:0:0:
348,252,2142,2,0,L|364:368,1,110,2|0,0:0|0:0,0:0:0:0:
492,296,2364,1,0,0:0:0:0:
284,184,2475,2,0,P|254:229|263:290,1,110
436,248,2697,6,0,P|472:192|432:52,1,220,6|0,0:0|0:0,0:0:0:0:
76,136,3030,2,0,P|40:192|80:332,1,220,6|0,0:0|0:0,0:0:0:0:
296,260,3364,1,0,0:0:0:0:
248,144,3475,1,0,0:0:0:0:
180,244,3586,6,0,L|164:364,1,110,2|0,0:0|0:0,0:0:0:0:
344,356,3808,1,0,0:0:0:0:
312,192,3919,1,2,0:0:0:0:
165,353,4030,2,0,P|96:336|60:200,1,220
200,120,4364,1,0,0:0:0:0:
288,244,4475,5,2,0:0:0:0:
112,128,4586,1,0,0:0:0:0:
220,0,4697,1,0,0:0:0:0:
180,244,4808,2,0,P|188:308|336:360,1,220,2|0,0:0|0:0,0:0:0:0:
412,256,5142,1,0,0:0:0:0:
256,192,5253,1,0,0:0:0:0:
332,36,5364,6,4,P|368:12|512:120,1,220,6|0,0:0|0:0,0:0:0:0:
180,348,5697,2,0,P|144:372|0:264,1,220,6|0,0:0|0:0,0:0:0:0:
256,192,6030,2,0,B|272:236|272:236|256:312,1,110
64,192,6253,5,0,0:0:0:0:
32,171,6308,1,0,0:0:0:0:
17,135,6364,1,0,0:0:0:0:
21,97,6419,1,0,0:0:0:0:
46,68,6475,1,0,0:0:0:0:
83,57,6530,1,0,0:0:0:0:
119,67,6586,1,0,0:0:0:0:
150,89,6642,1,0,0:0:0:0:
188,88,6697,6,0,L|241:77,1,55
312,144,6808,2,0,L|259:155,1,55
380,100,6919,2,0,L|433:89,3,55,2|2|2|2,0:0|0:0|0:0|0:0,0:0:0:0:
472,56,7142,6,0,P|496:128|476:184,1,131.99999597168,6|0,0:0|0:0,0:0:0:0:
256,192,7364,1,8,0:0:0:0:
392,352,7475,1,2,0:0:0:0:
392,352,7530,1,0,0:0:0:0:
392,352,7586,2,0,B|428:296|428:296|420:228,1,131.99999597168,0|0,0:0|0:0,0:0:0:0:
320,48,7808,1,10,0:0:0:0:
192,336,7919,1,0,0:0:0:0:
496,184,8030,6,0,P|464:140|384:136,1,131.99999597168,2|0,0:0|0:0,0:0:0:0:
124,208,8253,1,8,0:0:0:0:
332,316,8364,1,2,0:0:0:0:
332,316,8419,1,0,0:0:0:0:
332,316,8475,2,0,P|381:338|452:301,1,131.99999597168,0|0,0:0|0:0,0:0:0:0:
180,68,8697,1,10,0:0:0:0:
192,336,8808,1,0,0:0:0:0:
344,172,8919,6,0,P|352:120|320:48,1,131.99999597168,2|0,0:0|0:0,0:0:0:0:
32,80,9142,1,8,0:0:0:0:
168,264,9253,1,2,0:0:0:0:
168,264,9308,1,0,0:0:0:0:
168,264,9364,2,0,P|220:280|296:248,1,131.99999597168
444,148,9586,1,10,0:0:0:0:
224,72,9697,1,0,0:0:0:0:
332,344,9808,6,0,L|472:364,1,131.99999597168,2|0,0:0|0:0,0:0:0:0:
372,92,10030,1,8,0:0:0:0:
180,344,10142,1,2,0:0:0:0:
180,344,10197,1,0,0:0:0:0:
180,344,10253,2,0,L|40:364,1,131.99999597168
140,92,10475,1,10,0:0:0:0:
432,192,10586,5,0,0:0:0:0:
432,192,10642,1,0,0:0:0:0:
432,192,10697,2,0,P|440:315|428:328,1,131.99999597168,2|0,0:0|0:0,0:0:0:0:
441,313,10919,1,8,0:0:0:0:
80,192,11030,1,2,0:0:0:0:
80,192,11086,1,0,0:0:0:0:
80,192,11142,2,0,P|72:69|84:56,1,131.99999597168
70,70,11364,1,10,0:0:0:0:
256,280,11475,5,0,0:0:0:0:
256,280,11531,1,0,0:0:0:0:
256,280,11586,2,0,P|224:332|148:356,1,131.99999597168,2|0,0:0|0:0,0:0:0:0:
32,320,11808,1,8,0:0:0:0:
332,147,11919,1,2,0:0:0:0:
332,147,11975,1,0,0:0:0:0:
332,147,12030,2,0,P|377:187|388:266,1,131.99999597168
332,374,12252,1,10,0:0:0:0:
196,136,12364,5,0,0:0:0:0:
196,136,12419,1,0,0:0:0:0:
196,136,12475,2,0,L|180:4,1,131.99999597168,2|0,0:0|0:0,0:0:0:0:
404,64,12697,1,8,0:0:0:0:
252,256,12808,1,2,0:0:0:0:
252,256,12864,1,0,0:0:0:0:
252,256,12919,2,0,L|116:276,1,131.99999597168
48,84,13142,1,10,0:0:0:0:
404,192,13253,5,0,0:0:0:0:
404,192,13308,1,0,0:0:0:0:
404,192,13364,2,0,B|415:255|415:255|390:320,1,131.99999597168,2|0,0:0|0:0,0:0:0:0:
176,192,13586,1,8,0:0:0:0:
336,40,13697,1,0,0:0:0:0:
336,40,13753,1,0,0:0:0:0:
336,40,13808,2,0,L|472:60,1,131.99999597168,2|0,0:0|0:0,0:0:0:0:
320,256,14030,1,8,0:0:0:0:
192,128,14142,1,0,0:0:0:0:
256,328,14253,6,0,B|304:360|304:360|380:360,1,131.99999597168,2|0,0:0|0:0,0:0:0:0:
484,244,14475,1,8,0:0:0:0:
380,124,14586,1,2,0:0:0:0:
380,124,14642,1,0,0:0:0:0:
380,124,14697,1,0,0:0:0:0:
332,276,14808,1,0,0:0:0:0:
504,144,14919,1,10,0:0:0:0:
328,8,15030,1,0,0:0:0:0:
256,328,15142,6,0,B|208:360|208:360|132:360,1,131.99999597168,2|0,0:0|0:0,0:0:0:0:
28,244,15364,1,8,0:0:0:0:
132,124,15475,1,2,0:0:0:0:
132,124,15530,1,0,0:0:0:0:
132,124,15586,1,0,0:0:0:0:
180,276,15697,1,0,0:0:0:0:
8,144,15808,1,10,0:0:0:0:
184,8,15919,1,0,0:0:0:0:
256,196,16030,5,2,0:0:0:0:
132,124,16142,1,0,0:0:0:0:
380,124,16253,1,8,0:0:0:0:
256,316,16364,1,2,0:0:0:0:
256,316,16419,1,0,0:0:0:0:
256,316,16475,2,0,B|216:352|216:352|132:352,1,131.99999597168
256,68,16697,2,0,B|296:32|296:32|380:32,1,131.99999597168,10|0,0:0|0:0,0:0:0:0:
496,192,16919,5,2,0:0:0:0:
164,248,17030,2,0,P|108:214|87:152,1,131.99999597168,0|8,0:0|0:0,0:0:0:0:
380,260,17253,1,2,0:0:0:0:
380,260,17308,1,0,0:0:0:0:
380,260,17364,2,0,P|378:324|335:373,1,131.99999597168
256,200,17586,1,10,0:0:0:0:
460,188,17697,5,0,0:0:0:0:
460,188,17753,1,0,0:0:0:0:
460,188,17808,2,0,L|476:328,1,131.99999597168,2|0,0:0|0:0,0:0:0:0:
260,384,18030,1,8,0:0:0:0:
340,224,18142,1,2,0:0:0:0:
340,224,18198,1,0,0:0:0:0:
340,224,18253,2,0,L|356:84,1,131.99999597168
140,28,18475,1,10,0:0:0:0:
52,188,18586,5,0,0:0:0:0:
52,188,18642,1,0,0:0:0:0:
52,188,18697,2,0,L|36:328,1,131.99999597168,2|0,0:0|0:0,0:0:0:0:
252,384,18919,1,8,0:0:0:0:
172,224,19031,1,2,0:0:0:0:
172,224,19087,1,0,0:0:0:0:
172,224,19142,2,0,L|156:84,1,131.99999597168
372,28,19364,1,10,0:0:0:0:
276,244,19475,5,0,0:0:0:0:
276,244,19530,1,0,0:0:0:0:
276,244,19586,2,0,P|283:304|328:370,1,131.99999597168,2|0,0:0|0:0,0:0:0:0:
380,144,19808,1,8,0:0:0:0:
224,30,19919,1,2,0:0:0:0:
224,30,19975,1,0,0:0:0:0:
224,30,20030,2,0,P|165:15|87:34,1,131.99999597168
411,245,20253,2,0,P|454:201|475:125,1,131.99999597168,10|0,0:0|0:0,0:0:0:0:
176,112,20475,6,0,L|100:108,2,73.3333333333333
192,192,20697,2,0,L|116:188,2,73.3333333333333
212,272,20919,2,0,L|136:268,2,73.3333333333333
228,352,21141,2,0,L|152:348,2,73.3333333333333,0|0|0,0:0|0:0|0:0,0:0:0:0:
312,356,21364,5,4,0:0:0:0:
440,192,21475,1,0,0:0:0:0:
428,376,21586,1,8,0:0:0:0:
324,208,21697,1,0,0:0:0:0:
172,324,21808,2,0,B|112:336|112:336|32:308,1,131.99999597168
340,60,22030,2,0,B|400:48|400:48|480:76,1,131.99999597168,8|0,0:0|0:0,0:0:0:0:
204,112,22253,5,0,0:0:0:0:
256,20,22364,1,0,0:0:0:0:
176,244,22475,1,8,0:0:0:0:
84,192,22586,1,0,0:0:0:0:
308,272,22697,1,0,0:0:0:0:
256,364,22808,1,0,0:0:0:0:
336,140,22919,1,8,0:0:0:0:
428,192,23030,1,0,0:0:0:0:
176,244,23142,6,0,L|152:112,1,131.99999597168
336,140,23364,2,0,L|360:272,1,131.99999597168,8|0,0:0|0:0,0:0:0:0:
204,112,23586,1,0,0:0:0:0:
256,20,23697,1,0,0:0:0:0:
308,272,23808,1,8,0:0:0:0:
256,364,23919,1,0,0:0:0:0:
163,319,24030,5,0,0:0:0:0:
383,284,24142,1,0,0:0:0:0:
128,99,24253,1,8,0:0:0:0:
348,64,24364,1,0,0:0:0:0:
104,192,24475,5,0,0:0:0:0:
256,40,24586,1,0,0:0:0:0:
408,192,24697,2,0,P|368:248|308:248,1,131.99999597168,8|0,0:0|0:0,0:0:0:0:
276,240,24864,1,0,0:0:0:0:
244,236,24919,6,0,P|200:228|112:272,1,131.99999597168
368,352,25142,2,0,P|412:360|500:316,1,131.99999597168,8|0,0:0|0:0,0:0:0:0:
144,32,25364,2,0,P|100:24|12:68,1,131.99999597168
236,148,25586,2,0,P|280:156|368:112,1,131.99999597168,8|0,0:0|0:0,0:0:0:0:
128,128,25808,5,0,0:0:0:0:
128,128,25919,1,0,0:0:0:0:
192,320,26030,1,8,0:0:0:0:
192,320,26142,1,0,0:0:0:0:
384,256,26253,1,0,0:0:0:0:
384,256,26364,1,0,0:0:0:0:
320,64,26475,1,8,0:0:0:0:
320,64,26586,1,0,0:0:0:0:
192,320,26697,6,0,L|336:320,1,131.99999597168
320,64,26919,2,0,L|176:64,1,131.99999597168,8|0,0:0|0:0,0:0:0:0:
284,368,27142,2,0,L|428:368,1,131.99999597168
228,16,27364,2,0,L|84:16,1,131.99999597168,8|0,0:0|0:0,0:0:0:0:
68,196,27586,5,0,0:0:0:0:
68,196,27697,1,2,0:0:0:0:
212,128,27919,1,2,0:0:0:0:
300,256,28141,1,2,0:0:0:0:
444,196,28364,1,2,0:0:0:0:
444,196,28475,6,0,P|476:128|452:60,1,131.99999597168,4|0,0:0|0:0,0:0:0:0:
324,120,28697,1,8,0:0:0:0:
348,312,28808,1,0,0:0:0:0:
68,196,28919,2,0,P|36:128|60:60,1,131.99999597168
188,120,29142,1,8,0:0:0:0:
164,312,29253,1,0,0:0:0:0:
0,264,29364,5,0,0:0:0:0:
0,264,29475,1,0,0:0:0:0:
168,32,29586,1,8,0:0:0:0:
168,32,29697,1,0,0:0:0:0:
344,352,29808,1,0,0:0:0:0:
344,352,29919,1,0,0:0:0:0:
512,120,30030,1,8,0:0:0:0:
512,120,30142,1,0,0:0:0:0:
256,192,30253,6,0,L|256:328,1,131.99999597168
396,244,30475,1,8,0:0:0:0:
256,64,30586,1,0,0:0:0:0:
108,244,30697,2,0,L|128:380,1,131.99999597168
336,144,30919,1,8,0:0:0:0:
176,144,31030,1,0,0:0:0:0:
352,328,31142,5,0,0:0:0:0:
436,68,31253,1,0,0:0:0:0:
76,68,31364,1,8,0:0:0:0:
160,336,31475,1,0,0:0:0:0:
352,336,31586,5,0,0:0:0:0:
256,28,31697,1,0,0:0:0:0:
160,336,31808,2,0,P|103:368|43:338,1,131.99999597168,8|0,0:0|0:0,0:0:0:0:
32,312,31975,1,0,0:0:0:0:
32,312,32030,6,0,P|20:244|48:168,1,131.99999597168,4|0,0:0|0:0,0:0:0:0:
480,72,32253,2,0,P|492:140|464:216,1,131.99999597168,8|0,0:0|0:0,0:0:0:0:
124,256,32475,1,0,0:0:0:0:
256,28,32586,1,0,0:0:0:0:
388,256,32697,2,0,B|324:272|324:272|256:260,1,131.99999597168,8|0,0:0|0:0,0:0:0:0:
300,132,32919,5,0,0:0:0:0:
404,152,33030,1,0,0:0:0:0:
196,148,33142,1,8,0:0:0:0:
216,44,33253,1,0,0:0:0:0:
212,252,33364,1,0,0:0:0:0:
108,232,33475,1,0,0:0:0:0:
316,236,33586,1,8,0:0:0:0:
296,340,33697,1,0,0:0:0:0:
308,136,33808,5,0,0:0:0:0:
308,136,33919,1,0,0:0:0:0:
200,140,34030,1,8,0:0:0:0:
200,140,34142,1,0,0:0:0:0:
204,248,34253,1,0,0:0:0:0:
204,248,34364,1,0,0:0:0:0:
312,244,34475,1,8,0:0:0:0:
312,244,34586,1,0,0:0:0:0:
460,192,34697,5,6,0:0:0:0:
52,192,34808,1,2,0:0:0:0:
352,36,34919,1,2,0:0:0:0:
160,348,35030,1,2,0:0:0:0:
160,36,35142,5,0,0:0:0:0:
256,308,35253,1,0,0:0:0:0:
352,36,35364,1,6,0:0:0:0:
352,36,35586,6,0,L|376:188,1,131.99999597168,4|0,0:0|0:0,0:0:0:0:
476,84,35808,1,8,0:0:0:0:
256,76,35919,1,0,0:0:0:0:
296,212,36030,1,0,0:0:0:0:
264,216,36086,1,0,0:0:0:0:
232,220,36142,1,0,0:0:0:0:
120,136,36253,1,8,0:0:0:0:
124,104,36308,1,0,0:0:0:0:
128,72,36364,1,0,0:0:0:0:
152,288,36475,6,0,L|12:316,1,131.99999597168
232,372,36697,1,8,0:0:0:0:
264,140,36808,1,0,0:0:0:0:
348,328,36919,1,0,0:0:0:0:
380,332,36975,1,0,0:0:0:0:
412,336,37030,1,0,0:0:0:0:
472,184,37142,1,8,0:0:0:0:
440,180,37197,1,0,0:0:0:0:
408,176,37253,1,0,0:0:0:0:
256,76,37364,6,0,P|304:40|380:48,1,131.99999597168
256,248,37586,1,8,0:0:0:0:
124,128,37697,1,0,0:0:0:0:
256,248,37808,1,0,0:0:0:0:
288,244,37864,1,0,0:0:0:0:
320,240,37919,1,0,0:0:0:0:
136,240,38030,1,8,0:0:0:0:
128,272,38086,1,0,0:0:0:0:
120,304,38142,1,0,0:0:0:0:
336,136,38253,5,0,0:0:0:0:
176,48,38364,1,2,0:0:0:0:
176,48,38419,1,0,0:0:0:0:
176,48,38475,1,10,0:0:0:0:
220,344,38586,1,0,0:0:0:0:
256,76,38697,5,2,0:0:0:0:
56,232,38808,1,0,0:0:0:0:
312,288,38919,1,10,0:0:0:0:
76,136,39030,1,0,0:0:0:0:
220,344,39142,6,0,P|160:368|88:348,1,131.99999597168,4|0,0:0|0:0,0:0:0:0:
256,192,39364,1,8,0:0:0:0:
324,384,39475,1,0,0:0:0:0:
156,280,39586,1,0,0:0:0:0:
164,248,39642,1,0,0:0:0:0:
172,216,39697,1,0,0:0:0:0:
356,104,39808,1,8,0:0:0:0:
348,136,39864,1,0,0:0:0:0:
340,168,39919,1,0,0:0:0:0:
196,88,40030,5,0,0:0:0:0:
316,296,40142,1,0,0:0:0:0:
156,280,40253,1,8,0:0:0:0:
356,104,40364,1,0,0:0:0:0:
256,192,40475,1,0,0:0:0:0:
216,192,40530,1,0,0:0:0:0:
176,192,40586,1,0,0:0:0:0:
304,0,40697,1,8,0:0:0:0:
344,0,40753,1,0,0:0:0:0:
384,0,40808,1,0,0:0:0:0:
432,224,40919,6,0,L|408:372,1,131.99999597168
304,276,41142,1,8,0:0:0:0:
512,176,41253,1,0,0:0:0:0:
276,88,41364,1,0,0:0:0:0:
236,80,41419,1,0,0:0:0:0:
196,92,41475,1,0,0:0:0:0:
96,296,41586,1,8,0:0:0:0:
140,304,41642,1,0,0:0:0:0:
184,288,41697,1,0,0:0:0:0:
128,24,41808,5,0,0:0:0:0:
128,24,41919,1,2,0:0:0:0:
76,128,42142,1,2,0:0:0:0:
140,224,42364,1,2,0:0:0:0:
256,228,42586,1,2,0:0:0:0:
256,228,42697,6,0,L|392:216,1,131.99999597168,4|0,0:0|0:0,0:0:0:0:
496,124,42919,1,8,0:0:0:0:
440,328,43030,1,0,0:0:0:0:
332,144,43142,1,0,0:0:0:0:
336,104,43197,1,0,0:0:0:0:
340,64,43253,1,0,0:0:0:0:
256,268,43364,1,8,0:0:0:0:
260,308,43419,1,0,0:0:0:0:
264,348,43475,1,0,0:0:0:0:
392,232,43586,5,0,0:0:0:0:
216,96,43697,1,0,0:0:0:0:
164,308,43808,1,8,0:0:0:0:
216,96,43919,1,0,0:0:0:0:
56,224,44030,1,0,0:0:0:0:
88,220,44086,1,0,0:0:0:0:
120,216,44142,1,0,0:0:0:0:
76,52,44253,1,8,0:0:0:0:
44,48,44308,1,0,0:0:0:0:
12,44,44364,1,0,0:0:0:0:
0,332,44475,6,0,P|56:380|120:376,1,131.99999597168
256,268,44697,1,8,0:0:0:0:
120,108,44808,1,0,0:0:0:0:
84,296,44919,1,0,0:0:0:0:
124,300,44975,1,0,0:0:0:0:
162,304,45030,1,0,0:0:0:0:
352,144,45142,1,8,0:0:0:0:
312,140,45198,1,0,0:0:0:0:
274,136,45253,1,0,0:0:0:0:
272,360,45364,5,0,0:0:0:0:
188,180,45475,1,2,0:0:0:0:
188,180,45530,1,0,0:0:0:0:
188,180,45586,1,10,0:0:0:0:
8,236,45697,1,0,0:0:0:0:
384,192,45808,5,2,0:0:0:0:
88,116,45919,1,0,0:0:0:0:
200,336,46030,1,10,0:0:0:0:
312,48,46142,1,0,0:0:0:0:
88,232,46253,6,0,L|112:368,1,131.99999597168,4|0,0:0|0:0,0:0:0:0:
256,268,46475,1,8,0:0:0:0:
156,84,46586,1,0,0:0:0:0:
8,184,46697,1,0,0:0:0:0:
12,144,46753,1,0,0:0:0:0:
16,104,46808,1,0,0:0:0:0:
176,264,46919,1,8,0:0:0:0:
184,304,46975,1,0,0:0:0:0:
192,344,47030,1,0,0:0:0:0:
256,112,47142,6,0,B|200:84|200:84|108:92,1,131.99999597168
256,268,47364,1,8,0:0:0:0:
452,192,47475,1,0,0:0:0:0:
364,52,47586,1,0,0:0:0:0:
356,92,47642,1,0,0:0:0:0:
348,132,47697,1,0,0:0:0:0:
149,170,47808,1,8,0:0:0:0:
141,130,47864,1,0,0:0:0:0:
133,90,47919,1,0,0:0:0:0:
256,268,48030,6,0,L|396:252,1,131.99999597168
256,112,48253,1,8,0:0:0:0:
104,360,48364,1,0,0:0:0:0:
56,148,48475,1,0,0:0:0:0:
48,108,48530,1,0,0:0:0:0:
40,68,48586,1,0,0:0:0:0:
180,200,48697,1,8,0:0:0:0:
172,240,48753,1,0,0:0:0:0:
164,280,48808,1,0,0:0:0:0:
380,80,49030,5,0,0:0:0:0:
380,80,49086,2,0,P|452:32|496:44,1,131.99999597168
492,41,49253,2,0,L|480:179,1,131.99999597168,2|0,0:0|0:0,0:0:0:0:
412,315,49475,2,0,L|340:303,1,65.9999979858399
172,264,49697,1,2,0:0:0:0:
160,262,49753,1,0,0:0:0:0:
148,260,49808,5,4,0:0:0:0:
364,124,49919,1,0,0:0:0:0:
276,344,50030,1,8,0:0:0:0:
236,40,50142,1,0,0:0:0:0:
512,216,50253,5,0,0:0:0:0:
256,192,50364,1,0,0:0:0:0:
440,44,50475,1,8,0:0:0:0:
472,340,50586,1,0,0:0:0:0:
124,357,50697,6,0,P|61:337|34:263,1,142.99999345398
440,44,50919,2,0,P|480:96|460:172,1,142.99999345398,8|0,0:0|0:0,0:0:0:0:
144,128,51142,5,0,0:0:0:0:
368,128,51253,1,0,0:0:0:0:
256,280,51364,1,8,0:0:0:0:
256,20,51475,1,0,0:0:0:0:
328,228,51586,5,0,0:0:0:0:
128,100,51697,1,0,0:0:0:0:
416,152,51808,1,8,0:0:0:0:
140,232,51919,1,0,0:0:0:0:
336,16,52030,5,0,0:0:0:0:
308,384,52142,1,0,0:0:0:0:
32,240,52253,2,0,L|44:80,1,142.99999345398,8|0,0:0|0:0,0:0:0:0:
340,80,52475,5,0,0:0:0:0:
256,320,52586,1,0,0:0:0:0:
176,76,52697,1,8,0:0:0:0:
368,256,52808,1,0,0:0:0:0:
52,188,52919,5,0,0:0:0:0:
460,188,53030,1,0,0:0:0:0:
176,76,53142,2,0,P|140:136|248:188,1,214.49999018097,8|0,0:0|0:0,0:0:0:0:
252,104,53364,6,0,P|248:32|184:0,1,142.99999345398,4|0,0:0|0:0,0:0:0:0:
8,284,53586,2,0,P|56:336|136:336,1,142.99999345398,8|0,0:0|0:0,0:0:0:0:
504,100,53808,2,0,P|456:48|376:48,1,142.99999345398
260,280,54030,2,0,P|264:352|328:384,1,142.99999345398,8|0,0:0|0:0,0:0:0:0:
412,112,54253,5,0,0:0:0:0:
152,328,54364,1,0,0:0:0:0:
100,112,54475,1,8,0:0:0:0:
360,328,54586,1,0,0:0:0:0:
308,24,54697,5,0,0:0:0:0:
208,248,54808,1,0,0:0:0:0:
204,24,54919,1,8,0:0:0:0:
304,248,55030,1,0,0:0:0:0:
451,24,55142,6,0,L|308:24,1,142.99999345398
308,360,55364,2,0,L|451:360,1,142.99999345398,8|0,0:0|0:0,0:0:0:0:
204,24,55586,2,0,L|61:24,1,142.99999345398
61,360,55808,2,0,L|204:360,1,142.99999345398,8|0,0:0|0:0,0:0:0:0:
408,252,56030,5,0,0:0:0:0:
88,164,56142,1,0,0:0:0:0:
304,360,56253,1,8,0:0:0:0:
360,32,56364,1,0,0:0:0:0:
184,296,56475,5,0,0:0:0:0:
472,192,56586,1,0,0:0:0:0:
256,16,56697,2,0,P|204:24|212:168,1,214.49999018097,8|0,0:0|0:0,0:0:0:0:
308,208,56919,5,4,0:0:0:0:
344,212,56975,1,0,0:0:0:0:
380,216,57030,1,0,0:0:0:0:
312,88,57142,1,8,0:0:0:0:
276,92,57197,1,0,0:0:0:0:
240,96,57253,1,0,0:0:0:0:
200,296,57364,1,0,0:0:0:0:
236,292,57419,1,0,0:0:0:0:
272,288,57475,1,0,0:0:0:0:
204,176,57586,1,8,0:0:0:0:
168,172,57642,1,0,0:0:0:0:
132,168,57697,1,0,0:0:0:0:
32,252,57808,5,0,0:0:0:0:
32,252,57864,1,0,0:0:0:0:
32,252,57919,1,0,0:0:0:0:
384,304,58030,1,8,0:0:0:0:
384,304,58086,1,0,0:0:0:0:
384,304,58142,1,0,0:0:0:0:
256,20,58253,5,0,0:0:0:0:
220,376,58364,1,0,0:0:0:0:
456,112,58475,1,8,0:0:0:0:
48,192,58586,1,0,0:0:0:0:
188,288,58697,5,4,0:0:0:0:
224,296,58753,1,0,0:0:0:0:
260,304,58808,1,0,0:0:0:0:
216,168,58919,1,8,0:0:0:0:
180,160,58975,1,0,0:0:0:0:
144,152,59030,1,0,0:0:0:0:
296,216,59142,1,0,0:0:0:0:
332,224,59197,1,0,0:0:0:0:
368,232,59253,1,0,0:0:0:0:
324,96,59364,1,8,0:0:0:0:
288,88,59419,1,0,0:0:0:0:
252,80,59475,1,0,0:0:0:0:
135,56,59586,5,0,0:0:0:0:
120,312,59697,1,0,0:0:0:0:
376,327,59808,1,8,0:0:0:0:
391,71,59919,1,0,0:0:0:0:
74,131,60030,5,0,0:0:0:0:
196,374,60142,1,0,0:0:0:0:
439,252,60253,2,0,P|448:216|316:176,1,214.49999018097,8|0,0:0|0:0,0:0:0:0:
312,252,60475,5,4,0:0:0:0:
316,284,60530,1,0,0:0:0:0:
320,316,60586,1,0,0:0:0:0:
212,232,60697,1,8,0:0:0:0:
216,264,60753,1,0,0:0:0:0:
220,296,60808,1,0,0:0:0:0:
108,216,60919,1,0,0:0:0:0:
112,248,60975,1,0,0:0:0:0:
116,280,61030,1,0,0:0:0:0:
8,196,61142,1,8,0:0:0:0:
12,228,61197,1,0,0:0:0:0:
16,260,61253,1,0,0:0:0:0:
200,132,61364,5,4,0:0:0:0:
196,100,61419,1,0,0:0:0:0:
192,68,61475,1,0,0:0:0:0:
300,152,61586,1,8,0:0:0:0:
296,120,61642,1,0,0:0:0:0:
292,88,61697,1,0,0:0:0:0:
404,168,61808,1,0,0:0:0:0:
400,136,61864,1,0,0:0:0:0:
396,104,61919,1,0,0:0:0:0:
504,188,62030,1,8,0:0:0:0:
500,156,62086,1,0,0:0:0:0:
496,124,62142,1,0,0:0:0:0:
440,280,62253,5,6,0:0:0:0:
440,280,62308,1,0,0:0:0:0:
440,280,62364,1,0,0:0:0:0:
136,376,62475,1,14,0:0:0:0:
136,376,62530,1,0,0:0:0:0:
136,376,62586,1,0,0:0:0:0:
72,64,62697,5,2,0:0:0:0:
344,320,62808,1,2,0:0:0:0:
32,204,62919,1,14,0:0:0:0:
200,24,63030,1,0,0:0:0:0:
420,188,63142,6,0,L|400:256,1,71.4999967269899,6|0,0:0|0:0,0:0:0:0:
168,280,63253,2,0,L|148:212,1,71.4999967269899,2|0,0:0|0:0,0:0:0:0:
344,104,63364,2,0,L|364:172,1,71.4999967269899,2|0,0:0|0:0,0:0:0:0:
92,196,63475,2,0,L|112:128,1,71.4999967269899,2|0,0:0|0:0,0:0:0:0:
299,261,63586,2,0,L|228:248,1,71.4999967269899,2|0,0:0|0:0,0:0:0:0:
213,123,63697,2,0,L|284:136,1,71.4999967269899,2|0,0:0|0:0,0:0:0:0:
299,261,63808,2,2,L|278:324,7,35.749998363495
