osu file format v13

[General]
AudioFilename: True Final Boss.mp3
AudioLeadIn: 0
PreviewTime: 48919
Countdown: 0
SampleSet: None
StackLeniency: 0.7
Mode: 1
LetterboxInBreaks: 0
WidescreenStoryboard: 1

[Editor]
Bookmarks: 7146,10701,14257,17812,21368,42701,53364
DistanceSpacing: 0.6
BeatDivisor: 4
GridSize: 32
TimelineZoom: 1

[Metadata]
Title:Tenshi
TitleUnicode:テンシ
Artist:Manabu Namiki
ArtistUnicode:並木 学
Creator:Snow Note
Version:Firce777's Oni
Source:Do-Don-Pachi Saidaioujou
Tags:7odoa 怒首領蜂最大往生 MAXIMUM ORIGINAL SOUNDTRACK. 陽蜂 true boss 陰蜂 danmaku game CAVE Firce777
BeatmapID:328120
BeatmapSetID:120515

[Difficulty]
HPDrainRate:6
CircleSize:5
OverallDifficulty:6
ApproachRate:6
SliderMultiplier:1.4
SliderTickRate:2

[Events]
//Background and Video events
0,0,"BG.jpg",0,0
//Break Periods
//Storyboard Layer 0 (Background)
//Storyboard Layer 1 (Fail)
//Storyboard Layer 2 (Pass)
//Storyboard Layer 3 (Foreground)
//Storyboard Sound Samples
//Background Colour Transformations
3,100,163,162,255

[TimingPoints]
31,222.222222222222,4,1,0,55,1,0
49808,-100,4,1,0,70,0,1
64030,-100,4,1,0,55,0,0

[Colours]
Combo1 : 255,0,0
Combo2 : 0,255,0
Combo3 : 0,255,255

[HitObjects]
256,192,31,1,4,0:0:0:0:
256,192,253,1,0,0:0:0:0:
256,192,364,1,2,0:0:0:0:
256,192,475,1,0,0:0:0:0:
256,192,697,1,0,0:0:0:0:
256,192,808,1,0,0:0:0:0:
256,192,919,1,2,0:0:0:0:
256,192,1030,1,0,0:0:0:0:
256,192,1142,1,0,0:0:0:0:
256,192,1253,1,2,0:0:0:0:
256,192,1475,1,0,0:0:0:0:
256,192,1586,1,2,0:0:0:0:
256,192,1697,1,2,0:0:0:0:
256,192,1808,1,0,0:0:0:0:
256,192,2030,1,2,0:0:0:0:
256,192,2142,1,0,0:0:0:0:
256,192,2253,1,0,0:0:0:0:
256,192,2364,1,0,0:0:0:0:
256,192,2475,1,2,0:0:0:0:
256,192,2697,1,0,0:0:0:0:
256,192,2808,1,0,0:0:0:0:
256,192,2919,1,0,0:0:0:0:
256,192,3030,1,2,0:0:0:0:
256,192,3142,1,0,0:0:0:0:
256,192,3253,1,0,0:0:0:0:
256,192,3364,1,2,0:0:0:0:
256,192,3586,1,0,0:0:0:0:
256,192,3697,1,0,0:0:0:0:
256,192,3808,1,0,0:0:0:0:
256,192,3919,1,0,0:0:0:0:
256,192,4030,1,2,0:0:0:0:
256,192,4253,1,0,0:0:0:0:
256,192,4364,1,0,0:0:0:0:
256,192,4475,1,2,0:0:0:0:
256,192,4586,1,0,0:0:0:0:
256,192,4697,1,0,0:0:0:0:
256,192,4808,1,2,0:0:0:0:
256,192,5030,1,0,0:0:0:0:
256,192,5142,1,2,0:0:0:0:
256,192,5253,1,2,0:0:0:0:
256,192,5364,1,4,0:0:0:0:
256,192,5586,1,2,0:0:0:0:
256,192,5697,1,0,0:0:0:0:
256,192,5808,1,0,0:0:0:0:
256,192,5919,1,0,0:0:0:0:
256,192,6030,1,2,0:0:0:0:
256,192,6253,1,0,0:0:0:0:
256,192,6308,1,0,0:0:0:0:
256,192,6364,1,0,0:0:0:0:
256,192,6419,1,0,0:0:0:0:
256,192,6475,1,2,0:0:0:0:
256,192,6530,1,2,0:0:0:0:
256,192,6586,1,2,0:0:0:0:
256,192,6697,1,0,0:0:0:0:
256,192,6753,1,0,0:0:0:0:
256,192,6808,1,2,0:0:0:0:
256,192,6864,1,2,0:0:0:0:
256,192,6919,1,0,0:0:0:0:
256,192,7142,1,4,0:0:0:0:
256,192,7253,1,0,0:0:0:0:
256,192,7308,1,0,0:0:0:0:
256,192,7364,1,2,0:0:0:0:
256,192,7475,1,2,0:0:0:0:
256,192,7586,1,0,0:0:0:0:
256,192,7697,1,0,0:0:0:0:
256,192,7808,1,2,0:0:0:0:
256,192,8031,1,0,0:0:0:0:
256,192,8142,1,0,0:0:0:0:
256,192,8197,1,0,0:0:0:0:
256,192,8253,1,2,0:0:0:0:
256,192,8364,1,2,0:0:0:0:
256,192,8475,1,0,0:0:0:0:
256,192,8586,1,0,0:0:0:0:
256,192,8697,1,2,0:0:0:0:
256,192,8919,1,0,0:0:0:0:
256,192,9030,1,0,0:0:0:0:
256,192,9085,1,0,0:0:0:0:
256,192,9141,1,2,0:0:0:0:
256,192,9252,1,2,0:0:0:0:
256,192,9363,1,0,0:0:0:0:
256,192,9474,1,0,0:0:0:0:
256,192,9585,1,2,0:0:0:0:
256,192,9808,1,0,0:0:0:0:
256,192,9919,1,0,0:0:0:0:
256,192,9974,1,0,0:0:0:0:
256,192,10030,1,2,0:0:0:0:
256,192,10141,1,2,0:0:0:0:
256,192,10252,1,0,0:0:0:0:
256,192,10363,1,0,0:0:0:0:
256,192,10419,1,0,0:0:0:0:
256,192,10474,1,2,0:0:0:0:
256,192,10530,1,2,0:0:0:0:
256,192,10586,1,2,0:0:0:0:
256,192,10698,1,0,0:0:0:0:
256,192,10809,1,0,0:0:0:0:
256,192,10864,1,0,0:0:0:0:
256,192,10920,1,2,0:0:0:0:
256,192,11031,1,2,0:0:0:0:
256,192,11142,1,0,0:0:0:0:
256,192,11253,1,0,0:0:0:0:
256,192,11364,1,2,0:0:0:0:
256,192,11586,1,0,0:0:0:0:
256,192,11697,1,0,0:0:0:0:
256,192,11752,1,0,0:0:0:0:
256,192,11808,1,2,0:0:0:0:
256,192,11919,1,2,0:0:0:0:
256,192,12030,1,0,0:0:0:0:
256,192,12141,1,0,0:0:0:0:
256,192,12252,1,2,0:0:0:0:
256,192,12475,1,0,0:0:0:0:
256,192,12586,1,0,0:0:0:0:
256,192,12641,1,0,0:0:0:0:
256,192,12697,1,2,0:0:0:0:
256,192,12808,1,2,0:0:0:0:
256,192,12919,1,0,0:0:0:0:
256,192,13030,1,0,0:0:0:0:
256,192,13141,1,2,0:0:0:0:
256,192,13364,1,0,0:0:0:0:
256,192,13475,1,2,0:0:0:0:
256,192,13530,1,2,0:0:0:0:
256,192,13586,1,0,0:0:0:0:
256,192,13697,1,2,0:0:0:0:
256,192,13753,1,2,0:0:0:0:
256,192,13808,1,0,0:0:0:0:
256,192,13919,1,2,0:0:0:0:
256,192,13975,1,2,0:0:0:0:
256,192,14030,1,0,0:0:0:0:
256,192,14142,1,2,0:0:0:0:
256,192,14253,1,0,0:0:0:0:
256,192,14364,1,0,0:0:0:0:
256,192,14419,1,0,0:0:0:0:
256,192,14475,1,2,0:0:0:0:
256,192,14586,1,2,0:0:0:0:
256,192,14697,1,0,0:0:0:0:
256,192,14753,1,0,0:0:0:0:
256,192,14808,1,0,0:0:0:0:
256,192,14864,1,0,0:0:0:0:
256,192,14919,1,2,0:0:0:0:
256,192,15142,1,0,0:0:0:0:
256,192,15253,1,0,0:0:0:0:
256,192,15308,1,0,0:0:0:0:
256,192,15364,1,2,0:0:0:0:
256,192,15475,1,2,0:0:0:0:
256,192,15586,1,0,0:0:0:0:
256,192,15642,1,0,0:0:0:0:
256,192,15697,1,0,0:0:0:0:
256,192,15808,1,2,0:0:0:0:
256,192,16030,1,0,0:0:0:0:
256,192,16141,1,0,0:0:0:0:
256,192,16196,1,0,0:0:0:0:
256,192,16252,1,2,0:0:0:0:
256,192,16363,1,2,0:0:0:0:
256,192,16474,1,0,0:0:0:0:
256,192,16530,1,0,0:0:0:0:
256,192,16585,1,0,0:0:0:0:
256,192,16696,1,2,0:0:0:0:
256,192,16919,1,0,0:0:0:0:
256,192,17030,1,0,0:0:0:0:
256,192,17085,1,0,0:0:0:0:
256,192,17141,1,2,0:0:0:0:
256,192,17252,1,2,0:0:0:0:
256,192,17363,1,0,0:0:0:0:
256,192,17419,1,0,0:0:0:0:
256,192,17474,1,0,0:0:0:0:
256,192,17585,1,2,0:0:0:0:
256,192,17697,1,2,0:0:0:0:
256,192,17808,1,0,0:0:0:0:
256,192,17919,1,0,0:0:0:0:
256,192,17974,1,0,0:0:0:0:
256,192,18030,1,2,0:0:0:0:
256,192,18141,1,2,0:0:0:0:
256,192,18252,1,0,0:0:0:0:
256,192,18308,1,0,0:0:0:0:
256,192,18364,1,0,0:0:0:0:
256,192,18474,1,2,0:0:0:0:
256,192,18697,1,0,0:0:0:0:
256,192,18808,1,0,0:0:0:0:
256,192,18863,1,0,0:0:0:0:
256,192,18919,1,2,0:0:0:0:
256,192,19030,1,2,0:0:0:0:
256,192,19141,1,0,0:0:0:0:
256,192,19197,1,0,0:0:0:0:
256,192,19252,1,0,0:0:0:0:
256,192,19363,1,2,0:0:0:0:
256,192,19586,1,0,0:0:0:0:
256,192,19697,1,0,0:0:0:0:
256,192,19752,1,0,0:0:0:0:
256,192,19808,1,2,0:0:0:0:
256,192,19919,1,2,0:0:0:0:
256,192,20030,1,0,0:0:0:0:
256,192,20086,1,0,0:0:0:0:
256,192,20141,1,0,0:0:0:0:
256,192,20252,1,2,0:0:0:0:
256,192,20475,1,0,0:0:0:0:
256,192,20586,1,2,0:0:0:0:
256,192,20642,1,2,0:0:0:0:
256,192,20697,1,0,0:0:0:0:
256,192,20808,1,2,0:0:0:0:
256,192,20919,1,0,0:0:0:0:
256,192,21030,1,2,0:0:0:0:
256,192,21086,1,2,0:0:0:0:
256,192,21142,1,0,0:0:0:0:
256,192,21253,1,2,0:0:0:0:
256,192,21364,1,0,0:0:0:0:
256,192,21475,1,0,0:0:0:0:
256,192,21530,1,0,0:0:0:0:
256,192,21586,1,2,0:0:0:0:
256,192,21697,1,2,0:0:0:0:
256,192,21808,1,0,0:0:0:0:
256,192,21919,1,0,0:0:0:0:
256,192,21975,1,0,0:0:0:0:
256,192,22030,1,2,0:0:0:0:
256,192,22142,1,2,0:0:0:0:
256,192,22253,1,0,0:0:0:0:
256,192,22364,1,2,0:0:0:0:
256,192,22419,1,2,0:0:0:0:
256,192,22475,1,0,0:0:0:0:
256,192,22586,1,2,0:0:0:0:
256,192,22697,1,0,0:0:0:0:
256,192,22808,1,2,0:0:0:0:
256,192,22864,1,2,0:0:0:0:
256,192,22919,1,0,0:0:0:0:
256,192,23030,1,2,0:0:0:0:
256,192,23142,1,0,0:0:0:0:
256,192,23253,1,0,0:0:0:0:
256,192,23308,1,0,0:0:0:0:
256,192,23364,1,2,0:0:0:0:
256,192,23475,1,2,0:0:0:0:
256,192,23586,1,0,0:0:0:0:
256,192,23697,1,0,0:0:0:0:
256,192,23753,1,0,0:0:0:0:
256,192,23808,1,2,0:0:0:0:
256,192,23920,1,2,0:0:0:0:
256,192,24031,1,0,0:0:0:0:
256,192,24142,1,2,0:0:0:0:
256,192,24197,1,2,0:0:0:0:
256,192,24253,1,0,0:0:0:0:
256,192,24364,1,2,0:0:0:0:
256,192,24475,1,0,0:0:0:0:
256,192,24586,1,2,0:0:0:0:
256,192,24642,1,2,0:0:0:0:
256,192,24697,1,0,0:0:0:0:
256,192,24919,1,0,0:0:0:0:
256,192,25030,1,0,0:0:0:0:
256,192,25085,1,0,0:0:0:0:
256,192,25141,1,0,0:0:0:0:
256,192,25252,1,2,0:0:0:0:
256,192,25363,1,0,0:0:0:0:
256,192,25474,1,0,0:0:0:0:
256,192,25530,1,0,0:0:0:0:
256,192,25585,1,0,0:0:0:0:
256,192,25697,1,2,0:0:0:0:
256,192,25808,1,0,0:0:0:0:
256,192,25919,1,2,0:0:0:0:
256,192,25974,1,2,0:0:0:0:
256,192,26030,1,0,0:0:0:0:
256,192,26141,1,2,0:0:0:0:
256,192,26252,1,0,0:0:0:0:
256,192,26363,1,2,0:0:0:0:
256,192,26419,1,2,0:0:0:0:
256,192,26474,1,0,0:0:0:0:
256,192,26585,1,2,0:0:0:0:
256,192,26697,1,0,0:0:0:0:
256,192,26808,1,0,0:0:0:0:
256,192,26863,1,0,0:0:0:0:
256,192,26919,1,0,0:0:0:0:
256,192,27030,1,2,0:0:0:0:
256,192,27141,1,0,0:0:0:0:
256,192,27252,1,0,0:0:0:0:
256,192,27308,1,0,0:0:0:0:
256,192,27363,1,0,0:0:0:0:
256,192,27475,1,2,0:0:0:0:
256,192,27586,1,0,0:0:0:0:
256,192,27697,1,2,0:0:0:0:
256,192,27808,1,0,0:0:0:0:
256,192,27919,1,2,0:0:0:0:
256,192,28030,1,0,0:0:0:0:
256,192,28141,1,2,0:0:0:0:
256,192,28253,1,0,0:0:0:0:
256,192,28364,1,2,0:0:0:0:
256,192,28475,1,0,0:0:0:0:
256,192,28586,1,0,0:0:0:0:
256,192,28641,1,0,0:0:0:0:
256,192,28697,1,2,0:0:0:0:
256,192,28808,1,2,0:0:0:0:
256,192,28919,1,0,0:0:0:0:
256,192,29030,1,0,0:0:0:0:
256,192,29086,1,0,0:0:0:0:
256,192,29141,1,2,0:0:0:0:
256,192,29253,1,2,0:0:0:0:
256,192,29364,1,0,0:0:0:0:
256,192,29475,1,2,0:0:0:0:
256,192,29530,1,2,0:0:0:0:
256,192,29586,1,0,0:0:0:0:
256,192,29697,1,2,0:0:0:0:
256,192,29808,1,0,0:0:0:0:
256,192,29919,1,2,0:0:0:0:
256,192,29975,1,2,0:0:0:0:
256,192,30030,1,0,0:0:0:0:
256,192,30141,1,2,0:0:0:0:
256,192,30253,1,0,0:0:0:0:
256,192,30364,1,0,0:0:0:0:
256,192,30419,1,0,0:0:0:0:
256,192,30475,1,2,0:0:0:0:
256,192,30586,1,2,0:0:0:0:
256,192,30697,1,0,0:0:0:0:
256,192,30808,1,0,0:0:0:0:
256,192,30864,1,0,0:0:0:0:
256,192,30919,1,2,0:0:0:0:
256,192,31031,1,2,0:0:0:0:
256,192,31142,1,0,0:0:0:0:
256,192,31253,1,2,0:0:0:0:
256,192,31308,1,2,0:0:0:0:
256,192,31364,1,0,0:0:0:0:
256,192,31475,1,2,0:0:0:0:
256,192,31586,1,0,0:0:0:0:
256,192,31697,1,2,0:0:0:0:
256,192,31753,1,2,0:0:0:0:
256,192,31808,1,0,0:0:0:0:
256,192,32030,1,0,0:0:0:0:
256,192,32141,1,0,0:0:0:0:
256,192,32196,1,2,0:0:0:0:
256,192,32252,1,2,0:0:0:0:
256,192,32363,1,2,0:0:0:0:
256,192,32474,1,0,0:0:0:0:
256,192,32585,1,0,0:0:0:0:
256,192,32641,1,2,0:0:0:0:
256,192,32696,1,2,0:0:0:0:
256,192,32808,1,2,0:0:0:0:
256,192,32919,1,0,0:0:0:0:
256,192,33030,1,2,0:0:0:0:
256,192,33085,1,2,0:0:0:0:
256,192,33141,1,0,0:0:0:0:
256,192,33252,1,2,0:0:0:0:
256,192,33363,1,0,0:0:0:0:
256,192,33474,1,2,0:0:0:0:
256,192,33530,1,2,0:0:0:0:
256,192,33585,1,0,0:0:0:0:
256,192,33696,1,2,0:0:0:0:
256,192,33808,1,0,0:0:0:0:
256,192,33919,1,0,0:0:0:0:
256,192,33974,1,2,0:0:0:0:
256,192,34030,1,2,0:0:0:0:
256,192,34141,1,2,0:0:0:0:
256,192,34252,1,0,0:0:0:0:
256,192,34363,1,0,0:0:0:0:
256,192,34419,1,2,0:0:0:0:
256,192,34474,1,2,0:0:0:0:
256,192,34586,1,2,0:0:0:0:
256,192,34697,1,6,0:0:0:0:
256,192,34919,1,6,0:0:0:0:
256,192,35142,1,4,0:0:0:0:
256,192,35364,1,6,0:0:0:0:
256,192,35586,1,0,0:0:0:0:
256,192,35697,1,0,0:0:0:0:
256,192,35753,1,0,0:0:0:0:
256,192,35808,1,2,0:0:0:0:
256,192,35919,1,2,0:0:0:0:
256,192,36030,1,0,0:0:0:0:
256,192,36142,1,0,0:0:0:0:
256,192,36197,1,0,0:0:0:0:
256,192,36253,1,2,0:0:0:0:
256,192,36364,1,2,0:0:0:0:
256,192,36475,1,0,0:0:0:0:
256,192,36586,1,0,0:0:0:0:
256,192,36642,1,0,0:0:0:0:
256,192,36697,1,2,0:0:0:0:
256,192,36808,1,2,0:0:0:0:
256,192,36919,1,0,0:0:0:0:
256,192,37030,1,0,0:0:0:0:
256,192,37142,1,2,0:0:0:0:
256,192,37197,1,2,0:0:0:0:
256,192,37253,1,2,0:0:0:0:
256,192,37364,1,0,0:0:0:0:
256,192,37475,1,0,0:0:0:0:
256,192,37531,1,0,0:0:0:0:
256,192,37586,1,2,0:0:0:0:
256,192,37697,1,2,0:0:0:0:
256,192,37808,1,0,0:0:0:0:
256,192,37920,1,0,0:0:0:0:
256,192,37975,1,0,0:0:0:0:
256,192,38031,1,2,0:0:0:0:
256,192,38142,1,2,0:0:0:0:
256,192,38253,1,0,0:0:0:0:
256,192,38364,1,0,0:0:0:0:
256,192,38419,1,0,0:0:0:0:
256,192,38475,1,2,0:0:0:0:
256,192,38586,1,0,0:0:0:0:
256,192,38642,1,0,0:0:0:0:
256,192,38697,1,0,0:0:0:0:
256,192,38808,1,2,0:0:0:0:
256,192,38864,1,2,0:0:0:0:
256,192,38919,1,0,0:0:0:0:
256,192,39030,1,2,0:0:0:0:
256,192,39142,1,0,0:0:0:0:
256,192,39253,1,0,0:0:0:0:
256,192,39309,1,0,0:0:0:0:
256,192,39364,1,2,0:0:0:0:
256,192,39475,1,2,0:0:0:0:
256,192,39586,1,0,0:0:0:0:
256,192,39698,1,0,0:0:0:0:
256,192,39753,1,0,0:0:0:0:
256,192,39809,1,2,0:0:0:0:
256,192,39920,1,2,0:0:0:0:
256,192,40031,1,0,0:0:0:0:
256,192,40142,1,0,0:0:0:0:
256,192,40198,1,0,0:0:0:0:
256,192,40253,1,2,0:0:0:0:
256,192,40364,1,2,0:0:0:0:
256,192,40475,1,0,0:0:0:0:
256,192,40586,1,0,0:0:0:0:
256,192,40698,1,2,0:0:0:0:
256,192,40753,1,2,0:0:0:0:
256,192,40809,1,2,0:0:0:0:
256,192,40920,1,0,0:0:0:0:
256,192,41031,1,0,0:0:0:0:
256,192,41087,1,0,0:0:0:0:
256,192,41142,1,2,0:0:0:0:
256,192,41253,1,2,0:0:0:0:
256,192,41364,1,0,0:0:0:0:
256,192,41476,1,0,0:0:0:0:
256,192,41531,1,0,0:0:0:0:
256,192,41587,1,2,0:0:0:0:
256,192,41698,1,2,0:0:0:0:
256,192,41809,1,0,0:0:0:0:
256,192,41920,1,2,0:0:0:0:
256,192,42031,1,0,0:0:0:0:
256,192,42142,1,2,0:0:0:0:
256,192,42253,1,0,0:0:0:0:
256,192,42364,1,2,0:0:0:0:
256,192,42475,1,0,0:0:0:0:
256,192,42697,1,0,0:0:0:0:
256,192,42808,1,0,0:0:0:0:
256,192,42864,1,0,0:0:0:0:
256,192,42919,1,2,0:0:0:0:
256,192,43030,1,2,0:0:0:0:
256,192,43141,1,0,0:0:0:0:
256,192,43253,1,0,0:0:0:0:
256,192,43308,1,0,0:0:0:0:
256,192,43364,1,2,0:0:0:0:
256,192,43475,1,2,0:0:0:0:
256,192,43586,1,0,0:0:0:0:
256,192,43697,1,0,0:0:0:0:
256,192,43753,1,0,0:0:0:0:
256,192,43808,1,2,0:0:0:0:
256,192,43919,1,2,0:0:0:0:
256,192,44030,1,0,0:0:0:0:
256,192,44141,1,0,0:0:0:0:
256,192,44253,1,2,0:0:0:0:
256,192,44308,1,2,0:0:0:0:
256,192,44364,1,2,0:0:0:0:
256,192,44475,1,0,0:0:0:0:
256,192,44586,1,0,0:0:0:0:
256,192,44642,1,0,0:0:0:0:
256,192,44697,1,2,0:0:0:0:
256,192,44808,1,2,0:0:0:0:
256,192,44919,1,0,0:0:0:0:
256,192,45031,1,0,0:0:0:0:
256,192,45086,1,0,0:0:0:0:
256,192,45142,1,2,0:0:0:0:
256,192,45253,1,2,0:0:0:0:
256,192,45364,1,0,0:0:0:0:
256,192,45475,1,0,0:0:0:0:
256,192,45530,1,0,0:0:0:0:
256,192,45586,1,2,0:0:0:0:
256,192,45697,1,0,0:0:0:0:
256,192,45753,1,0,0:0:0:0:
256,192,45808,1,0,0:0:0:0:
256,192,45919,1,2,0:0:0:0:
256,192,45975,1,2,0:0:0:0:
256,192,46030,1,0,0:0:0:0:
256,192,46141,1,2,0:0:0:0:
256,192,46253,1,0,0:0:0:0:
256,192,46364,1,0,0:0:0:0:
256,192,46420,1,0,0:0:0:0:
256,192,46475,1,2,0:0:0:0:
256,192,46586,1,2,0:0:0:0:
256,192,46697,1,0,0:0:0:0:
256,192,46809,1,0,0:0:0:0:
256,192,46864,1,0,0:0:0:0:
256,192,46920,1,2,0:0:0:0:
256,192,47031,1,2,0:0:0:0:
256,192,47142,1,0,0:0:0:0:
256,192,47253,1,0,0:0:0:0:
256,192,47309,1,0,0:0:0:0:
256,192,47364,1,2,0:0:0:0:
256,192,47475,1,2,0:0:0:0:
256,192,47586,1,0,0:0:0:0:
256,192,47697,1,0,0:0:0:0:
256,192,47809,1,2,0:0:0:0:
256,192,47864,1,2,0:0:0:0:
256,192,47920,1,2,0:0:0:0:
256,192,48031,1,0,0:0:0:0:
256,192,48142,1,0,0:0:0:0:
256,192,48198,1,0,0:0:0:0:
256,192,48253,1,2,0:0:0:0:
256,192,48364,1,2,0:0:0:0:
256,192,48475,1,0,0:0:0:0:
256,192,48587,1,0,0:0:0:0:
256,192,48642,1,0,0:0:0:0:
256,192,48698,1,2,0:0:0:0:
256,192,48809,1,2,0:0:0:0:
256,192,48975,1,0,0:0:0:0:
256,192,49030,1,0,0:0:0:0:
256,192,49086,1,0,0:0:0:0:
256,192,49197,1,2,0:0:0:0:
256,192,49253,1,2,0:0:0:0:
256,192,49419,1,0,0:0:0:0:
256,192,49475,1,0,0:0:0:0:
256,192,49530,1,0,0:0:0:0:
256,192,49642,1,0,0:0:0:0:
256,192,49697,1,2,0:0:0:0:
256,192,49808,1,0,0:0:0:0:
256,192,49919,1,2,0:0:0:0:
256,192,49975,1,2,0:0:0:0:
256,192,50030,1,0,0:0:0:0:
256,192,50142,1,2,0:0:0:0:
256,192,50253,1,0,0:0:0:0:
256,192,50364,1,2,0:0:0:0:
256,192,50420,1,2,0:0:0:0:
256,192,50475,1,0,0:0:0:0:
256,192,50587,1,2,0:0:0:0:
256,192,50698,1,0,0:0:0:0:
256,192,50808,1,2,0:0:0:0:
256,192,50864,1,2,0:0:0:0:
256,192,50919,1,0,0:0:0:0:
256,192,51031,1,2,0:0:0:0:
256,192,51142,1,0,0:0:0:0:
256,192,51253,1,2,0:0:0:0:
256,192,51309,1,2,0:0:0:0:
256,192,51364,1,0,0:0:0:0:
256,192,51476,1,0,0:0:0:0:
256,192,51587,1,0,0:0:0:0:
256,192,51697,1,2,0:0:0:0:
256,192,51808,1,0,0:0:0:0:
256,192,51920,1,2,0:0:0:0:
256,192,52031,1,0,0:0:0:0:
256,192,52142,1,2,0:0:0:0:
256,192,52253,1,0,0:0:0:0:
256,192,52365,1,2,0:0:0:0:
256,192,52476,1,0,0:0:0:0:
256,192,52586,1,0,0:0:0:0:
256,192,52697,1,2,0:0:0:0:
256,192,52753,1,2,0:0:0:0:
256,192,52808,1,2,0:0:0:0:
256,192,52920,1,0,0:0:0:0:
256,192,53030,1,0,0:0:0:0:
256,192,53086,1,0,0:0:0:0:
256,192,53142,1,2,0:0:0:0:
256,192,53197,1,2,0:0:0:0:
256,192,53252,1,2,0:0:0:0:
256,192,53365,1,0,0:0:0:0:
256,192,53475,1,2,0:0:0:0:
256,192,53531,1,2,0:0:0:0:
256,192,53586,1,0,0:0:0:0:
256,192,53698,1,2,0:0:0:0:
256,192,53809,1,0,0:0:0:0:
256,192,53920,1,2,0:0:0:0:
256,192,53976,1,2,0:0:0:0:
256,192,54031,1,0,0:0:0:0:
256,192,54143,1,2,0:0:0:0:
256,192,54254,1,0,0:0:0:0:
256,192,54364,1,2,0:0:0:0:
256,192,54420,1,2,0:0:0:0:
256,192,54475,1,0,0:0:0:0:
256,192,54587,1,2,0:0:0:0:
256,192,54698,1,0,0:0:0:0:
256,192,54809,1,2,0:0:0:0:
256,192,54865,1,2,0:0:0:0:
256,192,54920,1,0,0:0:0:0:
256,192,55032,1,0,0:0:0:0:
256,192,55143,1,0,0:0:0:0:
256,192,55253,1,2,0:0:0:0:
256,192,55364,1,0,0:0:0:0:
256,192,55476,1,2,0:0:0:0:
256,192,55587,1,0,0:0:0:0:
256,192,55698,1,2,0:0:0:0:
256,192,55809,1,0,0:0:0:0:
256,192,55921,1,2,0:0:0:0:
256,192,56032,1,0,0:0:0:0:
256,192,56142,1,0,0:0:0:0:
256,192,56253,1,2,0:0:0:0:
256,192,56309,1,2,0:0:0:0:
256,192,56364,1,2,0:0:0:0:
256,192,56476,1,0,0:0:0:0:
256,192,56586,1,0,0:0:0:0:
256,192,56642,1,0,0:0:0:0:
256,192,56698,1,2,0:0:0:0:
256,192,56753,1,2,0:0:0:0:
256,192,56808,1,2,0:0:0:0:
256,192,56921,1,4,0:0:0:0:
256,192,57030,1,2,0:0:0:0:
256,192,57142,1,0,0:0:0:0:
256,192,57197,1,0,0:0:0:0:
256,192,57253,1,2,0:0:0:0:
256,192,57364,1,0,0:0:0:0:
256,192,57475,1,2,0:0:0:0:
256,192,57586,1,0,0:0:0:0:
256,192,57642,1,0,0:0:0:0:
256,192,57697,1,2,0:0:0:0:
256,192,57808,1,0,0:0:0:0:
256,192,57919,1,2,0:0:0:0:
256,192,58030,1,0,0:0:0:0:
256,192,58086,1,0,0:0:0:0:
256,192,58142,1,2,0:0:0:0:
256,192,58253,1,0,0:0:0:0:
256,192,58364,1,2,0:0:0:0:
256,192,58419,1,2,0:0:0:0:
256,192,58475,1,0,0:0:0:0:
256,192,58530,1,2,0:0:0:0:
256,192,58586,1,0,0:0:0:0:
256,192,58697,1,4,0:0:0:0:
256,192,58808,1,2,0:0:0:0:
256,192,58920,1,0,0:0:0:0:
256,192,58975,1,0,0:0:0:0:
256,192,59031,1,2,0:0:0:0:
256,192,59142,1,0,0:0:0:0:
256,192,59253,1,2,0:0:0:0:
256,192,59364,1,0,0:0:0:0:
256,192,59420,1,0,0:0:0:0:
256,192,59475,1,2,0:0:0:0:
256,192,59586,1,0,0:0:0:0:
256,192,59697,1,2,0:0:0:0:
256,192,59808,1,0,0:0:0:0:
256,192,59864,1,0,0:0:0:0:
256,192,59920,1,2,0:0:0:0:
256,192,60031,1,0,0:0:0:0:
256,192,60142,1,0,0:0:0:0:
256,192,60253,1,0,0:0:0:0:
256,192,60364,1,0,0:0:0:0:
256,192,60475,1,4,0:0:0:0:
256,192,60586,1,2,0:0:0:0:
256,192,60642,1,2,0:0:0:0:
256,192,60697,1,0,0:0:0:0:
256,192,60808,1,2,0:0:0:0:
256,192,60919,1,0,0:0:0:0:
256,192,60975,1,0,0:0:0:0:
256,192,61030,1,2,0:0:0:0:
256,192,61086,1,2,0:0:0:0:
256,192,61142,1,0,0:0:0:0:
256,192,61197,1,0,0:0:0:0:
256,192,61253,1,2,0:0:0:0:
256,192,61364,1,4,0:0:0:0:
256,192,61475,1,2,0:0:0:0:
256,192,61531,1,2,0:0:0:0:
256,192,61586,1,0,0:0:0:0:
256,192,61697,1,2,0:0:0:0:
256,192,61808,1,0,0:0:0:0:
256,192,61864,1,2,0:0:0:0:
256,192,61919,1,0,0:0:0:0:
256,192,61975,1,2,0:0:0:0:
256,192,62031,1,0,0:0:0:0:
256,192,62086,1,0,0:0:0:0:
256,192,62142,1,2,0:0:0:0:
256,192,62253,1,0,0:0:0:0:
256,192,62364,1,2,0:0:0:0:
256,192,62419,1,2,0:0:0:0:
256,192,62475,1,0,0:0:0:0:
256,192,62586,1,2,0:0:0:0:
256,192,62697,1,0,0:0:0:0:
256,192,62753,1,0,0:0:0:0:
256,192,62808,1,2,0:0:0:0:
256,192,62864,1,2,0:0:0:0:
256,192,62919,1,0,0:0:0:0:
256,192,62975,1,0,0:0:0:0:
256,192,63030,1,2,0:0:0:0:
256,192,63142,12,0,64017,0:0:0:0:
