osu file format v14

[General]
AudioFilename: audio.mp3
AudioLeadIn: 0
PreviewTime: 48966
Countdown: 0
SampleSet: Drum
StackLeniency: 0.7
Mode: 3
LetterboxInBreaks: 0
SpecialStyle: 0
WidescreenStoryboard: 1

[Editor]
DistanceSpacing: 0.8
BeatDivisor: 2
GridSize: 32
TimelineZoom: 1

[Metadata]
Title:Tenshi (True Final Boss)
TitleUnicode:テンシ (True Final Boss)
Artist:Manabu Namiki
ArtistUnicode:並木学
Creator:Monheim
Version:NORMAL
Source:怒首領蜂最大往生
Tags:speedcore breakbeat hardcore chordjacks mwc20 mwc 2020 mania world cup 2020 soft5 mipha- wiosna shoegazer april civilization electronic instrumental FAMoss cvgs-001 special sound track DoDonPachi True Death Manabu Santaruru manabn CAVE Interactive CO., LTD. 株式会社ケイブ Brave Wave Productions Generation Series DoDonPachi SaiDaiOujou The Definitive Soundtrack GS-019 さんたるる DODONPACHI SAIDAIOUJOU / DODONPACHI MAXIMUM ORIGINAL SOUND TRACK CVST-0023 video game ost arcade
BeatmapID:3081019
BeatmapSetID:1503789

[Difficulty]
HPDrainRate:7
CircleSize:4
OverallDifficulty:7
ApproachRate:5
SliderMultiplier:1.4
SliderTickRate:1

[Events]
//Background and Video events
0,0,"tenshi.jpg",0,0
//Break Periods
//Storyboard Layer 0 (Background)
//Storyboard Layer 1 (Fail)
//Storyboard Layer 2 (Pass)
//Storyboard Layer 3 (Foreground)
//Storyboard Layer 4 (Overlay)
//Storyboard Sound Samples

[TimingPoints]
365,222.222222,4,3,1,60,1,0

[HitObjects]
64,192,365,5,0,0:0:0:70:dirty kick #2.wav
192,192,365,1,0,0:0:0:70:cymbal00.wav
320,192,698,1,0,0:0:0:0:
192,192,1253,1,0,0:0:0:0:
320,192,1587,1,0,0:0:0:70:electronic20.wav
192,192,2142,1,0,0:0:0:0:
320,192,2476,1,0,0:0:0:0:
64,192,3031,1,0,0:0:0:70:cymbal00.wav
320,192,3031,1,0,0:0:0:0:
192,192,3364,1,0,0:0:0:70:cymbal00.wav
448,192,3364,1,0,0:0:0:0:
192,192,3920,1,0,0:0:0:0:
320,192,4253,1,0,0:0:0:0:
192,192,4809,1,0,0:0:0:0:
320,192,5142,1,0,0:0:0:70:electronic20.wav
64,192,5698,1,0,0:0:0:70:cymbal00.wav
320,192,5698,1,0,0:0:0:0:
448,192,6031,1,0,0:0:0:0:
192,192,6031,1,0,0:0:0:70:cymbal00.wav
320,192,6587,128,0,6809:0:0:0:0:
64,192,6809,128,0,7031:0:0:0:0:
448,192,7031,128,0,7253:0:0:0:0:
192,192,7253,128,0,7476:0:0:0:0:
64,192,7476,1,0,0:0:0:70:dirty kick #2 low.wav
448,192,7476,1,0,0:0:0:70:cymbal00.wav
320,192,7698,1,0,0:0:0:70:dirty kick #2 low.wav
192,192,7920,1,0,0:0:0:70:dirty kick #2 low.wav
448,192,8142,1,0,0:0:0:70:dirty kick #2 low.wav
64,192,8364,1,0,0:0:0:70:dirty kick #2 low.wav
192,192,8587,1,0,0:0:0:70:dirty kick #2 low.wav
64,192,9031,1,0,0:0:0:70:dirty kick #2 low.wav
448,192,9253,1,0,0:0:0:70:dirty kick #2 low.wav
320,192,9476,1,0,0:0:0:70:dirty kick #2 low.wav
192,192,9698,1,0,0:0:0:70:dirty kick #2 low.wav
448,192,9920,1,0,0:0:0:70:dirty kick #2 low.wav
64,192,10142,1,0,0:0:0:70:dirty kick #2 low.wav
192,192,10364,1,0,0:0:0:70:dirty kick #2 low.wav
64,192,10809,1,0,0:0:0:70:dirty kick #2 low.wav
448,192,11031,1,0,0:0:0:70:dirty kick #2 low.wav
192,192,11253,1,0,0:0:0:70:dirty kick #2 low.wav
64,192,11476,1,0,0:0:0:70:dirty kick #2 low.wav
448,192,11698,1,0,0:0:0:70:dirty kick #2 low.wav
64,192,11920,1,0,0:0:0:70:dirty kick #2 low.wav
320,192,12142,1,0,0:0:0:70:dirty kick #2 low.wav
64,192,12587,1,0,0:0:0:70:dirty kick #2 low.wav
448,192,12809,1,0,0:0:0:70:dirty kick #2 low.wav
192,192,13031,1,0,0:0:0:70:dirty kick #2 low.wav
64,192,13253,1,0,0:0:0:70:dirty kick #2 low.wav
448,192,13476,1,0,0:0:0:70:dirty kick #2 low.wav
64,192,13698,1,0,0:0:0:70:dirty kick #2 low.wav
320,192,13920,1,0,0:0:0:70:dirty kick #2 low.wav
64,192,14364,1,0,0:0:0:70:dirty kick #2 low.wav
448,192,14587,1,0,0:0:0:70:dirty kick #2 low.wav
320,192,14809,1,0,0:0:0:70:dirty kick #2 low.wav
192,192,15031,1,0,0:0:0:70:dirty kick #2 low.wav
448,192,15253,1,0,0:0:0:70:dirty kick #2 low.wav
64,192,15476,1,0,0:0:0:70:dirty kick #2 low.wav
192,192,15698,1,0,0:0:0:70:dirty kick #2 low.wav
64,192,16142,1,0,0:0:0:70:dirty kick #2 low.wav
448,192,16364,1,0,0:0:0:70:dirty kick #2 low.wav
320,192,16587,1,0,0:0:0:70:dirty kick #2 low.wav
192,192,16809,1,0,0:0:0:70:dirty kick #2 low.wav
448,192,17031,1,0,0:0:0:70:dirty kick #2 low.wav
64,192,17253,1,0,0:0:0:70:dirty kick #2 low.wav
192,192,17476,1,0,0:0:0:70:dirty kick #2 low.wav
64,192,17920,1,0,0:0:0:70:dirty kick #2 low.wav
448,192,18142,1,0,0:0:0:70:dirty kick #2 low.wav
192,192,18364,1,0,0:0:0:70:dirty kick #2 low.wav
64,192,18587,1,0,0:0:0:70:dirty kick #2 low.wav
448,192,18809,1,0,0:0:0:70:dirty kick #2 low.wav
64,192,19031,1,0,0:0:0:70:dirty kick #2 low.wav
320,192,19253,1,0,0:0:0:70:dirty kick #2 low.wav
64,192,19698,1,0,0:0:0:70:dirty kick #2 low.wav
448,192,19920,1,0,0:0:0:70:dirty kick #2 low.wav
192,192,20142,1,0,0:0:0:70:dirty kick #2 low.wav
64,192,20364,1,0,0:0:0:70:dirty kick #2 low.wav
448,192,20587,1,0,0:0:0:70:dirty kick #2 low.wav
192,192,20809,128,0,21698:0:0:0:0:
320,192,21698,1,0,0:0:0:70:dirty kick #2.wav
448,192,21698,1,0,0:0:0:70:cymbal00.wav
192,192,21920,1,0,0:0:0:70:dirty kick #2.wav
448,192,22142,1,0,0:0:0:70:dirty kick #2.wav
64,192,22364,1,0,0:0:0:70:dirty kick #2.wav
320,192,22587,1,0,0:0:0:70:dirty kick #2.wav
192,192,22809,1,0,0:0:0:70:dirty kick #2.wav
448,192,23031,1,0,0:0:0:70:dirty kick #2.wav
192,192,23476,1,0,0:0:0:70:dirty kick #2.wav
448,192,23698,1,0,0:0:0:70:dirty kick #2.wav
64,192,23920,1,0,0:0:0:70:dirty kick #2.wav
320,192,24142,1,0,0:0:0:70:dirty kick #2.wav
192,192,24364,128,0,24809:0:0:0:70:dirty kick #2.wav
320,192,24809,128,0,25253:0:0:0:70:dirty kick #2.wav
192,192,25253,1,0,0:0:0:70:dirty kick #2.wav
320,192,25476,1,0,0:0:0:70:dirty kick #2.wav
64,192,25698,1,0,0:0:0:70:dirty kick #2.wav
448,192,25920,1,0,0:0:0:70:dirty kick #2.wav
192,192,26142,1,0,0:0:0:70:dirty kick #2.wav
320,192,26364,1,0,0:0:0:70:dirty kick #2.wav
64,192,26587,1,0,0:0:0:70:dirty kick #2.wav
320,192,27031,1,0,0:0:0:70:dirty kick #2.wav
64,192,27253,1,0,0:0:0:70:dirty kick #2.wav
448,192,27476,1,0,0:0:0:70:dirty kick #2.wav
192,192,27698,1,0,0:0:0:70:dirty kick #2.wav
448,192,27920,128,0,28364:0:0:0:0:
64,192,28364,128,0,28809:0:0:0:0:
320,192,28809,1,0,0:0:0:70:dirty kick #2.wav
192,192,29031,1,0,0:0:0:70:dirty kick #2.wav
448,192,29253,1,0,0:0:0:70:dirty kick #2.wav
64,192,29476,1,0,0:0:0:70:dirty kick #2.wav
320,192,29698,1,0,0:0:0:70:dirty kick #2.wav
192,192,29920,1,0,0:0:0:70:dirty kick #2.wav
448,192,30142,1,0,0:0:0:70:dirty kick #2.wav
192,192,30587,1,0,0:0:0:70:dirty kick #2.wav
448,192,30809,1,0,0:0:0:70:dirty kick #2.wav
64,192,31031,1,0,0:0:0:70:dirty kick #2.wav
320,192,31253,1,0,0:0:0:70:dirty kick #2.wav
192,192,31476,128,0,31920:0:0:0:70:dirty kick #2.wav
320,192,31920,128,0,32364:0:0:0:70:dirty kick #2.wav
192,192,32364,1,0,0:0:0:70:dirty kick #2.wav
320,192,32587,1,0,0:0:0:70:dirty kick #2.wav
64,192,32809,1,0,0:0:0:70:dirty kick #2.wav
448,192,33031,1,0,0:0:0:70:dirty kick #2.wav
192,192,33253,1,0,0:0:0:70:dirty kick #2.wav
320,192,33476,1,0,0:0:0:70:dirty kick #2.wav
64,192,33698,1,0,0:0:0:70:dirty kick #2.wav
320,192,34142,1,0,0:0:0:70:dirty kick #2.wav
64,192,34364,1,0,0:0:0:70:dirty kick #2.wav
448,192,34587,1,0,0:0:0:70:dirty kick #2.wav
192,192,34809,1,0,0:0:0:70:dirty kick #2.wav
320,192,35031,1,0,0:0:0:70:dirty kick #2 low.wav
448,192,35031,1,0,0:0:0:70:cymbal00.wav
320,192,35253,1,0,0:0:0:70:dirty kick #2 low.wav
448,192,35253,1,0,0:0:0:70:cymbal00.wav
64,192,35476,1,0,0:0:0:70:dirty kick #2 low.wav
192,192,35698,1,0,0:0:0:70:dirty kick #2 low.wav
448,192,35698,1,0,0:0:0:70:cymbal00.wav
320,192,35920,1,0,0:0:0:70:dirty kick #2.wav
448,192,35920,1,0,0:0:0:70:cymbal00.wav
64,192,36142,1,0,0:0:0:70:dirty kick #2.wav
320,192,36364,1,0,0:0:0:70:dirty kick #2.wav
448,192,36587,1,0,0:0:0:70:dirty kick #2.wav
64,192,36809,1,0,0:0:0:70:dirty kick #2.wav
320,192,36920,1,0,0:0:0:0:
192,192,37031,1,0,0:0:0:70:dirty kick #2.wav
320,192,37253,1,0,0:0:0:70:dirty kick #2.wav
448,192,37476,1,0,0:0:0:70:dirty kick #2.wav
320,192,37698,1,0,0:0:0:70:dirty kick #2.wav
64,192,37920,1,0,0:0:0:70:dirty kick #2.wav
320,192,38142,1,0,0:0:0:70:dirty kick #2.wav
448,192,38364,1,0,0:0:0:70:dirty kick #2.wav
64,192,38587,1,0,0:0:0:70:dirty kick #2.wav
320,192,39031,1,0,0:0:0:70:dirty kick #2.wav
448,192,39253,1,0,0:0:0:70:dirty kick #2.wav
320,192,39476,1,0,0:0:0:70:dirty kick #2.wav
64,192,39698,1,0,0:0:0:70:dirty kick #2.wav
320,192,39920,1,0,0:0:0:70:dirty kick #2.wav
448,192,40142,1,0,0:0:0:70:dirty kick #2.wav
64,192,40364,1,0,0:0:0:70:dirty kick #2.wav
320,192,40476,1,0,0:0:0:0:
192,192,40587,1,0,0:0:0:70:dirty kick #2.wav
320,192,40809,1,0,0:0:0:70:dirty kick #2.wav
448,192,41031,1,0,0:0:0:70:dirty kick #2.wav
320,192,41253,1,0,0:0:0:70:dirty kick #2.wav
64,192,41476,1,0,0:0:0:70:dirty kick #2.wav
320,192,41698,1,0,0:0:0:70:dirty kick #2.wav
448,192,41920,1,0,0:0:0:70:dirty kick #2.wav
64,192,42142,128,0,42587:0:0:0:0:
448,192,42587,128,0,43031:0:0:0:0:
320,192,43031,1,0,0:0:0:70:dirty kick #2.wav
64,192,43253,1,0,0:0:0:70:dirty kick #2.wav
320,192,43476,1,0,0:0:0:70:dirty kick #2.wav
448,192,43698,1,0,0:0:0:70:dirty kick #2.wav
64,192,43920,1,0,0:0:0:70:dirty kick #2.wav
320,192,44031,1,0,0:0:0:0:
192,192,44142,1,0,0:0:0:70:dirty kick #2.wav
320,192,44364,1,0,0:0:0:70:dirty kick #2.wav
448,192,44587,1,0,0:0:0:70:dirty kick #2.wav
320,192,44809,1,0,0:0:0:70:dirty kick #2.wav
64,192,45031,1,0,0:0:0:70:dirty kick #2.wav
320,192,45253,1,0,0:0:0:70:dirty kick #2.wav
448,192,45476,1,0,0:0:0:70:dirty kick #2.wav
64,192,45698,1,0,0:0:0:70:dirty kick #2.wav
320,192,46142,1,0,0:0:0:70:dirty kick #2.wav
448,192,46364,1,0,0:0:0:70:dirty kick #2.wav
320,192,46587,1,0,0:0:0:70:dirty kick #2.wav
64,192,46809,1,0,0:0:0:70:dirty kick #2.wav
320,192,47031,1,0,0:0:0:70:dirty kick #2.wav
448,192,47253,1,0,0:0:0:70:dirty kick #2.wav
64,192,47476,1,0,0:0:0:70:dirty kick #2.wav
320,192,47587,1,0,0:0:0:0:
192,192,47698,1,0,0:0:0:70:dirty kick #2.wav
320,192,47920,1,0,0:0:0:70:dirty kick #2.wav
448,192,48142,1,0,0:0:0:70:dirty kick #2.wav
320,192,48364,1,0,0:0:0:70:dirty kick #2.wav
64,192,48587,1,0,0:0:0:70:dirty kick #2.wav
320,192,48809,1,0,0:0:0:70:dirty kick #2.wav
448,192,49031,1,0,0:0:0:70:dirty kick #2.wav
64,192,49253,128,0,49476:0:0:0:0:
64,192,49698,128,0,49920:0:0:0:0:
192,192,49920,128,0,50142:0:0:0:0:
320,192,50142,1,0,0:0:0:70:dirty kick #2.wav
448,192,50142,1,0,0:0:0:70:cymbal00.wav
192,192,50364,1,0,0:0:0:70:dirty kick #2.wav
448,192,50587,1,0,0:0:0:70:dirty kick #2.wav
64,192,50809,1,0,0:0:0:70:dirty kick #2.wav
320,192,51031,1,0,0:0:0:70:dirty kick #2.wav
192,192,51253,1,0,0:0:0:70:dirty kick #2.wav
448,192,51476,1,0,0:0:0:70:dirty kick #2.wav
192,192,51920,1,0,0:0:0:70:dirty kick #2.wav
448,192,52142,1,0,0:0:0:70:dirty kick #2.wav
64,192,52364,1,0,0:0:0:70:dirty kick #2.wav
320,192,52587,1,0,0:0:0:70:dirty kick #2.wav
192,192,52809,128,0,53253:0:0:0:70:dirty kick #2.wav
320,192,53253,128,0,53698:0:0:0:70:dirty kick #2.wav
192,192,53698,1,0,0:0:0:70:dirty kick #2.wav
320,192,53920,1,0,0:0:0:70:dirty kick #2.wav
64,192,54142,1,0,0:0:0:70:dirty kick #2.wav
448,192,54364,1,0,0:0:0:70:dirty kick #2.wav
192,192,54587,1,0,0:0:0:70:dirty kick #2.wav
320,192,54809,1,0,0:0:0:70:dirty kick #2.wav
64,192,55031,1,0,0:0:0:70:dirty kick #2.wav
320,192,55476,1,0,0:0:0:70:dirty kick #2.wav
64,192,55698,1,0,0:0:0:70:dirty kick #2.wav
448,192,55920,1,0,0:0:0:70:dirty kick #2.wav
192,192,56142,1,0,0:0:0:70:dirty kick #2.wav
320,192,56364,128,0,56809:0:0:0:70:dirty kick #2.wav
192,192,56809,128,0,57253:0:0:0:70:dirty kick #2.wav
320,192,57253,1,0,0:0:0:70:dirty kick #2.wav
448,192,57253,1,0,0:0:0:70:cymbal00.wav
192,192,57476,1,0,0:0:0:70:dirty kick #2.wav
448,192,57698,1,0,0:0:0:70:dirty kick #2.wav
64,192,57920,1,0,0:0:0:70:dirty kick #2.wav
320,192,58142,1,0,0:0:0:70:dirty kick #2.wav
192,192,58364,1,0,0:0:0:70:dirty kick #2.wav
448,192,58587,1,0,0:0:0:70:dirty kick #2.wav
64,192,59031,1,0,0:0:0:70:dirty kick #2.wav
192,192,59031,1,0,0:0:0:70:cymbal00.wav
448,192,59253,1,0,0:0:0:70:dirty kick #2.wav
64,192,59476,1,0,0:0:0:70:dirty kick #2.wav
320,192,59698,1,0,0:0:0:70:dirty kick #2.wav
192,192,59920,128,0,60364:0:0:0:70:dirty kick #2.wav
320,192,60364,128,0,60809:0:0:0:70:dirty kick #2.wav
64,192,60809,1,0,0:0:0:70:dirty kick #2.wav
192,192,60809,1,0,0:0:0:70:cymbal00.wav
320,192,61031,1,0,0:0:0:70:dirty kick #2.wav
64,192,61253,1,0,0:0:0:70:dirty kick #2.wav
448,192,61476,1,0,0:0:0:70:dirty kick #2.wav
64,192,61698,1,0,0:0:0:70:dirty kick #2.wav
192,192,61698,1,0,0:0:0:70:cymbal00.wav
320,192,61920,1,0,0:0:0:70:dirty kick #2.wav
64,192,62142,1,0,0:0:0:70:dirty kick #2.wav
320,192,62587,1,0,0:0:0:70:dirty kick #2.wav
448,192,62587,1,0,0:0:0:70:cymbal00.wav
64,192,62809,1,0,0:0:0:70:dirty kick #2.wav
192,192,62809,1,0,0:0:0:70:cymbal00.wav
448,192,63031,1,0,0:0:0:70:dirty kick #2.wav
64,192,63253,1,0,0:0:0:70:dirty kick #2.wav
192,192,63253,1,0,0:0:0:70:cymbal00.wav
320,192,63476,128,0,63698:0:0:0:0:
448,192,63698,128,0,63920:0:0:0:0:
64,192,63920,128,0,64142:0:0:0:0:
320,192,64142,128,0,64364:0:0:0:0:
64,192,64364,1,0,0:0:0:70:dirty kick #2.wav
192,192,64364,1,0,0:0:0:70:cymbal00.wav
320,192,64698,1,0,0:0:0:0:
192,192,65253,1,0,0:0:0:0:
320,192,65587,1,0,0:0:0:70:electronic20.wav
192,192,66142,1,0,0:0:0:0:
320,192,66476,1,0,0:0:0:0:
64,192,67031,1,0,0:0:0:70:cymbal00.wav
320,192,67031,1,0,0:0:0:0:
192,192,67364,1,0,0:0:0:70:cymbal00.wav
448,192,67364,1,0,0:0:0:0:
192,192,67920,1,0,0:0:0:0:
320,192,68253,1,0,0:0:0:0:
192,192,68809,1,0,0:0:0:0:
320,192,69142,1,0,0:0:0:70:electronic20.wav
64,192,69698,1,0,0:0:0:70:cymbal00.wav
320,192,69698,1,0,0:0:0:0:
448,192,70031,1,0,0:0:0:0:
192,192,70031,1,0,0:0:0:70:cymbal00.wav
320,192,70587,128,0,70809:0:0:0:0:
64,192,70809,128,0,71031:0:0:0:0:
448,192,71031,128,0,71253:0:0:0:0:
192,192,71253,128,0,71476:0:0:0:0:
64,192,71476,1,0,0:0:0:70:dirty kick #2 low.wav
448,192,71476,1,0,0:0:0:70:cymbal00.wav
320,192,71698,1,0,0:0:0:70:dirty kick #2 low.wav
192,192,71920,1,0,0:0:0:70:dirty kick #2 low.wav
448,192,72142,1,0,0:0:0:70:dirty kick #2 low.wav
64,192,72364,1,0,0:0:0:70:dirty kick #2 low.wav
192,192,72587,1,0,0:0:0:70:dirty kick #2 low.wav
320,192,72809,1,0,0:0:0:70:dirty kick #2 low.wav
64,192,73031,1,0,0:0:0:70:dirty kick #2 low.wav
448,192,73253,1,0,0:0:0:70:dirty kick #2 low.wav
320,192,73476,1,0,0:0:0:70:dirty kick #2 low.wav
192,192,73698,1,0,0:0:0:70:dirty kick #2 low.wav
448,192,73920,1,0,0:0:0:70:dirty kick #2 low.wav
64,192,74142,1,0,0:0:0:70:dirty kick #2 low.wav
192,192,74364,1,0,0:0:0:70:dirty kick #2 low.wav
320,192,74587,1,0,0:0:0:70:dirty kick #2 low.wav
64,192,74809,1,0,0:0:0:70:dirty kick #2 low.wav
448,192,75031,1,0,0:0:0:70:dirty kick #2 low.wav
192,192,75253,1,0,0:0:0:70:dirty kick #2 low.wav
64,192,75476,1,0,0:0:0:70:dirty kick #2 low.wav
448,192,75698,1,0,0:0:0:70:dirty kick #2 low.wav
64,192,75920,1,0,0:0:0:70:dirty kick #2 low.wav
320,192,76142,1,0,0:0:0:70:dirty kick #2 low.wav
448,192,76364,1,0,0:0:0:70:dirty kick #2 low.wav
64,192,76587,1,0,0:0:0:70:dirty kick #2 low.wav
448,192,76809,1,0,0:0:0:70:dirty kick #2 low.wav
192,192,77031,1,0,0:0:0:70:dirty kick #2 low.wav
64,192,77253,1,0,0:0:0:70:dirty kick #2 low.wav
448,192,77476,1,0,0:0:0:70:dirty kick #2 low.wav
64,192,77698,1,0,0:0:0:70:dirty kick #2 low.wav
320,192,77920,1,0,0:0:0:70:dirty kick #2 low.wav
448,192,78142,1,0,0:0:0:70:dirty kick #2 low.wav
64,192,78364,1,0,0:0:0:70:dirty kick #2 low.wav
448,192,78587,1,0,0:0:0:70:dirty kick #2 low.wav
320,192,78809,1,0,0:0:0:70:dirty kick #2 low.wav
192,192,79031,1,0,0:0:0:70:dirty kick #2 low.wav
448,192,79253,1,0,0:0:0:70:dirty kick #2 low.wav
64,192,79476,1,0,0:0:0:70:dirty kick #2 low.wav
192,192,79698,1,0,0:0:0:70:dirty kick #2 low.wav
320,192,79920,1,0,0:0:0:70:dirty kick #2 low.wav
64,192,80142,1,0,0:0:0:70:dirty kick #2 low.wav
448,192,80364,1,0,0:0:0:70:dirty kick #2 low.wav
320,192,80587,1,0,0:0:0:70:dirty kick #2 low.wav
192,192,80809,1,0,0:0:0:70:dirty kick #2 low.wav
448,192,81031,1,0,0:0:0:70:dirty kick #2 low.wav
64,192,81253,1,0,0:0:0:70:dirty kick #2 low.wav
192,192,81476,1,0,0:0:0:70:dirty kick #2 low.wav
320,192,81698,1,0,0:0:0:70:dirty kick #2 low.wav
64,192,81920,1,0,0:0:0:70:dirty kick #2 low.wav
448,192,82142,1,0,0:0:0:70:dirty kick #2 low.wav
192,192,82364,1,0,0:0:0:70:dirty kick #2 low.wav
64,192,82587,1,0,0:0:0:70:dirty kick #2 low.wav
448,192,82809,1,0,0:0:0:70:dirty kick #2 low.wav
64,192,83031,1,0,0:0:0:70:dirty kick #2 low.wav
320,192,83253,1,0,0:0:0:70:dirty kick #2 low.wav
448,192,83476,1,0,0:0:0:70:dirty kick #2 low.wav
64,192,83698,1,0,0:0:0:70:dirty kick #2 low.wav
448,192,83920,1,0,0:0:0:70:dirty kick #2 low.wav
192,192,84142,1,0,0:0:0:70:dirty kick #2 low.wav
64,192,84364,1,0,0:0:0:70:dirty kick #2 low.wav
448,192,84587,1,0,0:0:0:70:dirty kick #2 low.wav
192,192,84809,128,0,85698:0:0:0:0:
320,192,85698,1,0,0:0:0:70:dirty kick #2.wav
448,192,85698,1,0,0:0:0:70:cymbal00.wav
192,192,85920,1,0,0:0:0:70:dirty kick #2.wav
448,192,86142,1,0,0:0:0:70:dirty kick #2.wav
64,192,86364,1,0,0:0:0:70:dirty kick #2.wav
320,192,86587,1,0,0:0:0:70:dirty kick #2.wav
192,192,86809,1,0,0:0:0:70:dirty kick #2.wav
448,192,87031,1,0,0:0:0:70:dirty kick #2.wav
320,192,87253,1,0,0:0:0:70:dirty kick #2.wav
192,192,87476,1,0,0:0:0:70:dirty kick #2.wav
448,192,87698,1,0,0:0:0:70:dirty kick #2.wav
64,192,87920,1,0,0:0:0:70:dirty kick #2.wav
320,192,88142,1,0,0:0:0:70:dirty kick #2.wav
192,192,88364,128,0,88809:0:0:0:70:dirty kick #2.wav
320,192,88809,128,0,89253:0:0:0:70:dirty kick #2.wav
192,192,89253,1,0,0:0:0:70:dirty kick #2.wav
320,192,89476,1,0,0:0:0:70:dirty kick #2.wav
64,192,89698,1,0,0:0:0:70:dirty kick #2.wav
448,192,89920,1,0,0:0:0:70:dirty kick #2.wav
192,192,90142,1,0,0:0:0:70:dirty kick #2.wav
320,192,90364,1,0,0:0:0:70:dirty kick #2.wav
64,192,90587,1,0,0:0:0:70:dirty kick #2.wav
192,192,90809,1,0,0:0:0:70:dirty kick #2.wav
320,192,91031,1,0,0:0:0:70:dirty kick #2.wav
64,192,91253,1,0,0:0:0:70:dirty kick #2.wav
448,192,91476,1,0,0:0:0:70:dirty kick #2.wav
192,192,91698,1,0,0:0:0:70:dirty kick #2.wav
448,192,91920,128,0,92364:0:0:0:0:
64,192,92364,128,0,92809:0:0:0:0:
320,192,92809,1,0,0:0:0:70:dirty kick #2.wav
192,192,93031,1,0,0:0:0:70:dirty kick #2.wav
448,192,93253,1,0,0:0:0:70:dirty kick #2.wav
64,192,93476,1,0,0:0:0:70:dirty kick #2.wav
320,192,93698,1,0,0:0:0:70:dirty kick #2.wav
192,192,93920,1,0,0:0:0:70:dirty kick #2.wav
448,192,94142,1,0,0:0:0:70:dirty kick #2.wav
320,192,94364,1,0,0:0:0:70:dirty kick #2.wav
192,192,94587,1,0,0:0:0:70:dirty kick #2.wav
448,192,94809,1,0,0:0:0:70:dirty kick #2.wav
64,192,95031,1,0,0:0:0:70:dirty kick #2.wav
320,192,95253,1,0,0:0:0:70:dirty kick #2.wav
192,192,95476,128,0,95920:0:0:0:70:dirty kick #2.wav
320,192,95920,128,0,96364:0:0:0:70:dirty kick #2.wav
192,192,96364,1,0,0:0:0:70:dirty kick #2.wav
320,192,96587,1,0,0:0:0:70:dirty kick #2.wav
64,192,96809,1,0,0:0:0:70:dirty kick #2.wav
448,192,97031,1,0,0:0:0:70:dirty kick #2.wav
192,192,97253,1,0,0:0:0:70:dirty kick #2.wav
320,192,97476,1,0,0:0:0:70:dirty kick #2.wav
64,192,97698,1,0,0:0:0:70:dirty kick #2.wav
192,192,97920,1,0,0:0:0:70:dirty kick #2.wav
320,192,98142,1,0,0:0:0:70:dirty kick #2.wav
64,192,98364,1,0,0:0:0:70:dirty kick #2.wav
448,192,98587,1,0,0:0:0:70:dirty kick #2.wav
192,192,98809,1,0,0:0:0:70:dirty kick #2.wav
320,192,99031,1,0,0:0:0:70:dirty kick #2 low.wav
448,192,99031,1,0,0:0:0:70:cymbal00.wav
320,192,99253,1,0,0:0:0:70:dirty kick #2 low.wav
448,192,99253,1,0,0:0:0:70:cymbal00.wav
64,192,99476,1,0,0:0:0:70:dirty kick #2 low.wav
192,192,99698,1,0,0:0:0:70:dirty kick #2 low.wav
448,192,99698,1,0,0:0:0:70:cymbal00.wav
320,192,99920,1,0,0:0:0:70:dirty kick #2.wav
448,192,99920,1,0,0:0:0:70:cymbal00.wav
64,192,100142,1,0,0:0:0:70:dirty kick #2.wav
320,192,100364,1,0,0:0:0:70:dirty kick #2.wav
448,192,100587,1,0,0:0:0:70:dirty kick #2.wav
64,192,100809,1,0,0:0:0:70:dirty kick #2.wav
320,192,100920,1,0,0:0:0:0:
192,192,101031,1,0,0:0:0:70:dirty kick #2.wav
320,192,101253,1,0,0:0:0:70:dirty kick #2.wav
448,192,101476,1,0,0:0:0:70:dirty kick #2.wav
320,192,101698,1,0,0:0:0:70:dirty kick #2.wav
64,192,101920,1,0,0:0:0:70:dirty kick #2.wav
320,192,102142,1,0,0:0:0:70:dirty kick #2.wav
448,192,102364,1,0,0:0:0:70:dirty kick #2.wav
64,192,102587,1,0,0:0:0:70:dirty kick #2.wav
192,192,102809,1,0,0:0:0:70:dirty kick #2.wav
320,192,103031,1,0,0:0:0:70:dirty kick #2.wav
448,192,103253,1,0,0:0:0:70:dirty kick #2.wav
320,192,103476,1,0,0:0:0:70:dirty kick #2.wav
64,192,103698,1,0,0:0:0:70:dirty kick #2.wav
320,192,103920,1,0,0:0:0:70:dirty kick #2.wav
448,192,104142,1,0,0:0:0:70:dirty kick #2.wav
64,192,104364,1,0,0:0:0:70:dirty kick #2.wav
320,192,104476,1,0,0:0:0:0:
192,192,104587,1,0,0:0:0:70:dirty kick #2.wav
320,192,104809,1,0,0:0:0:70:dirty kick #2.wav
448,192,105031,1,0,0:0:0:70:dirty kick #2.wav
320,192,105253,1,0,0:0:0:70:dirty kick #2.wav
64,192,105476,1,0,0:0:0:70:dirty kick #2.wav
320,192,105698,1,0,0:0:0:70:dirty kick #2.wav
448,192,105920,1,0,0:0:0:70:dirty kick #2.wav
64,192,106142,128,0,106587:0:0:0:0:
448,192,106587,128,0,107031:0:0:0:0:
320,192,107031,1,0,0:0:0:70:dirty kick #2.wav
64,192,107253,1,0,0:0:0:70:dirty kick #2.wav
320,192,107476,1,0,0:0:0:70:dirty kick #2.wav
448,192,107698,1,0,0:0:0:70:dirty kick #2.wav
64,192,107920,1,0,0:0:0:70:dirty kick #2.wav
320,192,108031,1,0,0:0:0:0:
192,192,108142,1,0,0:0:0:70:dirty kick #2.wav
320,192,108364,1,0,0:0:0:70:dirty kick #2.wav
448,192,108587,1,0,0:0:0:70:dirty kick #2.wav
320,192,108809,1,0,0:0:0:70:dirty kick #2.wav
64,192,109031,1,0,0:0:0:70:dirty kick #2.wav
320,192,109253,1,0,0:0:0:70:dirty kick #2.wav
448,192,109476,1,0,0:0:0:70:dirty kick #2.wav
64,192,109698,1,0,0:0:0:70:dirty kick #2.wav
192,192,109920,1,0,0:0:0:70:dirty kick #2.wav
320,192,110142,1,0,0:0:0:70:dirty kick #2.wav
448,192,110364,1,0,0:0:0:70:dirty kick #2.wav
320,192,110587,1,0,0:0:0:70:dirty kick #2.wav
64,192,110809,1,0,0:0:0:70:dirty kick #2.wav
320,192,111031,1,0,0:0:0:70:dirty kick #2.wav
448,192,111253,1,0,0:0:0:70:dirty kick #2.wav
64,192,111476,1,0,0:0:0:70:dirty kick #2.wav
320,192,111587,1,0,0:0:0:0:
192,192,111698,1,0,0:0:0:70:dirty kick #2.wav
320,192,111920,1,0,0:0:0:70:dirty kick #2.wav
448,192,112142,1,0,0:0:0:70:dirty kick #2.wav
320,192,112364,1,0,0:0:0:70:dirty kick #2.wav
64,192,112587,1,0,0:0:0:70:dirty kick #2.wav
320,192,112809,1,0,0:0:0:70:dirty kick #2.wav
448,192,113031,1,0,0:0:0:70:dirty kick #2.wav
64,192,113253,128,0,113476:0:0:0:0:
64,192,113698,128,0,113920:0:0:0:0:
192,192,113920,128,0,114142:0:0:0:0:
320,192,114142,1,0,0:0:0:70:dirty kick #2.wav
448,192,114142,1,0,0:0:0:70:cymbal00.wav
192,192,114364,1,0,0:0:0:70:dirty kick #2.wav
448,192,114587,1,0,0:0:0:70:dirty kick #2.wav
64,192,114809,1,0,0:0:0:70:dirty kick #2.wav
320,192,115031,1,0,0:0:0:70:dirty kick #2.wav
192,192,115253,1,0,0:0:0:70:dirty kick #2.wav
448,192,115476,1,0,0:0:0:70:dirty kick #2.wav
320,192,115698,1,0,0:0:0:70:dirty kick #2.wav
192,192,115920,1,0,0:0:0:70:dirty kick #2.wav
448,192,116142,1,0,0:0:0:70:dirty kick #2.wav
64,192,116364,1,0,0:0:0:70:dirty kick #2.wav
320,192,116587,1,0,0:0:0:70:dirty kick #2.wav
192,192,116809,128,0,117253:0:0:0:70:dirty kick #2.wav
320,192,117253,128,0,117698:0:0:0:70:dirty kick #2.wav
192,192,117698,1,0,0:0:0:70:dirty kick #2.wav
320,192,117920,1,0,0:0:0:70:dirty kick #2.wav
64,192,118142,1,0,0:0:0:70:dirty kick #2.wav
448,192,118364,1,0,0:0:0:70:dirty kick #2.wav
192,192,118587,1,0,0:0:0:70:dirty kick #2.wav
320,192,118809,1,0,0:0:0:70:dirty kick #2.wav
64,192,119031,1,0,0:0:0:70:dirty kick #2.wav
192,192,119253,1,0,0:0:0:70:dirty kick #2.wav
320,192,119476,1,0,0:0:0:70:dirty kick #2.wav
64,192,119698,1,0,0:0:0:70:dirty kick #2.wav
448,192,119920,1,0,0:0:0:70:dirty kick #2.wav
192,192,120142,1,0,0:0:0:70:dirty kick #2.wav
320,192,120364,128,0,120809:0:0:0:70:dirty kick #2.wav
192,192,120809,128,0,121253:0:0:0:70:dirty kick #2.wav
320,192,121253,1,0,0:0:0:70:dirty kick #2.wav
448,192,121253,1,0,0:0:0:70:cymbal00.wav
192,192,121476,1,0,0:0:0:70:dirty kick #2.wav
448,192,121698,1,0,0:0:0:70:dirty kick #2.wav
64,192,121920,1,0,0:0:0:70:dirty kick #2.wav
320,192,122142,1,0,0:0:0:70:dirty kick #2.wav
192,192,122364,1,0,0:0:0:70:dirty kick #2.wav
448,192,122587,1,0,0:0:0:70:dirty kick #2.wav
320,192,122809,1,0,0:0:0:70:dirty kick #2.wav
64,192,123031,1,0,0:0:0:70:dirty kick #2.wav
192,192,123031,1,0,0:0:0:70:cymbal00.wav
448,192,123253,1,0,0:0:0:70:dirty kick #2.wav
64,192,123476,1,0,0:0:0:70:dirty kick #2.wav
320,192,123698,1,0,0:0:0:70:dirty kick #2.wav
192,192,123920,128,0,124364:0:0:0:70:dirty kick #2.wav
320,192,124364,128,0,124809:0:0:0:70:dirty kick #2.wav
64,192,124809,1,0,0:0:0:70:dirty kick #2.wav
192,192,124809,1,0,0:0:0:70:cymbal00.wav
320,192,125031,1,0,0:0:0:70:dirty kick #2.wav
64,192,125253,1,0,0:0:0:70:dirty kick #2.wav
448,192,125476,1,0,0:0:0:70:dirty kick #2.wav
64,192,125698,1,0,0:0:0:70:dirty kick #2.wav
192,192,125698,1,0,0:0:0:70:cymbal00.wav
320,192,125920,1,0,0:0:0:70:dirty kick #2.wav
64,192,126142,1,0,0:0:0:70:dirty kick #2.wav
192,192,126364,1,0,0:0:0:70:dirty kick #2.wav
320,192,126587,1,0,0:0:0:70:dirty kick #2.wav
448,192,126587,1,0,0:0:0:70:cymbal00.wav
64,192,126809,1,0,0:0:0:70:dirty kick #2.wav
192,192,126809,1,0,0:0:0:70:cymbal00.wav
448,192,127031,1,0,0:0:0:70:dirty kick #2.wav
64,192,127253,1,0,0:0:0:70:dirty kick #2.wav
192,192,127253,1,0,0:0:0:70:cymbal00.wav
320,192,127476,128,0,127698:0:0:0:0:
448,192,127698,128,0,127920:0:0:0:0:
64,192,127920,128,0,128142:0:0:0:0:
320,192,128142,128,0,128364:0:0:0:0:
