osu file format v14

[General]
AudioFilename: audio.mp3
AudioLeadIn: 0
PreviewTime: 48966
Countdown: 0
SampleSet: Drum
StackLeniency: 0.7
Mode: 3
LetterboxInBreaks: 0
SpecialStyle: 0
WidescreenStoryboard: 1

[Editor]
DistanceSpacing: 0.8
BeatDivisor: 2
GridSize: 32
TimelineZoom: 1

[Metadata]
Title:Tenshi (True Final Boss)
TitleUnicode:テンシ (True Final Boss)
Artist:Manabu Namiki
ArtistUnicode:並木学
Creator:Monheim
Version:MIPHATHER
Source:怒首領蜂最大往生
Tags:speedcore breakbeat hardcore chordjacks mwc20 mwc 2020 mania world cup 2020 soft5 mipha- wiosna shoegazer april civilization electronic instrumental FAMoss cvgs-001 special sound track DoDonPachi True Death Manabu Santaruru manabn CAVE Interactive CO., LTD. 株式会社ケイブ Brave Wave Productions Generation Series DoDonPachi SaiDaiOujou The Definitive Soundtrack GS-019 さんたるる DODONPACHI SAIDAIOUJOU / DODONPACHI MAXIMUM ORIGINAL SOUND TRACK CVST-0023 video game ost arcade
BeatmapID:3080865
BeatmapSetID:1503789

[Difficulty]
HPDrainRate:8
CircleSize:4
OverallDifficulty:8
ApproachRate:5
SliderMultiplier:1.4
SliderTickRate:1

[Events]
//Background and Video events
0,0,"tenshi.jpg",0,0
//Break Periods
//Storyboard Layer 0 (Background)
//Storyboard Layer 1 (Fail)
//Storyboard Layer 2 (Pass)
//Storyboard Layer 3 (Foreground)
//Storyboard Layer 4 (Overlay)
//Storyboard Sound Samples

[TimingPoints]
365,222.222222,4,3,1,60,1,0

[HitObjects]
192,192,365,5,0,0:0:0:70:dirty kick #2.wav
320,192,365,1,0,0:0:0:70:cymbal00.wav
448,192,365,1,0,0:0:0:0:
64,192,476,1,0,0:0:0:0:
448,192,587,1,0,0:0:0:0:
448,192,698,1,0,0:0:0:0:
64,192,809,1,0,0:0:0:70:electronic20.wav
320,192,809,1,0,0:0:0:0:
64,192,1253,1,0,0:0:0:0:
320,192,1253,1,0,0:0:0:0:
64,192,1364,1,0,0:0:0:0:
448,192,1476,1,0,0:0:0:0:
192,192,1587,1,0,0:0:0:70:electronic20.wav
448,192,1587,1,0,0:0:0:0:
320,192,1920,1,0,0:0:0:0:
192,192,2031,1,0,0:0:0:0:
64,192,2142,1,0,0:0:0:0:
320,192,2142,1,0,0:0:0:0:
192,192,2364,1,0,0:0:0:70:electronic20.wav
448,192,2364,1,0,0:0:0:0:
320,192,2587,1,0,0:0:0:0:
64,192,2698,1,0,0:0:0:0:
192,192,2809,1,0,0:0:0:70:electronic20.wav
448,192,2809,1,0,0:0:0:0:
64,192,3031,1,0,0:0:0:70:cymbal00.wav
320,192,3031,1,0,0:0:0:0:
448,192,3031,1,0,0:0:0:0:
192,192,3253,1,0,0:0:0:70:electronic20.wav
448,192,3253,1,0,0:0:0:0:
64,192,3364,1,0,0:0:0:70:cymbal00.wav
192,192,3364,1,0,0:0:0:0:
448,192,3364,1,0,0:0:0:0:
64,192,3698,1,0,0:0:0:70:electronic20.wav
320,192,3698,1,0,0:0:0:0:
64,192,3920,1,0,0:0:0:0:
320,192,3920,1,0,0:0:0:0:
64,192,4031,1,0,0:0:0:0:
64,192,4142,1,0,0:0:0:0:
448,192,4253,1,0,0:0:0:0:
192,192,4364,1,0,0:0:0:70:electronic20.wav
448,192,4364,1,0,0:0:0:0:
192,192,4698,1,0,0:0:0:0:
64,192,4809,1,0,0:0:0:0:
320,192,4809,1,0,0:0:0:0:
64,192,4920,1,0,0:0:0:0:
448,192,5031,1,0,0:0:0:0:
192,192,5142,1,0,0:0:0:70:electronic20.wav
448,192,5142,1,0,0:0:0:0:
320,192,5476,1,0,0:0:0:0:
192,192,5587,1,0,0:0:0:0:
64,192,5698,1,0,0:0:0:70:cymbal00.wav
320,192,5698,1,0,0:0:0:0:
448,192,5698,1,0,0:0:0:0:
192,192,5920,1,0,0:0:0:70:electronic20.wav
448,192,5920,1,0,0:0:0:0:
192,192,6031,1,0,0:0:0:0:
448,192,6031,1,0,0:0:0:0:
64,192,6031,1,0,0:0:0:70:cymbal00.wav
64,192,6364,1,0,0:0:0:70:electronic20.wav
320,192,6364,1,0,0:0:0:0:
192,192,6587,128,0,6809:0:0:0:0:
448,192,6809,1,0,0:0:0:0:
320,192,6864,1,0,0:0:0:0:
192,192,6920,1,0,0:0:0:0:
448,192,6976,1,0,0:0:0:0:
64,192,7031,128,0,7142:0:0:0:0:
448,192,7142,1,0,0:0:0:0:
320,192,7198,1,0,0:0:0:0:
64,192,7253,1,0,0:0:0:0:
192,192,7281,1,0,0:0:0:0:
448,192,7309,1,0,0:0:0:0:
320,192,7337,1,0,0:0:0:0:
64,192,7364,1,0,0:0:0:0:
192,192,7392,1,0,0:0:0:0:
448,192,7420,1,0,0:0:0:0:
320,192,7448,1,0,0:0:0:0:
64,192,7476,1,0,0:0:0:70:dirty kick #2 low.wav
192,192,7476,1,0,0:0:0:70:cymbal00.wav
64,192,7587,1,0,0:0:0:0:
192,192,7587,1,0,0:0:0:0:
64,192,7698,1,0,0:0:0:70:dirty kick #2 low.wav
320,192,7698,1,0,0:0:0:0:
448,192,7698,1,0,0:0:0:0:
192,192,7809,1,0,0:0:0:0:
320,192,7864,1,0,0:0:0:0:
192,192,7920,1,0,0:0:0:70:dirty kick #2 low.wav
448,192,7920,1,0,0:0:0:0:
64,192,8031,1,0,0:0:0:0:
320,192,8031,1,0,0:0:0:0:
64,192,8142,1,0,0:0:0:70:dirty kick #2 low.wav
192,192,8142,1,0,0:0:0:0:
320,192,8142,1,0,0:0:0:0:
448,192,8253,1,0,0:0:0:0:
320,192,8309,1,0,0:0:0:0:
64,192,8364,1,0,0:0:0:70:dirty kick #2 low.wav
192,192,8364,1,0,0:0:0:0:
64,192,8476,1,0,0:0:0:0:
320,192,8476,1,0,0:0:0:0:
192,192,8587,1,0,0:0:0:70:dirty kick #2 low.wav
320,192,8587,1,0,0:0:0:0:
448,192,8587,1,0,0:0:0:0:
64,192,8698,1,0,0:0:0:0:
448,192,8698,1,0,0:0:0:0:
64,192,8809,1,0,0:0:0:70:dirty kick #2 low.wav
320,192,8809,1,0,0:0:0:0:
192,192,8920,1,0,0:0:0:0:
448,192,8920,1,0,0:0:0:0:
192,192,9031,1,0,0:0:0:70:dirty kick #2 low.wav
320,192,9031,1,0,0:0:0:0:
448,192,9031,1,0,0:0:0:0:
64,192,9142,1,0,0:0:0:0:
192,192,9198,1,0,0:0:0:0:
320,192,9253,1,0,0:0:0:70:dirty kick #2 low.wav
448,192,9253,1,0,0:0:0:0:
64,192,9364,1,0,0:0:0:0:
448,192,9364,1,0,0:0:0:0:
64,192,9476,1,0,0:0:0:70:dirty kick #2 low.wav
320,192,9476,1,0,0:0:0:0:
448,192,9476,1,0,0:0:0:0:
192,192,9587,1,0,0:0:0:0:
320,192,9642,1,0,0:0:0:0:
192,192,9698,1,0,0:0:0:70:dirty kick #2 low.wav
448,192,9698,1,0,0:0:0:0:
64,192,9809,1,0,0:0:0:0:
320,192,9809,1,0,0:0:0:0:
64,192,9920,1,0,0:0:0:70:dirty kick #2 low.wav
192,192,9920,1,0,0:0:0:0:
320,192,9920,1,0,0:0:0:0:
448,192,10031,1,0,0:0:0:0:
320,192,10087,1,0,0:0:0:0:
64,192,10142,1,0,0:0:0:70:dirty kick #2 low.wav
192,192,10142,1,0,0:0:0:0:
64,192,10253,1,0,0:0:0:0:
320,192,10253,1,0,0:0:0:0:
192,192,10364,1,0,0:0:0:70:dirty kick #2 low.wav
320,192,10364,1,0,0:0:0:0:
448,192,10364,1,0,0:0:0:0:
64,192,10476,1,0,0:0:0:0:
448,192,10476,1,0,0:0:0:0:
64,192,10587,1,0,0:0:0:70:dirty kick #2 low.wav
320,192,10587,1,0,0:0:0:0:
192,192,10698,1,0,0:0:0:0:
448,192,10698,1,0,0:0:0:0:
192,192,10809,1,0,0:0:0:70:dirty kick #2 low.wav
320,192,10809,1,0,0:0:0:0:
448,192,10809,1,0,0:0:0:0:
64,192,10920,1,0,0:0:0:0:
192,192,10976,1,0,0:0:0:0:
320,192,11031,1,0,0:0:0:70:dirty kick #2 low.wav
448,192,11031,1,0,0:0:0:0:
64,192,11142,1,0,0:0:0:0:
448,192,11142,1,0,0:0:0:0:
64,192,11253,1,0,0:0:0:70:dirty kick #2 low.wav
320,192,11253,1,0,0:0:0:0:
448,192,11253,1,0,0:0:0:0:
192,192,11364,1,0,0:0:0:0:
320,192,11420,1,0,0:0:0:0:
192,192,11476,1,0,0:0:0:70:dirty kick #2 low.wav
448,192,11476,1,0,0:0:0:0:
64,192,11587,1,0,0:0:0:0:
320,192,11587,1,0,0:0:0:0:
64,192,11698,1,0,0:0:0:70:dirty kick #2 low.wav
192,192,11698,1,0,0:0:0:0:
320,192,11698,1,0,0:0:0:0:
448,192,11809,1,0,0:0:0:0:
320,192,11864,1,0,0:0:0:0:
64,192,11920,1,0,0:0:0:70:dirty kick #2 low.wav
192,192,11920,1,0,0:0:0:0:
64,192,12031,1,0,0:0:0:0:
320,192,12031,1,0,0:0:0:0:
64,192,12142,1,0,0:0:0:70:dirty kick #2 low.wav
192,192,12142,1,0,0:0:0:0:
448,192,12142,1,0,0:0:0:0:
320,192,12253,1,0,0:0:0:0:
192,192,12309,1,0,0:0:0:0:
64,192,12364,1,0,0:0:0:70:dirty kick #2 low.wav
320,192,12364,1,0,0:0:0:0:
192,192,12476,1,0,0:0:0:0:
448,192,12476,1,0,0:0:0:0:
192,192,12587,1,0,0:0:0:70:dirty kick #2 low.wav
320,192,12587,1,0,0:0:0:0:
448,192,12587,1,0,0:0:0:0:
64,192,12698,1,0,0:0:0:0:
192,192,12753,1,0,0:0:0:0:
320,192,12809,1,0,0:0:0:70:dirty kick #2 low.wav
448,192,12809,1,0,0:0:0:0:
64,192,12920,1,0,0:0:0:0:
448,192,12920,1,0,0:0:0:0:
64,192,13031,1,0,0:0:0:70:dirty kick #2 low.wav
320,192,13031,1,0,0:0:0:0:
448,192,13031,1,0,0:0:0:0:
192,192,13142,1,0,0:0:0:0:
320,192,13198,1,0,0:0:0:0:
192,192,13253,1,0,0:0:0:70:dirty kick #2 low.wav
448,192,13253,1,0,0:0:0:0:
64,192,13364,1,0,0:0:0:0:
320,192,13364,1,0,0:0:0:0:
64,192,13476,1,0,0:0:0:70:dirty kick #2 low.wav
192,192,13476,1,0,0:0:0:0:
320,192,13476,1,0,0:0:0:0:
448,192,13587,1,0,0:0:0:0:
320,192,13642,1,0,0:0:0:0:
64,192,13698,1,0,0:0:0:70:dirty kick #2 low.wav
192,192,13698,1,0,0:0:0:0:
64,192,13809,1,0,0:0:0:0:
320,192,13809,1,0,0:0:0:0:
192,192,13920,1,0,0:0:0:70:dirty kick #2 low.wav
320,192,13920,1,0,0:0:0:0:
448,192,13920,1,0,0:0:0:0:
64,192,14031,1,0,0:0:0:0:
448,192,14031,1,0,0:0:0:0:
64,192,14142,1,0,0:0:0:70:dirty kick #2 low.wav
320,192,14142,1,0,0:0:0:0:
192,192,14253,1,0,0:0:0:0:
448,192,14253,1,0,0:0:0:0:
192,192,14364,1,0,0:0:0:70:dirty kick #2 low.wav
320,192,14364,1,0,0:0:0:0:
448,192,14364,1,0,0:0:0:0:
64,192,14476,1,0,0:0:0:0:
192,192,14531,1,0,0:0:0:0:
320,192,14587,1,0,0:0:0:70:dirty kick #2 low.wav
448,192,14587,1,0,0:0:0:0:
64,192,14698,1,0,0:0:0:0:
448,192,14698,1,0,0:0:0:0:
64,192,14809,1,0,0:0:0:70:dirty kick #2 low.wav
320,192,14809,1,0,0:0:0:0:
448,192,14809,1,0,0:0:0:0:
192,192,14920,1,0,0:0:0:0:
320,192,14976,1,0,0:0:0:0:
192,192,15031,1,0,0:0:0:70:dirty kick #2 low.wav
448,192,15031,1,0,0:0:0:0:
64,192,15142,1,0,0:0:0:0:
320,192,15142,1,0,0:0:0:0:
64,192,15253,1,0,0:0:0:70:dirty kick #2 low.wav
192,192,15253,1,0,0:0:0:0:
320,192,15253,1,0,0:0:0:0:
448,192,15364,1,0,0:0:0:0:
320,192,15420,1,0,0:0:0:0:
64,192,15476,1,0,0:0:0:70:dirty kick #2 low.wav
192,192,15476,1,0,0:0:0:0:
64,192,15587,1,0,0:0:0:0:
320,192,15587,1,0,0:0:0:0:
192,192,15698,1,0,0:0:0:70:dirty kick #2 low.wav
320,192,15698,1,0,0:0:0:0:
448,192,15698,1,0,0:0:0:0:
64,192,15809,1,0,0:0:0:0:
448,192,15809,1,0,0:0:0:0:
64,192,15920,1,0,0:0:0:70:dirty kick #2 low.wav
320,192,15920,1,0,0:0:0:0:
192,192,16031,1,0,0:0:0:0:
448,192,16031,1,0,0:0:0:0:
192,192,16142,1,0,0:0:0:70:dirty kick #2 low.wav
320,192,16142,1,0,0:0:0:0:
448,192,16142,1,0,0:0:0:0:
64,192,16253,1,0,0:0:0:0:
192,192,16309,1,0,0:0:0:0:
320,192,16364,1,0,0:0:0:70:dirty kick #2 low.wav
448,192,16364,1,0,0:0:0:0:
64,192,16476,1,0,0:0:0:0:
448,192,16476,1,0,0:0:0:0:
64,192,16587,1,0,0:0:0:70:dirty kick #2 low.wav
320,192,16587,1,0,0:0:0:0:
448,192,16587,1,0,0:0:0:0:
192,192,16698,1,0,0:0:0:0:
320,192,16753,1,0,0:0:0:0:
192,192,16809,1,0,0:0:0:70:dirty kick #2 low.wav
448,192,16809,1,0,0:0:0:0:
64,192,16920,1,0,0:0:0:0:
320,192,16920,1,0,0:0:0:0:
64,192,17031,1,0,0:0:0:70:dirty kick #2 low.wav
192,192,17031,1,0,0:0:0:0:
320,192,17031,1,0,0:0:0:0:
448,192,17142,1,0,0:0:0:0:
320,192,17198,1,0,0:0:0:0:
64,192,17253,1,0,0:0:0:70:dirty kick #2 low.wav
192,192,17253,1,0,0:0:0:0:
64,192,17364,1,0,0:0:0:0:
320,192,17364,1,0,0:0:0:0:
192,192,17476,1,0,0:0:0:70:dirty kick #2 low.wav
320,192,17476,1,0,0:0:0:0:
448,192,17476,1,0,0:0:0:0:
64,192,17587,1,0,0:0:0:0:
448,192,17587,1,0,0:0:0:0:
64,192,17698,1,0,0:0:0:70:dirty kick #2 low.wav
320,192,17698,1,0,0:0:0:0:
192,192,17809,1,0,0:0:0:0:
448,192,17809,1,0,0:0:0:0:
192,192,17920,1,0,0:0:0:70:dirty kick #2 low.wav
320,192,17920,1,0,0:0:0:0:
448,192,17920,1,0,0:0:0:0:
64,192,18031,1,0,0:0:0:0:
192,192,18087,1,0,0:0:0:0:
320,192,18142,1,0,0:0:0:70:dirty kick #2 low.wav
448,192,18142,1,0,0:0:0:0:
64,192,18253,1,0,0:0:0:0:
448,192,18253,1,0,0:0:0:0:
64,192,18364,1,0,0:0:0:70:dirty kick #2 low.wav
320,192,18364,1,0,0:0:0:0:
448,192,18364,1,0,0:0:0:0:
192,192,18476,1,0,0:0:0:0:
320,192,18531,1,0,0:0:0:0:
192,192,18587,1,0,0:0:0:70:dirty kick #2 low.wav
448,192,18587,1,0,0:0:0:0:
64,192,18698,1,0,0:0:0:0:
320,192,18698,1,0,0:0:0:0:
64,192,18809,1,0,0:0:0:70:dirty kick #2 low.wav
192,192,18809,1,0,0:0:0:0:
320,192,18809,1,0,0:0:0:0:
448,192,18920,1,0,0:0:0:0:
320,192,18976,1,0,0:0:0:0:
64,192,19031,1,0,0:0:0:70:dirty kick #2 low.wav
192,192,19031,1,0,0:0:0:0:
64,192,19142,1,0,0:0:0:0:
320,192,19142,1,0,0:0:0:0:
64,192,19253,1,0,0:0:0:70:dirty kick #2 low.wav
192,192,19253,1,0,0:0:0:0:
448,192,19253,1,0,0:0:0:0:
320,192,19364,1,0,0:0:0:0:
192,192,19420,1,0,0:0:0:0:
64,192,19476,1,0,0:0:0:70:dirty kick #2 low.wav
320,192,19476,1,0,0:0:0:0:
192,192,19587,1,0,0:0:0:0:
448,192,19587,1,0,0:0:0:0:
192,192,19698,1,0,0:0:0:70:dirty kick #2 low.wav
320,192,19698,1,0,0:0:0:0:
448,192,19698,1,0,0:0:0:0:
64,192,19809,1,0,0:0:0:0:
192,192,19864,1,0,0:0:0:0:
320,192,19920,1,0,0:0:0:70:dirty kick #2 low.wav
448,192,19920,1,0,0:0:0:0:
64,192,20031,1,0,0:0:0:0:
448,192,20031,1,0,0:0:0:0:
64,192,20142,1,0,0:0:0:70:dirty kick #2 low.wav
320,192,20142,1,0,0:0:0:0:
448,192,20142,1,0,0:0:0:0:
192,192,20253,1,0,0:0:0:0:
320,192,20309,1,0,0:0:0:0:
192,192,20364,1,0,0:0:0:70:dirty kick #2 low.wav
448,192,20364,1,0,0:0:0:0:
64,192,20476,1,0,0:0:0:0:
320,192,20476,1,0,0:0:0:0:
64,192,20587,1,0,0:0:0:70:dirty kick #2 low.wav
192,192,20587,1,0,0:0:0:0:
448,192,20587,1,0,0:0:0:0:
320,192,20698,1,0,0:0:0:0:
448,192,20753,1,0,0:0:0:0:
64,192,20809,1,0,0:0:0:0:
192,192,20809,1,0,0:0:0:0:
320,192,20864,1,0,0:0:0:0:
448,192,20920,1,0,0:0:0:0:
64,192,20976,1,0,0:0:0:0:
192,192,21031,1,0,0:0:0:0:
320,192,21087,1,0,0:0:0:0:
192,192,21142,1,0,0:0:0:0:
320,192,21198,1,0,0:0:0:0:
448,192,21253,1,0,0:0:0:0:
320,192,21364,1,0,0:0:0:0:
192,192,21420,1,0,0:0:0:0:
320,192,21476,1,0,0:0:0:0:
448,192,21587,1,0,0:0:0:0:
64,192,21642,1,0,0:0:0:0:
192,192,21698,1,0,0:0:0:70:dirty kick #2.wav
320,192,21698,1,0,0:0:0:70:cymbal00.wav
448,192,21698,1,0,0:0:0:0:
64,192,21809,1,0,0:0:0:0:
192,192,21809,1,0,0:0:0:0:
64,192,21920,1,0,0:0:0:70:dirty kick #2.wav
192,192,21920,1,0,0:0:0:0:
448,192,21920,1,0,0:0:0:0:
320,192,22031,1,0,0:0:0:0:
448,192,22031,1,0,0:0:0:0:
64,192,22142,1,0,0:0:0:70:dirty kick #2.wav
320,192,22142,1,0,0:0:0:0:
448,192,22142,1,0,0:0:0:0:
64,192,22253,1,0,0:0:0:0:
192,192,22253,1,0,0:0:0:0:
320,192,22309,1,0,0:0:0:0:
64,192,22364,1,0,0:0:0:70:dirty kick #2.wav
192,192,22364,1,0,0:0:0:0:
448,192,22364,1,0,0:0:0:0:
320,192,22476,1,0,0:0:0:0:
448,192,22476,1,0,0:0:0:0:
192,192,22531,1,0,0:0:0:0:
64,192,22587,1,0,0:0:0:70:dirty kick #2.wav
320,192,22587,1,0,0:0:0:0:
448,192,22587,1,0,0:0:0:0:
64,192,22698,1,0,0:0:0:0:
192,192,22698,1,0,0:0:0:0:
64,192,22809,1,0,0:0:0:70:dirty kick #2.wav
192,192,22809,1,0,0:0:0:0:
448,192,22809,1,0,0:0:0:0:
320,192,22920,1,0,0:0:0:0:
448,192,22920,1,0,0:0:0:0:
64,192,23031,1,0,0:0:0:70:dirty kick #2.wav
320,192,23031,1,0,0:0:0:0:
448,192,23031,1,0,0:0:0:0:
64,192,23142,1,0,0:0:0:0:
192,192,23142,1,0,0:0:0:0:
64,192,23253,1,0,0:0:0:70:dirty kick #2.wav
192,192,23253,1,0,0:0:0:0:
448,192,23253,1,0,0:0:0:0:
320,192,23364,1,0,0:0:0:0:
448,192,23364,1,0,0:0:0:0:
64,192,23476,1,0,0:0:0:70:dirty kick #2.wav
192,192,23476,1,0,0:0:0:0:
448,192,23476,1,0,0:0:0:0:
64,192,23587,1,0,0:0:0:0:
320,192,23587,1,0,0:0:0:0:
64,192,23698,1,0,0:0:0:70:dirty kick #2.wav
320,192,23698,1,0,0:0:0:0:
448,192,23698,1,0,0:0:0:0:
192,192,23809,1,0,0:0:0:0:
448,192,23809,1,0,0:0:0:0:
64,192,23920,1,0,0:0:0:70:dirty kick #2.wav
192,192,23920,1,0,0:0:0:0:
448,192,23920,1,0,0:0:0:0:
64,192,24031,1,0,0:0:0:0:
192,192,24031,1,0,0:0:0:0:
320,192,24087,1,0,0:0:0:0:
64,192,24142,1,0,0:0:0:70:dirty kick #2.wav
192,192,24142,1,0,0:0:0:0:
448,192,24142,1,0,0:0:0:0:
320,192,24253,1,0,0:0:0:0:
448,192,24253,1,0,0:0:0:0:
192,192,24309,1,0,0:0:0:0:
64,192,24364,1,0,0:0:0:70:dirty kick #2.wav
320,192,24364,1,0,0:0:0:0:
448,192,24364,1,0,0:0:0:0:
64,192,24476,1,0,0:0:0:0:
320,192,24476,1,0,0:0:0:0:
192,192,24587,1,0,0:0:0:70:dirty kick #2.wav
320,192,24587,1,0,0:0:0:0:
448,192,24587,1,0,0:0:0:0:
64,192,24698,1,0,0:0:0:0:
192,192,24698,1,0,0:0:0:0:
64,192,24809,1,0,0:0:0:70:dirty kick #2.wav
320,192,24809,1,0,0:0:0:0:
448,192,24809,1,0,0:0:0:0:
192,192,24920,1,0,0:0:0:0:
448,192,24920,1,0,0:0:0:0:
64,192,25031,1,0,0:0:0:70:dirty kick #2.wav
192,192,25031,1,0,0:0:0:0:
320,192,25031,1,0,0:0:0:0:
64,192,25142,1,0,0:0:0:0:
448,192,25142,1,0,0:0:0:0:
64,192,25253,1,0,0:0:0:70:dirty kick #2.wav
192,192,25253,1,0,0:0:0:0:
320,192,25253,1,0,0:0:0:0:
320,192,25364,1,0,0:0:0:0:
448,192,25364,1,0,0:0:0:0:
192,192,25476,1,0,0:0:0:70:dirty kick #2.wav
320,192,25476,1,0,0:0:0:0:
448,192,25476,1,0,0:0:0:0:
64,192,25587,1,0,0:0:0:0:
192,192,25587,1,0,0:0:0:0:
64,192,25698,1,0,0:0:0:70:dirty kick #2.wav
192,192,25698,1,0,0:0:0:0:
320,192,25698,1,0,0:0:0:0:
320,192,25809,1,0,0:0:0:0:
448,192,25809,1,0,0:0:0:0:
64,192,25864,1,0,0:0:0:0:
192,192,25920,1,0,0:0:0:70:dirty kick #2.wav
320,192,25920,1,0,0:0:0:0:
448,192,25920,1,0,0:0:0:0:
64,192,26031,1,0,0:0:0:0:
192,192,26031,1,0,0:0:0:0:
448,192,26087,1,0,0:0:0:0:
64,192,26142,1,0,0:0:0:70:dirty kick #2.wav
192,192,26142,1,0,0:0:0:0:
320,192,26142,1,0,0:0:0:0:
320,192,26253,1,0,0:0:0:0:
448,192,26253,1,0,0:0:0:0:
192,192,26364,1,0,0:0:0:70:dirty kick #2.wav
320,192,26364,1,0,0:0:0:0:
448,192,26364,1,0,0:0:0:0:
64,192,26476,1,0,0:0:0:0:
192,192,26476,1,0,0:0:0:0:
64,192,26587,1,0,0:0:0:70:dirty kick #2.wav
192,192,26587,1,0,0:0:0:0:
320,192,26587,1,0,0:0:0:0:
320,192,26698,1,0,0:0:0:0:
448,192,26698,1,0,0:0:0:0:
192,192,26809,1,0,0:0:0:70:dirty kick #2.wav
320,192,26809,1,0,0:0:0:0:
448,192,26809,1,0,0:0:0:0:
64,192,26920,1,0,0:0:0:0:
192,192,26920,1,0,0:0:0:0:
64,192,27031,1,0,0:0:0:70:dirty kick #2.wav
320,192,27031,1,0,0:0:0:0:
448,192,27031,1,0,0:0:0:0:
64,192,27142,1,0,0:0:0:0:
320,192,27142,1,0,0:0:0:0:
64,192,27253,1,0,0:0:0:70:dirty kick #2.wav
192,192,27253,1,0,0:0:0:0:
448,192,27253,1,0,0:0:0:0:
192,192,27364,1,0,0:0:0:0:
448,192,27364,1,0,0:0:0:0:
64,192,27476,1,0,0:0:0:70:dirty kick #2.wav
320,192,27476,1,0,0:0:0:0:
448,192,27476,1,0,0:0:0:0:
64,192,27587,1,0,0:0:0:0:
192,192,27587,1,0,0:0:0:0:
448,192,27642,1,0,0:0:0:0:
64,192,27698,1,0,0:0:0:70:dirty kick #2.wav
192,192,27698,1,0,0:0:0:0:
320,192,27698,1,0,0:0:0:0:
320,192,27809,1,0,0:0:0:0:
448,192,27809,1,0,0:0:0:0:
64,192,27864,1,0,0:0:0:0:
192,192,27920,1,0,0:0:0:0:
320,192,27920,1,0,0:0:0:0:
448,192,27920,1,0,0:0:0:0:
64,192,28031,1,0,0:0:0:0:
192,192,28142,1,0,0:0:0:0:
64,192,28198,1,0,0:0:0:0:
448,192,28253,1,0,0:0:0:0:
192,192,28364,1,0,0:0:0:0:
320,192,28476,1,0,0:0:0:0:
192,192,28587,1,0,0:0:0:0:
64,192,28642,1,0,0:0:0:0:
448,192,28698,1,0,0:0:0:0:
64,192,28809,1,0,0:0:0:70:dirty kick #2.wav
320,192,28809,1,0,0:0:0:0:
448,192,28809,1,0,0:0:0:0:
64,192,28920,1,0,0:0:0:0:
192,192,28920,1,0,0:0:0:0:
64,192,29031,1,0,0:0:0:70:dirty kick #2.wav
192,192,29031,1,0,0:0:0:0:
448,192,29031,1,0,0:0:0:0:
320,192,29142,1,0,0:0:0:0:
448,192,29142,1,0,0:0:0:0:
64,192,29253,1,0,0:0:0:70:dirty kick #2.wav
320,192,29253,1,0,0:0:0:0:
448,192,29253,1,0,0:0:0:0:
64,192,29364,1,0,0:0:0:0:
192,192,29364,1,0,0:0:0:0:
320,192,29420,1,0,0:0:0:0:
64,192,29476,1,0,0:0:0:70:dirty kick #2.wav
192,192,29476,1,0,0:0:0:0:
448,192,29476,1,0,0:0:0:0:
320,192,29587,1,0,0:0:0:0:
448,192,29587,1,0,0:0:0:0:
192,192,29642,1,0,0:0:0:0:
64,192,29698,1,0,0:0:0:70:dirty kick #2.wav
320,192,29698,1,0,0:0:0:0:
448,192,29698,1,0,0:0:0:0:
64,192,29809,1,0,0:0:0:0:
192,192,29809,1,0,0:0:0:0:
64,192,29920,1,0,0:0:0:70:dirty kick #2.wav
192,192,29920,1,0,0:0:0:0:
448,192,29920,1,0,0:0:0:0:
320,192,30031,1,0,0:0:0:0:
448,192,30031,1,0,0:0:0:0:
64,192,30142,1,0,0:0:0:70:dirty kick #2.wav
320,192,30142,1,0,0:0:0:0:
448,192,30142,1,0,0:0:0:0:
64,192,30253,1,0,0:0:0:0:
192,192,30253,1,0,0:0:0:0:
64,192,30364,1,0,0:0:0:70:dirty kick #2.wav
192,192,30364,1,0,0:0:0:0:
448,192,30364,1,0,0:0:0:0:
320,192,30476,1,0,0:0:0:0:
448,192,30476,1,0,0:0:0:0:
64,192,30587,1,0,0:0:0:70:dirty kick #2.wav
192,192,30587,1,0,0:0:0:0:
448,192,30587,1,0,0:0:0:0:
64,192,30698,1,0,0:0:0:0:
320,192,30698,1,0,0:0:0:0:
64,192,30809,1,0,0:0:0:70:dirty kick #2.wav
320,192,30809,1,0,0:0:0:0:
448,192,30809,1,0,0:0:0:0:
192,192,30920,1,0,0:0:0:0:
448,192,30920,1,0,0:0:0:0:
64,192,31031,1,0,0:0:0:70:dirty kick #2.wav
192,192,31031,1,0,0:0:0:0:
448,192,31031,1,0,0:0:0:0:
64,192,31142,1,0,0:0:0:0:
192,192,31142,1,0,0:0:0:0:
320,192,31198,1,0,0:0:0:0:
64,192,31253,1,0,0:0:0:70:dirty kick #2.wav
192,192,31253,1,0,0:0:0:0:
448,192,31253,1,0,0:0:0:0:
320,192,31364,1,0,0:0:0:0:
448,192,31364,1,0,0:0:0:0:
192,192,31420,1,0,0:0:0:0:
64,192,31476,1,0,0:0:0:70:dirty kick #2.wav
320,192,31476,1,0,0:0:0:0:
448,192,31476,1,0,0:0:0:0:
64,192,31587,1,0,0:0:0:0:
320,192,31587,1,0,0:0:0:0:
192,192,31698,1,0,0:0:0:70:dirty kick #2.wav
320,192,31698,1,0,0:0:0:0:
448,192,31698,1,0,0:0:0:0:
64,192,31809,1,0,0:0:0:0:
192,192,31809,1,0,0:0:0:0:
64,192,31920,1,0,0:0:0:70:dirty kick #2.wav
320,192,31920,1,0,0:0:0:0:
448,192,31920,1,0,0:0:0:0:
192,192,32031,1,0,0:0:0:0:
448,192,32031,1,0,0:0:0:0:
64,192,32142,1,0,0:0:0:70:dirty kick #2.wav
192,192,32142,1,0,0:0:0:0:
320,192,32142,1,0,0:0:0:0:
64,192,32253,1,0,0:0:0:0:
448,192,32253,1,0,0:0:0:0:
64,192,32364,1,0,0:0:0:70:dirty kick #2.wav
192,192,32364,1,0,0:0:0:0:
320,192,32364,1,0,0:0:0:0:
320,192,32476,1,0,0:0:0:0:
448,192,32476,1,0,0:0:0:0:
192,192,32587,1,0,0:0:0:70:dirty kick #2.wav
320,192,32587,1,0,0:0:0:0:
448,192,32587,1,0,0:0:0:0:
64,192,32698,1,0,0:0:0:0:
192,192,32698,1,0,0:0:0:0:
64,192,32809,1,0,0:0:0:70:dirty kick #2.wav
192,192,32809,1,0,0:0:0:0:
320,192,32809,1,0,0:0:0:0:
320,192,32920,1,0,0:0:0:0:
448,192,32920,1,0,0:0:0:0:
64,192,32976,1,0,0:0:0:0:
192,192,33031,1,0,0:0:0:70:dirty kick #2.wav
320,192,33031,1,0,0:0:0:0:
448,192,33031,1,0,0:0:0:0:
64,192,33142,1,0,0:0:0:0:
192,192,33142,1,0,0:0:0:0:
448,192,33198,1,0,0:0:0:0:
64,192,33253,1,0,0:0:0:70:dirty kick #2.wav
192,192,33253,1,0,0:0:0:0:
320,192,33253,1,0,0:0:0:0:
320,192,33364,1,0,0:0:0:0:
448,192,33364,1,0,0:0:0:0:
192,192,33476,1,0,0:0:0:70:dirty kick #2.wav
320,192,33476,1,0,0:0:0:0:
448,192,33476,1,0,0:0:0:0:
64,192,33587,1,0,0:0:0:0:
192,192,33587,1,0,0:0:0:0:
64,192,33698,1,0,0:0:0:70:dirty kick #2.wav
192,192,33698,1,0,0:0:0:0:
320,192,33698,1,0,0:0:0:0:
320,192,33809,1,0,0:0:0:0:
448,192,33809,1,0,0:0:0:0:
192,192,33920,1,0,0:0:0:70:dirty kick #2.wav
320,192,33920,1,0,0:0:0:0:
448,192,33920,1,0,0:0:0:0:
64,192,34031,1,0,0:0:0:0:
192,192,34031,1,0,0:0:0:0:
64,192,34142,1,0,0:0:0:70:dirty kick #2.wav
320,192,34142,1,0,0:0:0:0:
448,192,34142,1,0,0:0:0:0:
64,192,34253,1,0,0:0:0:0:
320,192,34253,1,0,0:0:0:0:
64,192,34364,1,0,0:0:0:70:dirty kick #2.wav
192,192,34364,1,0,0:0:0:0:
448,192,34364,1,0,0:0:0:0:
192,192,34476,1,0,0:0:0:0:
448,192,34476,1,0,0:0:0:0:
64,192,34587,1,0,0:0:0:70:dirty kick #2.wav
320,192,34587,1,0,0:0:0:0:
448,192,34587,1,0,0:0:0:0:
64,192,34698,1,0,0:0:0:0:
192,192,34698,1,0,0:0:0:0:
448,192,34753,1,0,0:0:0:0:
64,192,34809,1,0,0:0:0:70:dirty kick #2.wav
192,192,34809,1,0,0:0:0:0:
320,192,34809,1,0,0:0:0:0:
320,192,34920,1,0,0:0:0:0:
448,192,34920,1,0,0:0:0:0:
64,192,34976,1,0,0:0:0:0:
192,192,35031,1,0,0:0:0:70:dirty kick #2 low.wav
320,192,35031,1,0,0:0:0:70:cymbal00.wav
448,192,35031,1,0,0:0:0:0:
64,192,35142,1,0,0:0:0:0:
192,192,35142,1,0,0:0:0:0:
448,192,35142,1,0,0:0:0:0:
64,192,35253,1,0,0:0:0:70:dirty kick #2 low.wav
192,192,35253,1,0,0:0:0:70:cymbal00.wav
320,192,35253,1,0,0:0:0:0:
64,192,35364,1,0,0:0:0:0:
320,192,35364,1,0,0:0:0:0:
448,192,35364,1,0,0:0:0:0:
192,192,35476,1,0,0:0:0:70:dirty kick #2 low.wav
320,192,35531,1,0,0:0:0:0:
192,192,35587,1,0,0:0:0:0:
320,192,35642,1,0,0:0:0:0:
64,192,35698,1,0,0:0:0:70:dirty kick #2 low.wav
192,192,35698,1,0,0:0:0:70:cymbal00.wav
448,192,35698,1,0,0:0:0:0:
64,192,35920,1,0,0:0:0:70:dirty kick #2.wav
320,192,35920,1,0,0:0:0:70:cymbal00.wav
448,192,35920,1,0,0:0:0:0:
64,192,36031,1,0,0:0:0:0:
192,192,36142,1,0,0:0:0:70:dirty kick #2.wav
320,192,36142,1,0,0:0:0:0:
448,192,36142,1,0,0:0:0:0:
448,192,36253,1,0,0:0:0:0:
64,192,36364,1,0,0:0:0:70:dirty kick #2.wav
192,192,36364,1,0,0:0:0:0:
320,192,36364,1,0,0:0:0:0:
192,192,36476,1,0,0:0:0:0:
64,192,36587,1,0,0:0:0:70:dirty kick #2.wav
320,192,36587,1,0,0:0:0:0:
448,192,36587,1,0,0:0:0:0:
64,192,36698,1,0,0:0:0:0:
192,192,36809,1,0,0:0:0:70:dirty kick #2.wav
320,192,36809,1,0,0:0:0:0:
448,192,36809,1,0,0:0:0:0:
320,192,36920,1,0,0:0:0:0:
448,192,36920,1,0,0:0:0:0:
64,192,37031,1,0,0:0:0:70:dirty kick #2.wav
192,192,37031,1,0,0:0:0:0:
448,192,37031,1,0,0:0:0:0:
64,192,37142,1,0,0:0:0:0:
192,192,37253,1,0,0:0:0:70:dirty kick #2.wav
320,192,37253,1,0,0:0:0:0:
448,192,37253,1,0,0:0:0:0:
448,192,37364,1,0,0:0:0:0:
64,192,37476,1,0,0:0:0:70:dirty kick #2.wav
192,192,37476,1,0,0:0:0:0:
320,192,37476,1,0,0:0:0:0:
320,192,37587,1,0,0:0:0:0:
64,192,37698,1,0,0:0:0:70:dirty kick #2.wav
192,192,37698,1,0,0:0:0:0:
448,192,37698,1,0,0:0:0:0:
64,192,37809,1,0,0:0:0:0:
192,192,37920,1,0,0:0:0:70:dirty kick #2.wav
320,192,37920,1,0,0:0:0:0:
448,192,37920,1,0,0:0:0:0:
448,192,38031,1,0,0:0:0:0:
64,192,38142,1,0,0:0:0:70:dirty kick #2.wav
192,192,38142,1,0,0:0:0:0:
320,192,38142,1,0,0:0:0:0:
192,192,38253,1,0,0:0:0:0:
64,192,38364,1,0,0:0:0:70:dirty kick #2.wav
320,192,38364,1,0,0:0:0:0:
448,192,38364,1,0,0:0:0:0:
192,192,38420,1,0,0:0:0:0:
320,192,38476,1,0,0:0:0:0:
64,192,38587,1,0,0:0:0:70:dirty kick #2.wav
192,192,38587,1,0,0:0:0:0:
448,192,38587,1,0,0:0:0:0:
320,192,38698,1,0,0:0:0:0:
192,192,38753,1,0,0:0:0:0:
64,192,38809,1,0,0:0:0:70:dirty kick #2.wav
320,192,38809,1,0,0:0:0:0:
448,192,38809,1,0,0:0:0:0:
448,192,38920,1,0,0:0:0:0:
64,192,39031,1,0,0:0:0:70:dirty kick #2.wav
192,192,39031,1,0,0:0:0:0:
320,192,39031,1,0,0:0:0:0:
64,192,39142,1,0,0:0:0:0:
192,192,39253,1,0,0:0:0:70:dirty kick #2.wav
320,192,39253,1,0,0:0:0:0:
448,192,39253,1,0,0:0:0:0:
64,192,39364,1,0,0:0:0:0:
192,192,39420,1,0,0:0:0:0:
64,192,39476,1,0,0:0:0:70:dirty kick #2.wav
320,192,39476,1,0,0:0:0:0:
448,192,39476,1,0,0:0:0:0:
448,192,39587,1,0,0:0:0:0:
64,192,39698,1,0,0:0:0:70:dirty kick #2.wav
192,192,39698,1,0,0:0:0:0:
320,192,39698,1,0,0:0:0:0:
64,192,39809,1,0,0:0:0:0:
192,192,39920,1,0,0:0:0:70:dirty kick #2.wav
320,192,39920,1,0,0:0:0:0:
448,192,39920,1,0,0:0:0:0:
448,192,40031,1,0,0:0:0:0:
64,192,40142,1,0,0:0:0:70:dirty kick #2.wav
192,192,40142,1,0,0:0:0:0:
320,192,40142,1,0,0:0:0:0:
320,192,40253,1,0,0:0:0:0:
64,192,40364,1,0,0:0:0:70:dirty kick #2.wav
192,192,40364,1,0,0:0:0:0:
448,192,40364,1,0,0:0:0:0:
64,192,40476,1,0,0:0:0:0:
192,192,40476,1,0,0:0:0:0:
64,192,40587,1,0,0:0:0:70:dirty kick #2.wav
320,192,40587,1,0,0:0:0:0:
448,192,40587,1,0,0:0:0:0:
320,192,40698,1,0,0:0:0:0:
64,192,40809,1,0,0:0:0:70:dirty kick #2.wav
192,192,40809,1,0,0:0:0:0:
448,192,40809,1,0,0:0:0:0:
192,192,40920,1,0,0:0:0:0:
64,192,41031,1,0,0:0:0:70:dirty kick #2.wav
320,192,41031,1,0,0:0:0:0:
448,192,41031,1,0,0:0:0:0:
192,192,41142,1,0,0:0:0:0:
64,192,41198,1,0,0:0:0:0:
192,192,41253,1,0,0:0:0:70:dirty kick #2.wav
320,192,41253,1,0,0:0:0:0:
448,192,41253,1,0,0:0:0:0:
448,192,41364,1,0,0:0:0:0:
64,192,41476,1,0,0:0:0:70:dirty kick #2.wav
192,192,41476,1,0,0:0:0:0:
320,192,41476,1,0,0:0:0:0:
64,192,41587,1,0,0:0:0:0:
192,192,41698,1,0,0:0:0:70:dirty kick #2.wav
320,192,41698,1,0,0:0:0:0:
448,192,41698,1,0,0:0:0:0:
448,192,41809,1,0,0:0:0:0:
64,192,41920,1,0,0:0:0:70:dirty kick #2.wav
192,192,41920,1,0,0:0:0:0:
320,192,41920,1,0,0:0:0:0:
448,192,41976,1,0,0:0:0:0:
64,192,42031,1,0,0:0:0:0:
448,192,42142,1,0,0:0:0:0:
192,192,42253,1,0,0:0:0:0:
448,192,42364,1,0,0:0:0:0:
192,192,42476,1,0,0:0:0:0:
320,192,42587,1,0,0:0:0:0:
192,192,42698,1,0,0:0:0:0:
320,192,42809,1,0,0:0:0:0:
192,192,42920,1,0,0:0:0:0:
64,192,43031,1,0,0:0:0:70:dirty kick #2.wav
320,192,43031,1,0,0:0:0:0:
448,192,43031,1,0,0:0:0:0:
64,192,43142,1,0,0:0:0:0:
192,192,43253,1,0,0:0:0:70:dirty kick #2.wav
320,192,43253,1,0,0:0:0:0:
448,192,43253,1,0,0:0:0:0:
448,192,43364,1,0,0:0:0:0:
64,192,43476,1,0,0:0:0:70:dirty kick #2.wav
192,192,43476,1,0,0:0:0:0:
320,192,43476,1,0,0:0:0:0:
192,192,43587,1,0,0:0:0:0:
64,192,43698,1,0,0:0:0:70:dirty kick #2.wav
320,192,43698,1,0,0:0:0:0:
448,192,43698,1,0,0:0:0:0:
64,192,43809,1,0,0:0:0:0:
192,192,43920,1,0,0:0:0:70:dirty kick #2.wav
320,192,43920,1,0,0:0:0:0:
448,192,43920,1,0,0:0:0:0:
320,192,44031,1,0,0:0:0:0:
448,192,44031,1,0,0:0:0:0:
64,192,44142,1,0,0:0:0:70:dirty kick #2.wav
192,192,44142,1,0,0:0:0:0:
448,192,44142,1,0,0:0:0:0:
64,192,44253,1,0,0:0:0:0:
192,192,44364,1,0,0:0:0:70:dirty kick #2.wav
320,192,44364,1,0,0:0:0:0:
448,192,44364,1,0,0:0:0:0:
448,192,44476,1,0,0:0:0:0:
64,192,44587,1,0,0:0:0:70:dirty kick #2.wav
192,192,44587,1,0,0:0:0:0:
320,192,44587,1,0,0:0:0:0:
320,192,44698,1,0,0:0:0:0:
64,192,44809,1,0,0:0:0:70:dirty kick #2.wav
192,192,44809,1,0,0:0:0:0:
448,192,44809,1,0,0:0:0:0:
64,192,44920,1,0,0:0:0:0:
192,192,45031,1,0,0:0:0:70:dirty kick #2.wav
320,192,45031,1,0,0:0:0:0:
448,192,45031,1,0,0:0:0:0:
448,192,45142,1,0,0:0:0:0:
64,192,45253,1,0,0:0:0:70:dirty kick #2.wav
192,192,45253,1,0,0:0:0:0:
320,192,45253,1,0,0:0:0:0:
192,192,45364,1,0,0:0:0:0:
64,192,45476,1,0,0:0:0:70:dirty kick #2.wav
320,192,45476,1,0,0:0:0:0:
448,192,45476,1,0,0:0:0:0:
192,192,45531,1,0,0:0:0:0:
320,192,45587,1,0,0:0:0:0:
64,192,45698,1,0,0:0:0:70:dirty kick #2.wav
192,192,45698,1,0,0:0:0:0:
448,192,45698,1,0,0:0:0:0:
320,192,45809,1,0,0:0:0:0:
192,192,45864,1,0,0:0:0:0:
64,192,45920,1,0,0:0:0:70:dirty kick #2.wav
320,192,45920,1,0,0:0:0:0:
448,192,45920,1,0,0:0:0:0:
448,192,46031,1,0,0:0:0:0:
64,192,46142,1,0,0:0:0:70:dirty kick #2.wav
192,192,46142,1,0,0:0:0:0:
320,192,46142,1,0,0:0:0:0:
64,192,46253,1,0,0:0:0:0:
192,192,46364,1,0,0:0:0:70:dirty kick #2.wav
320,192,46364,1,0,0:0:0:0:
448,192,46364,1,0,0:0:0:0:
64,192,46476,1,0,0:0:0:0:
192,192,46531,1,0,0:0:0:0:
64,192,46587,1,0,0:0:0:70:dirty kick #2.wav
320,192,46587,1,0,0:0:0:0:
448,192,46587,1,0,0:0:0:0:
448,192,46698,1,0,0:0:0:0:
64,192,46809,1,0,0:0:0:70:dirty kick #2.wav
192,192,46809,1,0,0:0:0:0:
320,192,46809,1,0,0:0:0:0:
64,192,46920,1,0,0:0:0:0:
192,192,47031,1,0,0:0:0:70:dirty kick #2.wav
320,192,47031,1,0,0:0:0:0:
448,192,47031,1,0,0:0:0:0:
448,192,47142,1,0,0:0:0:0:
64,192,47253,1,0,0:0:0:70:dirty kick #2.wav
192,192,47253,1,0,0:0:0:0:
320,192,47253,1,0,0:0:0:0:
320,192,47364,1,0,0:0:0:0:
64,192,47476,1,0,0:0:0:70:dirty kick #2.wav
192,192,47476,1,0,0:0:0:0:
448,192,47476,1,0,0:0:0:0:
64,192,47587,1,0,0:0:0:0:
192,192,47587,1,0,0:0:0:0:
64,192,47698,1,0,0:0:0:70:dirty kick #2.wav
320,192,47698,1,0,0:0:0:0:
448,192,47698,1,0,0:0:0:0:
320,192,47809,1,0,0:0:0:0:
64,192,47920,1,0,0:0:0:70:dirty kick #2.wav
192,192,47920,1,0,0:0:0:0:
448,192,47920,1,0,0:0:0:0:
192,192,48031,1,0,0:0:0:0:
64,192,48142,1,0,0:0:0:70:dirty kick #2.wav
320,192,48142,1,0,0:0:0:0:
448,192,48142,1,0,0:0:0:0:
64,192,48253,1,0,0:0:0:0:
192,192,48364,1,0,0:0:0:70:dirty kick #2.wav
320,192,48364,1,0,0:0:0:0:
448,192,48364,1,0,0:0:0:0:
448,192,48476,1,0,0:0:0:0:
64,192,48587,1,0,0:0:0:70:dirty kick #2.wav
192,192,48587,1,0,0:0:0:0:
320,192,48587,1,0,0:0:0:0:
64,192,48698,1,0,0:0:0:0:
192,192,48809,1,0,0:0:0:70:dirty kick #2.wav
320,192,48809,1,0,0:0:0:0:
448,192,48809,1,0,0:0:0:0:
448,192,48920,1,0,0:0:0:0:
192,192,48976,1,0,0:0:0:0:
64,192,49031,1,0,0:0:0:70:dirty kick #2.wav
320,192,49031,1,0,0:0:0:0:
448,192,49031,1,0,0:0:0:0:
192,192,49142,1,0,0:0:0:0:
64,192,49198,1,0,0:0:0:0:
320,192,49253,1,0,0:0:0:0:
448,192,49323,1,0,0:0:0:0:
192,192,49364,1,0,0:0:0:0:
448,192,49434,1,0,0:0:0:0:
64,192,49550,1,0,0:0:0:0:
192,192,49587,1,0,0:0:0:0:
320,192,49624,1,0,0:0:0:0:
448,192,49661,1,0,0:0:0:0:
192,192,49698,1,0,0:0:0:0:
64,192,49767,1,0,0:0:0:0:
320,192,49809,1,0,0:0:0:0:
64,192,49878,1,0,0:0:0:0:
448,192,49976,1,0,0:0:0:0:
320,192,50031,1,0,0:0:0:0:
192,192,50087,1,0,0:0:0:0:
64,192,50142,1,0,0:0:0:70:dirty kick #2.wav
320,192,50142,1,0,0:0:0:70:cymbal00.wav
448,192,50142,1,0,0:0:0:0:
320,192,50253,1,0,0:0:0:0:
448,192,50253,1,0,0:0:0:0:
64,192,50364,1,0,0:0:0:70:dirty kick #2.wav
192,192,50364,1,0,0:0:0:0:
448,192,50364,1,0,0:0:0:0:
64,192,50476,1,0,0:0:0:0:
192,192,50476,1,0,0:0:0:0:
64,192,50587,1,0,0:0:0:70:dirty kick #2.wav
320,192,50587,1,0,0:0:0:0:
448,192,50587,1,0,0:0:0:0:
320,192,50698,1,0,0:0:0:0:
448,192,50698,1,0,0:0:0:0:
64,192,50809,1,0,0:0:0:70:dirty kick #2.wav
192,192,50809,1,0,0:0:0:0:
448,192,50809,1,0,0:0:0:0:
64,192,50920,1,0,0:0:0:0:
192,192,50920,1,0,0:0:0:0:
64,192,51031,1,0,0:0:0:70:dirty kick #2.wav
320,192,51031,1,0,0:0:0:0:
448,192,51031,1,0,0:0:0:0:
320,192,51142,1,0,0:0:0:0:
448,192,51142,1,0,0:0:0:0:
64,192,51253,1,0,0:0:0:70:dirty kick #2.wav
192,192,51253,1,0,0:0:0:0:
448,192,51253,1,0,0:0:0:0:
64,192,51364,1,0,0:0:0:0:
192,192,51364,1,0,0:0:0:0:
64,192,51476,1,0,0:0:0:70:dirty kick #2.wav
320,192,51476,1,0,0:0:0:0:
448,192,51476,1,0,0:0:0:0:
320,192,51587,1,0,0:0:0:0:
448,192,51587,1,0,0:0:0:0:
64,192,51698,1,0,0:0:0:70:dirty kick #2.wav
192,192,51698,1,0,0:0:0:0:
448,192,51698,1,0,0:0:0:0:
64,192,51809,1,0,0:0:0:0:
320,192,51809,1,0,0:0:0:0:
64,192,51920,1,0,0:0:0:70:dirty kick #2.wav
320,192,51920,1,0,0:0:0:0:
448,192,51920,1,0,0:0:0:0:
192,192,52031,1,0,0:0:0:0:
448,192,52031,1,0,0:0:0:0:
192,192,52142,1,0,0:0:0:70:dirty kick #2.wav
320,192,52142,1,0,0:0:0:0:
448,192,52142,1,0,0:0:0:0:
64,192,52253,1,0,0:0:0:0:
320,192,52253,1,0,0:0:0:0:
64,192,52364,1,0,0:0:0:70:dirty kick #2.wav
192,192,52364,1,0,0:0:0:0:
320,192,52364,1,0,0:0:0:0:
192,192,52476,1,0,0:0:0:0:
448,192,52476,1,0,0:0:0:0:
192,192,52587,1,0,0:0:0:70:dirty kick #2.wav
320,192,52587,1,0,0:0:0:0:
448,192,52587,1,0,0:0:0:0:
64,192,52698,1,0,0:0:0:0:
320,192,52698,1,0,0:0:0:0:
64,192,52809,1,0,0:0:0:70:dirty kick #2.wav
192,192,52809,1,0,0:0:0:0:
320,192,52809,1,0,0:0:0:0:
192,192,52920,1,0,0:0:0:0:
448,192,52920,1,0,0:0:0:0:
64,192,53031,1,0,0:0:0:70:dirty kick #2.wav
192,192,53031,1,0,0:0:0:0:
320,192,53031,1,0,0:0:0:0:
64,192,53142,1,0,0:0:0:0:
448,192,53142,1,0,0:0:0:0:
192,192,53253,1,0,0:0:0:70:dirty kick #2.wav
320,192,53253,1,0,0:0:0:0:
448,192,53253,1,0,0:0:0:0:
64,192,53364,1,0,0:0:0:0:
320,192,53364,1,0,0:0:0:0:
64,192,53476,1,0,0:0:0:70:dirty kick #2.wav
192,192,53476,1,0,0:0:0:0:
448,192,53476,1,0,0:0:0:0:
192,192,53587,1,0,0:0:0:0:
320,192,53587,1,0,0:0:0:0:
64,192,53698,1,0,0:0:0:70:dirty kick #2.wav
320,192,53698,1,0,0:0:0:0:
448,192,53698,1,0,0:0:0:0:
64,192,53809,1,0,0:0:0:0:
192,192,53809,1,0,0:0:0:0:
64,192,53920,1,0,0:0:0:70:dirty kick #2.wav
192,192,53920,1,0,0:0:0:0:
448,192,53920,1,0,0:0:0:0:
320,192,54031,1,0,0:0:0:0:
448,192,54031,1,0,0:0:0:0:
64,192,54142,1,0,0:0:0:70:dirty kick #2.wav
320,192,54142,1,0,0:0:0:0:
448,192,54142,1,0,0:0:0:0:
64,192,54253,1,0,0:0:0:0:
192,192,54253,1,0,0:0:0:0:
64,192,54364,1,0,0:0:0:70:dirty kick #2.wav
192,192,54364,1,0,0:0:0:0:
448,192,54364,1,0,0:0:0:0:
320,192,54476,1,0,0:0:0:0:
448,192,54476,1,0,0:0:0:0:
192,192,54587,1,0,0:0:0:70:dirty kick #2.wav
320,192,54587,1,0,0:0:0:0:
448,192,54587,1,0,0:0:0:0:
64,192,54698,1,0,0:0:0:0:
192,192,54698,1,0,0:0:0:0:
64,192,54809,1,0,0:0:0:70:dirty kick #2.wav
192,192,54809,1,0,0:0:0:0:
448,192,54809,1,0,0:0:0:0:
320,192,54920,1,0,0:0:0:0:
448,192,54920,1,0,0:0:0:0:
64,192,55031,1,0,0:0:0:70:dirty kick #2.wav
320,192,55031,1,0,0:0:0:0:
448,192,55031,1,0,0:0:0:0:
64,192,55142,1,0,0:0:0:0:
192,192,55142,1,0,0:0:0:0:
64,192,55253,1,0,0:0:0:70:dirty kick #2.wav
192,192,55253,1,0,0:0:0:0:
320,192,55253,1,0,0:0:0:0:
64,192,55364,1,0,0:0:0:0:
448,192,55364,1,0,0:0:0:0:
192,192,55476,1,0,0:0:0:70:dirty kick #2.wav
320,192,55476,1,0,0:0:0:0:
448,192,55476,1,0,0:0:0:0:
192,192,55587,1,0,0:0:0:0:
320,192,55587,1,0,0:0:0:0:
64,192,55698,1,0,0:0:0:70:dirty kick #2.wav
320,192,55698,1,0,0:0:0:0:
448,192,55698,1,0,0:0:0:0:
64,192,55809,1,0,0:0:0:0:
448,192,55809,1,0,0:0:0:0:
64,192,55920,1,0,0:0:0:70:dirty kick #2.wav
192,192,55920,1,0,0:0:0:0:
320,192,55920,1,0,0:0:0:0:
192,192,56031,1,0,0:0:0:0:
320,192,56031,1,0,0:0:0:0:
64,192,56142,1,0,0:0:0:70:dirty kick #2.wav
320,192,56142,1,0,0:0:0:0:
448,192,56142,1,0,0:0:0:0:
64,192,56253,1,0,0:0:0:0:
448,192,56253,1,0,0:0:0:0:
192,192,56364,1,0,0:0:0:70:dirty kick #2.wav
320,192,56364,1,0,0:0:0:0:
448,192,56364,1,0,0:0:0:0:
64,192,56476,1,0,0:0:0:0:
320,192,56476,1,0,0:0:0:0:
64,192,56587,1,0,0:0:0:70:dirty kick #2.wav
192,192,56587,1,0,0:0:0:0:
448,192,56587,1,0,0:0:0:0:
320,192,56698,1,0,0:0:0:0:
448,192,56698,1,0,0:0:0:0:
64,192,56809,1,0,0:0:0:70:dirty kick #2.wav
192,192,56809,1,0,0:0:0:0:
320,192,56809,1,0,0:0:0:0:
192,192,56920,1,0,0:0:0:0:
448,192,56920,1,0,0:0:0:0:
64,192,57031,1,0,0:0:0:70:dirty kick #2.wav
320,192,57031,1,0,0:0:0:0:
448,192,57031,1,0,0:0:0:0:
64,192,57142,1,0,0:0:0:0:
192,192,57142,1,0,0:0:0:0:
64,192,57253,1,0,0:0:0:70:dirty kick #2.wav
192,192,57253,1,0,0:0:0:70:cymbal00.wav
320,192,57253,1,0,0:0:0:0:
448,192,57253,1,0,0:0:0:0:
320,192,57364,1,0,0:0:0:0:
448,192,57364,1,0,0:0:0:0:
64,192,57476,1,0,0:0:0:70:dirty kick #2.wav
192,192,57476,1,0,0:0:0:0:
448,192,57476,1,0,0:0:0:0:
64,192,57587,1,0,0:0:0:0:
192,192,57587,1,0,0:0:0:0:
64,192,57698,1,0,0:0:0:70:dirty kick #2.wav
320,192,57698,1,0,0:0:0:0:
448,192,57698,1,0,0:0:0:0:
320,192,57809,1,0,0:0:0:0:
448,192,57809,1,0,0:0:0:0:
64,192,57920,1,0,0:0:0:70:dirty kick #2.wav
192,192,57920,1,0,0:0:0:0:
448,192,57920,1,0,0:0:0:0:
64,192,58031,1,0,0:0:0:0:
192,192,58031,1,0,0:0:0:0:
64,192,58142,1,0,0:0:0:70:dirty kick #2.wav
320,192,58142,1,0,0:0:0:0:
448,192,58142,1,0,0:0:0:0:
320,192,58253,1,0,0:0:0:0:
448,192,58253,1,0,0:0:0:0:
64,192,58364,1,0,0:0:0:70:dirty kick #2.wav
192,192,58364,1,0,0:0:0:0:
448,192,58364,1,0,0:0:0:0:
64,192,58476,1,0,0:0:0:0:
192,192,58476,1,0,0:0:0:0:
64,192,58587,1,0,0:0:0:70:dirty kick #2.wav
320,192,58587,1,0,0:0:0:0:
448,192,58587,1,0,0:0:0:0:
320,192,58698,1,0,0:0:0:0:
448,192,58698,1,0,0:0:0:0:
64,192,58809,1,0,0:0:0:70:dirty kick #2.wav
192,192,58809,1,0,0:0:0:0:
448,192,58809,1,0,0:0:0:0:
64,192,58920,1,0,0:0:0:0:
320,192,58920,1,0,0:0:0:0:
64,192,59031,1,0,0:0:0:70:dirty kick #2.wav
192,192,59031,1,0,0:0:0:70:cymbal00.wav
320,192,59031,1,0,0:0:0:0:
448,192,59031,1,0,0:0:0:0:
192,192,59142,1,0,0:0:0:0:
448,192,59142,1,0,0:0:0:0:
192,192,59253,1,0,0:0:0:70:dirty kick #2.wav
320,192,59253,1,0,0:0:0:0:
448,192,59253,1,0,0:0:0:0:
64,192,59364,1,0,0:0:0:0:
320,192,59364,1,0,0:0:0:0:
64,192,59476,1,0,0:0:0:70:dirty kick #2.wav
192,192,59476,1,0,0:0:0:0:
320,192,59476,1,0,0:0:0:0:
192,192,59587,1,0,0:0:0:0:
448,192,59587,1,0,0:0:0:0:
192,192,59698,1,0,0:0:0:70:dirty kick #2.wav
320,192,59698,1,0,0:0:0:0:
448,192,59698,1,0,0:0:0:0:
64,192,59809,1,0,0:0:0:0:
320,192,59809,1,0,0:0:0:0:
64,192,59920,1,0,0:0:0:70:dirty kick #2.wav
192,192,59920,1,0,0:0:0:0:
320,192,59920,1,0,0:0:0:0:
192,192,60031,1,0,0:0:0:0:
448,192,60031,1,0,0:0:0:0:
64,192,60142,1,0,0:0:0:70:dirty kick #2.wav
192,192,60142,1,0,0:0:0:0:
320,192,60142,1,0,0:0:0:0:
64,192,60253,1,0,0:0:0:0:
448,192,60253,1,0,0:0:0:0:
192,192,60364,1,0,0:0:0:70:dirty kick #2.wav
320,192,60364,1,0,0:0:0:0:
448,192,60364,1,0,0:0:0:0:
64,192,60476,1,0,0:0:0:0:
320,192,60476,1,0,0:0:0:0:
64,192,60587,1,0,0:0:0:70:dirty kick #2.wav
192,192,60587,1,0,0:0:0:0:
448,192,60587,1,0,0:0:0:0:
320,192,60698,1,0,0:0:0:0:
448,192,60698,1,0,0:0:0:0:
64,192,60809,1,0,0:0:0:70:dirty kick #2.wav
192,192,60809,1,0,0:0:0:70:cymbal00.wav
320,192,60809,1,0,0:0:0:0:
448,192,60809,1,0,0:0:0:0:
64,192,60920,1,0,0:0:0:0:
192,192,60920,1,0,0:0:0:0:
64,192,61031,1,0,0:0:0:70:dirty kick #2.wav
192,192,61031,1,0,0:0:0:0:
448,192,61031,1,0,0:0:0:0:
320,192,61142,1,0,0:0:0:0:
448,192,61142,1,0,0:0:0:0:
64,192,61253,1,0,0:0:0:70:dirty kick #2.wav
320,192,61253,1,0,0:0:0:0:
448,192,61253,1,0,0:0:0:0:
64,192,61364,1,0,0:0:0:0:
192,192,61364,1,0,0:0:0:0:
64,192,61476,1,0,0:0:0:70:dirty kick #2.wav
192,192,61476,1,0,0:0:0:0:
448,192,61476,1,0,0:0:0:0:
320,192,61587,1,0,0:0:0:0:
448,192,61587,1,0,0:0:0:0:
64,192,61698,1,0,0:0:0:70:dirty kick #2.wav
192,192,61698,1,0,0:0:0:70:cymbal00.wav
320,192,61698,1,0,0:0:0:0:
448,192,61698,1,0,0:0:0:0:
64,192,61809,1,0,0:0:0:0:
192,192,61809,1,0,0:0:0:0:
64,192,61920,1,0,0:0:0:70:dirty kick #2.wav
192,192,61920,1,0,0:0:0:0:
448,192,61920,1,0,0:0:0:0:
320,192,62031,1,0,0:0:0:0:
448,192,62031,1,0,0:0:0:0:
64,192,62142,1,0,0:0:0:70:dirty kick #2.wav
320,192,62142,1,0,0:0:0:0:
448,192,62142,1,0,0:0:0:0:
64,192,62253,1,0,0:0:0:0:
192,192,62253,1,0,0:0:0:0:
64,192,62364,1,0,0:0:0:70:dirty kick #2.wav
192,192,62364,1,0,0:0:0:0:
320,192,62364,1,0,0:0:0:0:
64,192,62476,1,0,0:0:0:0:
448,192,62476,1,0,0:0:0:0:
64,192,62587,1,0,0:0:0:70:dirty kick #2.wav
192,192,62587,1,0,0:0:0:70:cymbal00.wav
320,192,62587,1,0,0:0:0:0:
448,192,62587,1,0,0:0:0:0:
320,192,62698,1,0,0:0:0:0:
448,192,62698,1,0,0:0:0:0:
64,192,62809,1,0,0:0:0:70:dirty kick #2.wav
192,192,62809,1,0,0:0:0:70:cymbal00.wav
320,192,62809,1,0,0:0:0:0:
448,192,62809,1,0,0:0:0:0:
64,192,62920,1,0,0:0:0:0:
192,192,62920,1,0,0:0:0:0:
64,192,63031,1,0,0:0:0:70:dirty kick #2.wav
320,192,63031,1,0,0:0:0:0:
448,192,63031,1,0,0:0:0:0:
192,192,63142,1,0,0:0:0:0:
320,192,63142,1,0,0:0:0:0:
64,192,63253,1,0,0:0:0:70:dirty kick #2.wav
192,192,63253,1,0,0:0:0:70:cymbal00.wav
320,192,63253,1,0,0:0:0:0:
448,192,63253,1,0,0:0:0:0:
64,192,63364,1,0,0:0:0:0:
448,192,63364,1,0,0:0:0:0:
320,192,63476,1,0,0:0:0:0:
192,192,63503,1,0,0:0:0:0:
448,192,63587,1,0,0:0:0:0:
192,192,63614,1,0,0:0:0:0:
320,192,63698,1,0,0:0:0:0:
192,192,63753,1,0,0:0:0:0:
64,192,63809,1,0,0:0:0:0:
192,192,63920,1,0,0:0:0:0:
448,192,63948,1,0,0:0:0:0:
320,192,64031,1,0,0:0:0:0:
448,192,64059,1,0,0:0:0:0:
64,192,64142,1,0,0:0:0:0:
192,192,64170,1,0,0:0:0:0:
320,192,64198,1,0,0:0:0:0:
448,192,64226,1,0,0:0:0:0:
64,192,64253,1,0,0:0:0:0:
192,192,64281,1,0,0:0:0:0:
320,192,64309,1,0,0:0:0:0:
448,192,64337,1,0,0:0:0:0:
64,192,64364,1,0,0:0:0:70:dirty kick #2.wav
192,192,64364,1,0,0:0:0:70:cymbal00.wav
448,192,64476,1,0,0:0:0:0:
64,192,64587,1,0,0:0:0:0:
64,192,64698,1,0,0:0:0:0:
192,192,64809,1,0,0:0:0:70:electronic20.wav
448,192,64809,1,0,0:0:0:0:
192,192,65253,1,0,0:0:0:0:
448,192,65253,1,0,0:0:0:0:
448,192,65364,1,0,0:0:0:0:
64,192,65476,1,0,0:0:0:0:
64,192,65587,1,0,0:0:0:70:electronic20.wav
320,192,65587,1,0,0:0:0:0:
192,192,65920,1,0,0:0:0:0:
320,192,66031,1,0,0:0:0:0:
192,192,66142,1,0,0:0:0:0:
448,192,66142,1,0,0:0:0:0:
64,192,66364,1,0,0:0:0:70:electronic20.wav
320,192,66364,1,0,0:0:0:0:
192,192,66587,1,0,0:0:0:0:
448,192,66698,1,0,0:0:0:0:
64,192,66809,1,0,0:0:0:70:electronic20.wav
320,192,66809,1,0,0:0:0:0:
64,192,67031,1,0,0:0:0:70:cymbal00.wav
192,192,67031,1,0,0:0:0:0:
448,192,67031,1,0,0:0:0:0:
64,192,67253,1,0,0:0:0:70:electronic20.wav
320,192,67253,1,0,0:0:0:0:
64,192,67364,1,0,0:0:0:70:cymbal00.wav
320,192,67364,1,0,0:0:0:0:
448,192,67364,1,0,0:0:0:0:
192,192,67698,1,0,0:0:0:70:electronic20.wav
448,192,67698,1,0,0:0:0:0:
192,192,67920,1,0,0:0:0:0:
448,192,67920,1,0,0:0:0:0:
448,192,68031,1,0,0:0:0:0:
448,192,68142,1,0,0:0:0:0:
64,192,68253,1,0,0:0:0:0:
64,192,68364,1,0,0:0:0:70:electronic20.wav
320,192,68364,1,0,0:0:0:0:
320,192,68698,1,0,0:0:0:0:
192,192,68809,1,0,0:0:0:0:
448,192,68809,1,0,0:0:0:0:
448,192,68920,1,0,0:0:0:0:
64,192,69031,1,0,0:0:0:0:
64,192,69142,1,0,0:0:0:70:electronic20.wav
320,192,69142,1,0,0:0:0:0:
192,192,69476,1,0,0:0:0:0:
320,192,69587,1,0,0:0:0:0:
64,192,69698,1,0,0:0:0:70:cymbal00.wav
192,192,69698,1,0,0:0:0:0:
448,192,69698,1,0,0:0:0:0:
64,192,69920,1,0,0:0:0:70:electronic20.wav
320,192,69920,1,0,0:0:0:0:
320,192,70031,1,0,0:0:0:0:
448,192,70031,1,0,0:0:0:0:
64,192,70031,1,0,0:0:0:70:cymbal00.wav
64,192,70364,1,0,0:0:0:70:electronic20.wav
448,192,70364,1,0,0:0:0:0:
192,192,70587,128,0,70809:0:0:0:0:
448,192,70809,1,0,0:0:0:0:
320,192,70864,1,0,0:0:0:0:
192,192,70920,1,0,0:0:0:0:
448,192,70976,1,0,0:0:0:0:
64,192,71031,128,0,71142:0:0:0:0:
448,192,71142,1,0,0:0:0:0:
320,192,71198,1,0,0:0:0:0:
64,192,71253,1,0,0:0:0:0:
192,192,71281,1,0,0:0:0:0:
448,192,71309,1,0,0:0:0:0:
320,192,71337,1,0,0:0:0:0:
64,192,71364,1,0,0:0:0:0:
192,192,71392,1,0,0:0:0:0:
448,192,71420,1,0,0:0:0:0:
320,192,71448,1,0,0:0:0:0:
64,192,71476,1,0,0:0:0:70:dirty kick #2 low.wav
192,192,71476,1,0,0:0:0:70:cymbal00.wav
64,192,71587,1,0,0:0:0:0:
192,192,71587,1,0,0:0:0:0:
64,192,71698,1,0,0:0:0:70:dirty kick #2 low.wav
320,192,71698,1,0,0:0:0:0:
448,192,71698,1,0,0:0:0:0:
192,192,71809,1,0,0:0:0:0:
320,192,71864,1,0,0:0:0:0:
192,192,71920,1,0,0:0:0:70:dirty kick #2 low.wav
448,192,71920,1,0,0:0:0:0:
64,192,72031,1,0,0:0:0:0:
320,192,72031,1,0,0:0:0:0:
64,192,72142,1,0,0:0:0:70:dirty kick #2 low.wav
192,192,72142,1,0,0:0:0:0:
320,192,72142,1,0,0:0:0:0:
448,192,72253,1,0,0:0:0:0:
320,192,72309,1,0,0:0:0:0:
64,192,72364,1,0,0:0:0:70:dirty kick #2 low.wav
192,192,72364,1,0,0:0:0:0:
64,192,72476,1,0,0:0:0:0:
320,192,72476,1,0,0:0:0:0:
192,192,72587,1,0,0:0:0:70:dirty kick #2 low.wav
320,192,72587,1,0,0:0:0:0:
448,192,72587,1,0,0:0:0:0:
64,192,72698,1,0,0:0:0:0:
448,192,72698,1,0,0:0:0:0:
64,192,72809,1,0,0:0:0:70:dirty kick #2 low.wav
320,192,72809,1,0,0:0:0:0:
192,192,72920,1,0,0:0:0:0:
448,192,72920,1,0,0:0:0:0:
192,192,73031,1,0,0:0:0:70:dirty kick #2 low.wav
320,192,73031,1,0,0:0:0:0:
448,192,73031,1,0,0:0:0:0:
64,192,73142,1,0,0:0:0:0:
192,192,73198,1,0,0:0:0:0:
320,192,73253,1,0,0:0:0:70:dirty kick #2 low.wav
448,192,73253,1,0,0:0:0:0:
64,192,73364,1,0,0:0:0:0:
448,192,73364,1,0,0:0:0:0:
64,192,73476,1,0,0:0:0:70:dirty kick #2 low.wav
320,192,73476,1,0,0:0:0:0:
448,192,73476,1,0,0:0:0:0:
192,192,73587,1,0,0:0:0:0:
320,192,73642,1,0,0:0:0:0:
192,192,73698,1,0,0:0:0:70:dirty kick #2 low.wav
448,192,73698,1,0,0:0:0:0:
64,192,73809,1,0,0:0:0:0:
320,192,73809,1,0,0:0:0:0:
64,192,73920,1,0,0:0:0:70:dirty kick #2 low.wav
192,192,73920,1,0,0:0:0:0:
320,192,73920,1,0,0:0:0:0:
448,192,74031,1,0,0:0:0:0:
320,192,74087,1,0,0:0:0:0:
64,192,74142,1,0,0:0:0:70:dirty kick #2 low.wav
192,192,74142,1,0,0:0:0:0:
64,192,74253,1,0,0:0:0:0:
320,192,74253,1,0,0:0:0:0:
192,192,74364,1,0,0:0:0:70:dirty kick #2 low.wav
320,192,74364,1,0,0:0:0:0:
448,192,74364,1,0,0:0:0:0:
64,192,74476,1,0,0:0:0:0:
448,192,74476,1,0,0:0:0:0:
64,192,74587,1,0,0:0:0:70:dirty kick #2 low.wav
320,192,74587,1,0,0:0:0:0:
192,192,74698,1,0,0:0:0:0:
448,192,74698,1,0,0:0:0:0:
192,192,74809,1,0,0:0:0:70:dirty kick #2 low.wav
320,192,74809,1,0,0:0:0:0:
448,192,74809,1,0,0:0:0:0:
64,192,74920,1,0,0:0:0:0:
192,192,74976,1,0,0:0:0:0:
320,192,75031,1,0,0:0:0:70:dirty kick #2 low.wav
448,192,75031,1,0,0:0:0:0:
64,192,75142,1,0,0:0:0:0:
448,192,75142,1,0,0:0:0:0:
64,192,75253,1,0,0:0:0:70:dirty kick #2 low.wav
320,192,75253,1,0,0:0:0:0:
448,192,75253,1,0,0:0:0:0:
192,192,75364,1,0,0:0:0:0:
320,192,75420,1,0,0:0:0:0:
192,192,75476,1,0,0:0:0:70:dirty kick #2 low.wav
448,192,75476,1,0,0:0:0:0:
64,192,75587,1,0,0:0:0:0:
320,192,75587,1,0,0:0:0:0:
64,192,75698,1,0,0:0:0:70:dirty kick #2 low.wav
192,192,75698,1,0,0:0:0:0:
320,192,75698,1,0,0:0:0:0:
448,192,75809,1,0,0:0:0:0:
320,192,75864,1,0,0:0:0:0:
64,192,75920,1,0,0:0:0:70:dirty kick #2 low.wav
192,192,75920,1,0,0:0:0:0:
64,192,76031,1,0,0:0:0:0:
320,192,76031,1,0,0:0:0:0:
64,192,76142,1,0,0:0:0:70:dirty kick #2 low.wav
192,192,76142,1,0,0:0:0:0:
448,192,76142,1,0,0:0:0:0:
320,192,76253,1,0,0:0:0:0:
192,192,76309,1,0,0:0:0:0:
64,192,76364,1,0,0:0:0:70:dirty kick #2 low.wav
320,192,76364,1,0,0:0:0:0:
192,192,76476,1,0,0:0:0:0:
448,192,76476,1,0,0:0:0:0:
192,192,76587,1,0,0:0:0:70:dirty kick #2 low.wav
320,192,76587,1,0,0:0:0:0:
448,192,76587,1,0,0:0:0:0:
64,192,76698,1,0,0:0:0:0:
192,192,76753,1,0,0:0:0:0:
320,192,76809,1,0,0:0:0:70:dirty kick #2 low.wav
448,192,76809,1,0,0:0:0:0:
64,192,76920,1,0,0:0:0:0:
448,192,76920,1,0,0:0:0:0:
64,192,77031,1,0,0:0:0:70:dirty kick #2 low.wav
320,192,77031,1,0,0:0:0:0:
448,192,77031,1,0,0:0:0:0:
192,192,77142,1,0,0:0:0:0:
320,192,77198,1,0,0:0:0:0:
192,192,77253,1,0,0:0:0:70:dirty kick #2 low.wav
448,192,77253,1,0,0:0:0:0:
64,192,77364,1,0,0:0:0:0:
320,192,77364,1,0,0:0:0:0:
64,192,77476,1,0,0:0:0:70:dirty kick #2 low.wav
192,192,77476,1,0,0:0:0:0:
320,192,77476,1,0,0:0:0:0:
448,192,77587,1,0,0:0:0:0:
320,192,77642,1,0,0:0:0:0:
64,192,77698,1,0,0:0:0:70:dirty kick #2 low.wav
192,192,77698,1,0,0:0:0:0:
64,192,77809,1,0,0:0:0:0:
320,192,77809,1,0,0:0:0:0:
192,192,77920,1,0,0:0:0:70:dirty kick #2 low.wav
320,192,77920,1,0,0:0:0:0:
448,192,77920,1,0,0:0:0:0:
64,192,78031,1,0,0:0:0:0:
448,192,78031,1,0,0:0:0:0:
64,192,78142,1,0,0:0:0:70:dirty kick #2 low.wav
320,192,78142,1,0,0:0:0:0:
192,192,78253,1,0,0:0:0:0:
448,192,78253,1,0,0:0:0:0:
192,192,78364,1,0,0:0:0:70:dirty kick #2 low.wav
320,192,78364,1,0,0:0:0:0:
448,192,78364,1,0,0:0:0:0:
64,192,78476,1,0,0:0:0:0:
192,192,78531,1,0,0:0:0:0:
320,192,78587,1,0,0:0:0:70:dirty kick #2 low.wav
448,192,78587,1,0,0:0:0:0:
64,192,78698,1,0,0:0:0:0:
448,192,78698,1,0,0:0:0:0:
64,192,78809,1,0,0:0:0:70:dirty kick #2 low.wav
320,192,78809,1,0,0:0:0:0:
448,192,78809,1,0,0:0:0:0:
192,192,78920,1,0,0:0:0:0:
320,192,78976,1,0,0:0:0:0:
192,192,79031,1,0,0:0:0:70:dirty kick #2 low.wav
448,192,79031,1,0,0:0:0:0:
64,192,79142,1,0,0:0:0:0:
320,192,79142,1,0,0:0:0:0:
64,192,79253,1,0,0:0:0:70:dirty kick #2 low.wav
192,192,79253,1,0,0:0:0:0:
320,192,79253,1,0,0:0:0:0:
448,192,79364,1,0,0:0:0:0:
320,192,79420,1,0,0:0:0:0:
64,192,79476,1,0,0:0:0:70:dirty kick #2 low.wav
192,192,79476,1,0,0:0:0:0:
64,192,79587,1,0,0:0:0:0:
320,192,79587,1,0,0:0:0:0:
192,192,79698,1,0,0:0:0:70:dirty kick #2 low.wav
320,192,79698,1,0,0:0:0:0:
448,192,79698,1,0,0:0:0:0:
64,192,79809,1,0,0:0:0:0:
448,192,79809,1,0,0:0:0:0:
64,192,79920,1,0,0:0:0:70:dirty kick #2 low.wav
320,192,79920,1,0,0:0:0:0:
192,192,80031,1,0,0:0:0:0:
448,192,80031,1,0,0:0:0:0:
192,192,80142,1,0,0:0:0:70:dirty kick #2 low.wav
320,192,80142,1,0,0:0:0:0:
448,192,80142,1,0,0:0:0:0:
64,192,80253,1,0,0:0:0:0:
192,192,80309,1,0,0:0:0:0:
320,192,80364,1,0,0:0:0:70:dirty kick #2 low.wav
448,192,80364,1,0,0:0:0:0:
64,192,80476,1,0,0:0:0:0:
448,192,80476,1,0,0:0:0:0:
64,192,80587,1,0,0:0:0:70:dirty kick #2 low.wav
320,192,80587,1,0,0:0:0:0:
448,192,80587,1,0,0:0:0:0:
192,192,80698,1,0,0:0:0:0:
320,192,80753,1,0,0:0:0:0:
192,192,80809,1,0,0:0:0:70:dirty kick #2 low.wav
448,192,80809,1,0,0:0:0:0:
64,192,80920,1,0,0:0:0:0:
320,192,80920,1,0,0:0:0:0:
64,192,81031,1,0,0:0:0:70:dirty kick #2 low.wav
192,192,81031,1,0,0:0:0:0:
320,192,81031,1,0,0:0:0:0:
448,192,81142,1,0,0:0:0:0:
320,192,81198,1,0,0:0:0:0:
64,192,81253,1,0,0:0:0:70:dirty kick #2 low.wav
192,192,81253,1,0,0:0:0:0:
64,192,81364,1,0,0:0:0:0:
320,192,81364,1,0,0:0:0:0:
192,192,81476,1,0,0:0:0:70:dirty kick #2 low.wav
320,192,81476,1,0,0:0:0:0:
448,192,81476,1,0,0:0:0:0:
64,192,81587,1,0,0:0:0:0:
448,192,81587,1,0,0:0:0:0:
64,192,81698,1,0,0:0:0:70:dirty kick #2 low.wav
320,192,81698,1,0,0:0:0:0:
192,192,81809,1,0,0:0:0:0:
448,192,81809,1,0,0:0:0:0:
192,192,81920,1,0,0:0:0:70:dirty kick #2 low.wav
320,192,81920,1,0,0:0:0:0:
448,192,81920,1,0,0:0:0:0:
64,192,82031,1,0,0:0:0:0:
192,192,82087,1,0,0:0:0:0:
320,192,82142,1,0,0:0:0:70:dirty kick #2 low.wav
448,192,82142,1,0,0:0:0:0:
64,192,82253,1,0,0:0:0:0:
448,192,82253,1,0,0:0:0:0:
64,192,82364,1,0,0:0:0:70:dirty kick #2 low.wav
320,192,82364,1,0,0:0:0:0:
448,192,82364,1,0,0:0:0:0:
192,192,82476,1,0,0:0:0:0:
320,192,82531,1,0,0:0:0:0:
192,192,82587,1,0,0:0:0:70:dirty kick #2 low.wav
448,192,82587,1,0,0:0:0:0:
64,192,82698,1,0,0:0:0:0:
320,192,82698,1,0,0:0:0:0:
64,192,82809,1,0,0:0:0:70:dirty kick #2 low.wav
192,192,82809,1,0,0:0:0:0:
320,192,82809,1,0,0:0:0:0:
448,192,82920,1,0,0:0:0:0:
320,192,82976,1,0,0:0:0:0:
64,192,83031,1,0,0:0:0:70:dirty kick #2 low.wav
192,192,83031,1,0,0:0:0:0:
64,192,83142,1,0,0:0:0:0:
320,192,83142,1,0,0:0:0:0:
64,192,83253,1,0,0:0:0:70:dirty kick #2 low.wav
192,192,83253,1,0,0:0:0:0:
448,192,83253,1,0,0:0:0:0:
320,192,83364,1,0,0:0:0:0:
192,192,83420,1,0,0:0:0:0:
64,192,83476,1,0,0:0:0:70:dirty kick #2 low.wav
320,192,83476,1,0,0:0:0:0:
192,192,83587,1,0,0:0:0:0:
448,192,83587,1,0,0:0:0:0:
192,192,83698,1,0,0:0:0:70:dirty kick #2 low.wav
320,192,83698,1,0,0:0:0:0:
448,192,83698,1,0,0:0:0:0:
64,192,83809,1,0,0:0:0:0:
192,192,83864,1,0,0:0:0:0:
320,192,83920,1,0,0:0:0:70:dirty kick #2 low.wav
448,192,83920,1,0,0:0:0:0:
64,192,84031,1,0,0:0:0:0:
448,192,84031,1,0,0:0:0:0:
64,192,84142,1,0,0:0:0:70:dirty kick #2 low.wav
320,192,84142,1,0,0:0:0:0:
448,192,84142,1,0,0:0:0:0:
192,192,84253,1,0,0:0:0:0:
320,192,84309,1,0,0:0:0:0:
192,192,84364,1,0,0:0:0:70:dirty kick #2 low.wav
448,192,84364,1,0,0:0:0:0:
64,192,84476,1,0,0:0:0:0:
320,192,84476,1,0,0:0:0:0:
64,192,84587,1,0,0:0:0:70:dirty kick #2 low.wav
192,192,84587,1,0,0:0:0:0:
448,192,84587,1,0,0:0:0:0:
320,192,84698,1,0,0:0:0:0:
448,192,84753,1,0,0:0:0:0:
64,192,84809,1,0,0:0:0:0:
192,192,84809,1,0,0:0:0:0:
320,192,84864,1,0,0:0:0:0:
448,192,84920,1,0,0:0:0:0:
64,192,84976,1,0,0:0:0:0:
192,192,85031,1,0,0:0:0:0:
320,192,85087,1,0,0:0:0:0:
192,192,85142,1,0,0:0:0:0:
320,192,85198,1,0,0:0:0:0:
448,192,85253,1,0,0:0:0:0:
320,192,85364,1,0,0:0:0:0:
192,192,85420,1,0,0:0:0:0:
320,192,85476,1,0,0:0:0:0:
448,192,85587,1,0,0:0:0:0:
64,192,85642,1,0,0:0:0:0:
192,192,85698,1,0,0:0:0:70:dirty kick #2.wav
320,192,85698,1,0,0:0:0:70:cymbal00.wav
448,192,85698,1,0,0:0:0:0:
64,192,85809,1,0,0:0:0:0:
192,192,85809,1,0,0:0:0:0:
64,192,85920,1,0,0:0:0:70:dirty kick #2.wav
192,192,85920,1,0,0:0:0:0:
448,192,85920,1,0,0:0:0:0:
320,192,86031,1,0,0:0:0:0:
448,192,86031,1,0,0:0:0:0:
64,192,86142,1,0,0:0:0:70:dirty kick #2.wav
320,192,86142,1,0,0:0:0:0:
448,192,86142,1,0,0:0:0:0:
64,192,86253,1,0,0:0:0:0:
192,192,86253,1,0,0:0:0:0:
320,192,86309,1,0,0:0:0:0:
64,192,86364,1,0,0:0:0:70:dirty kick #2.wav
192,192,86364,1,0,0:0:0:0:
448,192,86364,1,0,0:0:0:0:
320,192,86476,1,0,0:0:0:0:
448,192,86476,1,0,0:0:0:0:
192,192,86531,1,0,0:0:0:0:
64,192,86587,1,0,0:0:0:70:dirty kick #2.wav
320,192,86587,1,0,0:0:0:0:
448,192,86587,1,0,0:0:0:0:
64,192,86698,1,0,0:0:0:0:
192,192,86698,1,0,0:0:0:0:
64,192,86809,1,0,0:0:0:70:dirty kick #2.wav
192,192,86809,1,0,0:0:0:0:
448,192,86809,1,0,0:0:0:0:
320,192,86920,1,0,0:0:0:0:
448,192,86920,1,0,0:0:0:0:
64,192,87031,1,0,0:0:0:70:dirty kick #2.wav
320,192,87031,1,0,0:0:0:0:
448,192,87031,1,0,0:0:0:0:
64,192,87142,1,0,0:0:0:0:
192,192,87142,1,0,0:0:0:0:
64,192,87253,1,0,0:0:0:70:dirty kick #2.wav
192,192,87253,1,0,0:0:0:0:
448,192,87253,1,0,0:0:0:0:
320,192,87364,1,0,0:0:0:0:
448,192,87364,1,0,0:0:0:0:
64,192,87476,1,0,0:0:0:70:dirty kick #2.wav
192,192,87476,1,0,0:0:0:0:
448,192,87476,1,0,0:0:0:0:
64,192,87587,1,0,0:0:0:0:
320,192,87587,1,0,0:0:0:0:
64,192,87698,1,0,0:0:0:70:dirty kick #2.wav
320,192,87698,1,0,0:0:0:0:
448,192,87698,1,0,0:0:0:0:
192,192,87809,1,0,0:0:0:0:
448,192,87809,1,0,0:0:0:0:
64,192,87920,1,0,0:0:0:70:dirty kick #2.wav
192,192,87920,1,0,0:0:0:0:
448,192,87920,1,0,0:0:0:0:
64,192,88031,1,0,0:0:0:0:
192,192,88031,1,0,0:0:0:0:
320,192,88087,1,0,0:0:0:0:
64,192,88142,1,0,0:0:0:70:dirty kick #2.wav
192,192,88142,1,0,0:0:0:0:
448,192,88142,1,0,0:0:0:0:
320,192,88253,1,0,0:0:0:0:
448,192,88253,1,0,0:0:0:0:
192,192,88309,1,0,0:0:0:0:
64,192,88364,1,0,0:0:0:70:dirty kick #2.wav
320,192,88364,1,0,0:0:0:0:
448,192,88364,1,0,0:0:0:0:
64,192,88476,1,0,0:0:0:0:
320,192,88476,1,0,0:0:0:0:
192,192,88587,1,0,0:0:0:70:dirty kick #2.wav
320,192,88587,1,0,0:0:0:0:
448,192,88587,1,0,0:0:0:0:
64,192,88698,1,0,0:0:0:0:
192,192,88698,1,0,0:0:0:0:
64,192,88809,1,0,0:0:0:70:dirty kick #2.wav
320,192,88809,1,0,0:0:0:0:
448,192,88809,1,0,0:0:0:0:
192,192,88920,1,0,0:0:0:0:
448,192,88920,1,0,0:0:0:0:
64,192,89031,1,0,0:0:0:70:dirty kick #2.wav
192,192,89031,1,0,0:0:0:0:
320,192,89031,1,0,0:0:0:0:
64,192,89142,1,0,0:0:0:0:
448,192,89142,1,0,0:0:0:0:
64,192,89253,1,0,0:0:0:70:dirty kick #2.wav
192,192,89253,1,0,0:0:0:0:
320,192,89253,1,0,0:0:0:0:
320,192,89364,1,0,0:0:0:0:
448,192,89364,1,0,0:0:0:0:
192,192,89476,1,0,0:0:0:70:dirty kick #2.wav
320,192,89476,1,0,0:0:0:0:
448,192,89476,1,0,0:0:0:0:
64,192,89587,1,0,0:0:0:0:
192,192,89587,1,0,0:0:0:0:
64,192,89698,1,0,0:0:0:70:dirty kick #2.wav
192,192,89698,1,0,0:0:0:0:
320,192,89698,1,0,0:0:0:0:
320,192,89809,1,0,0:0:0:0:
448,192,89809,1,0,0:0:0:0:
64,192,89864,1,0,0:0:0:0:
192,192,89920,1,0,0:0:0:70:dirty kick #2.wav
320,192,89920,1,0,0:0:0:0:
448,192,89920,1,0,0:0:0:0:
64,192,90031,1,0,0:0:0:0:
192,192,90031,1,0,0:0:0:0:
448,192,90087,1,0,0:0:0:0:
64,192,90142,1,0,0:0:0:70:dirty kick #2.wav
192,192,90142,1,0,0:0:0:0:
320,192,90142,1,0,0:0:0:0:
320,192,90253,1,0,0:0:0:0:
448,192,90253,1,0,0:0:0:0:
192,192,90364,1,0,0:0:0:70:dirty kick #2.wav
320,192,90364,1,0,0:0:0:0:
448,192,90364,1,0,0:0:0:0:
64,192,90476,1,0,0:0:0:0:
192,192,90476,1,0,0:0:0:0:
64,192,90587,1,0,0:0:0:70:dirty kick #2.wav
192,192,90587,1,0,0:0:0:0:
320,192,90587,1,0,0:0:0:0:
320,192,90698,1,0,0:0:0:0:
448,192,90698,1,0,0:0:0:0:
192,192,90809,1,0,0:0:0:70:dirty kick #2.wav
320,192,90809,1,0,0:0:0:0:
448,192,90809,1,0,0:0:0:0:
64,192,90920,1,0,0:0:0:0:
192,192,90920,1,0,0:0:0:0:
64,192,91031,1,0,0:0:0:70:dirty kick #2.wav
320,192,91031,1,0,0:0:0:0:
448,192,91031,1,0,0:0:0:0:
64,192,91142,1,0,0:0:0:0:
320,192,91142,1,0,0:0:0:0:
64,192,91253,1,0,0:0:0:70:dirty kick #2.wav
192,192,91253,1,0,0:0:0:0:
448,192,91253,1,0,0:0:0:0:
192,192,91364,1,0,0:0:0:0:
448,192,91364,1,0,0:0:0:0:
64,192,91476,1,0,0:0:0:70:dirty kick #2.wav
320,192,91476,1,0,0:0:0:0:
448,192,91476,1,0,0:0:0:0:
64,192,91587,1,0,0:0:0:0:
192,192,91587,1,0,0:0:0:0:
448,192,91642,1,0,0:0:0:0:
64,192,91698,1,0,0:0:0:70:dirty kick #2.wav
192,192,91698,1,0,0:0:0:0:
320,192,91698,1,0,0:0:0:0:
320,192,91809,1,0,0:0:0:0:
448,192,91809,1,0,0:0:0:0:
64,192,91864,1,0,0:0:0:0:
192,192,91920,1,0,0:0:0:0:
320,192,91920,1,0,0:0:0:0:
448,192,91920,1,0,0:0:0:0:
64,192,92031,1,0,0:0:0:0:
192,192,92142,1,0,0:0:0:0:
64,192,92198,1,0,0:0:0:0:
448,192,92253,1,0,0:0:0:0:
192,192,92364,1,0,0:0:0:0:
320,192,92476,1,0,0:0:0:0:
192,192,92587,1,0,0:0:0:0:
64,192,92642,1,0,0:0:0:0:
448,192,92698,1,0,0:0:0:0:
64,192,92809,1,0,0:0:0:70:dirty kick #2.wav
320,192,92809,1,0,0:0:0:0:
448,192,92809,1,0,0:0:0:0:
64,192,92920,1,0,0:0:0:0:
192,192,92920,1,0,0:0:0:0:
64,192,93031,1,0,0:0:0:70:dirty kick #2.wav
192,192,93031,1,0,0:0:0:0:
448,192,93031,1,0,0:0:0:0:
320,192,93142,1,0,0:0:0:0:
448,192,93142,1,0,0:0:0:0:
64,192,93253,1,0,0:0:0:70:dirty kick #2.wav
320,192,93253,1,0,0:0:0:0:
448,192,93253,1,0,0:0:0:0:
64,192,93364,1,0,0:0:0:0:
192,192,93364,1,0,0:0:0:0:
320,192,93420,1,0,0:0:0:0:
64,192,93476,1,0,0:0:0:70:dirty kick #2.wav
192,192,93476,1,0,0:0:0:0:
448,192,93476,1,0,0:0:0:0:
320,192,93587,1,0,0:0:0:0:
448,192,93587,1,0,0:0:0:0:
192,192,93642,1,0,0:0:0:0:
64,192,93698,1,0,0:0:0:70:dirty kick #2.wav
320,192,93698,1,0,0:0:0:0:
448,192,93698,1,0,0:0:0:0:
64,192,93809,1,0,0:0:0:0:
192,192,93809,1,0,0:0:0:0:
64,192,93920,1,0,0:0:0:70:dirty kick #2.wav
192,192,93920,1,0,0:0:0:0:
448,192,93920,1,0,0:0:0:0:
320,192,94031,1,0,0:0:0:0:
448,192,94031,1,0,0:0:0:0:
64,192,94142,1,0,0:0:0:70:dirty kick #2.wav
320,192,94142,1,0,0:0:0:0:
448,192,94142,1,0,0:0:0:0:
64,192,94253,1,0,0:0:0:0:
192,192,94253,1,0,0:0:0:0:
64,192,94364,1,0,0:0:0:70:dirty kick #2.wav
192,192,94364,1,0,0:0:0:0:
448,192,94364,1,0,0:0:0:0:
320,192,94476,1,0,0:0:0:0:
448,192,94476,1,0,0:0:0:0:
64,192,94587,1,0,0:0:0:70:dirty kick #2.wav
192,192,94587,1,0,0:0:0:0:
448,192,94587,1,0,0:0:0:0:
64,192,94698,1,0,0:0:0:0:
320,192,94698,1,0,0:0:0:0:
64,192,94809,1,0,0:0:0:70:dirty kick #2.wav
320,192,94809,1,0,0:0:0:0:
448,192,94809,1,0,0:0:0:0:
192,192,94920,1,0,0:0:0:0:
448,192,94920,1,0,0:0:0:0:
64,192,95031,1,0,0:0:0:70:dirty kick #2.wav
192,192,95031,1,0,0:0:0:0:
448,192,95031,1,0,0:0:0:0:
64,192,95142,1,0,0:0:0:0:
192,192,95142,1,0,0:0:0:0:
320,192,95198,1,0,0:0:0:0:
64,192,95253,1,0,0:0:0:70:dirty kick #2.wav
192,192,95253,1,0,0:0:0:0:
448,192,95253,1,0,0:0:0:0:
320,192,95364,1,0,0:0:0:0:
448,192,95364,1,0,0:0:0:0:
192,192,95420,1,0,0:0:0:0:
64,192,95476,1,0,0:0:0:70:dirty kick #2.wav
320,192,95476,1,0,0:0:0:0:
448,192,95476,1,0,0:0:0:0:
64,192,95587,1,0,0:0:0:0:
320,192,95587,1,0,0:0:0:0:
192,192,95698,1,0,0:0:0:70:dirty kick #2.wav
320,192,95698,1,0,0:0:0:0:
448,192,95698,1,0,0:0:0:0:
64,192,95809,1,0,0:0:0:0:
192,192,95809,1,0,0:0:0:0:
64,192,95920,1,0,0:0:0:70:dirty kick #2.wav
320,192,95920,1,0,0:0:0:0:
448,192,95920,1,0,0:0:0:0:
192,192,96031,1,0,0:0:0:0:
448,192,96031,1,0,0:0:0:0:
64,192,96142,1,0,0:0:0:70:dirty kick #2.wav
192,192,96142,1,0,0:0:0:0:
320,192,96142,1,0,0:0:0:0:
64,192,96253,1,0,0:0:0:0:
448,192,96253,1,0,0:0:0:0:
64,192,96364,1,0,0:0:0:70:dirty kick #2.wav
192,192,96364,1,0,0:0:0:0:
320,192,96364,1,0,0:0:0:0:
320,192,96476,1,0,0:0:0:0:
448,192,96476,1,0,0:0:0:0:
192,192,96587,1,0,0:0:0:70:dirty kick #2.wav
320,192,96587,1,0,0:0:0:0:
448,192,96587,1,0,0:0:0:0:
64,192,96698,1,0,0:0:0:0:
192,192,96698,1,0,0:0:0:0:
64,192,96809,1,0,0:0:0:70:dirty kick #2.wav
192,192,96809,1,0,0:0:0:0:
320,192,96809,1,0,0:0:0:0:
320,192,96920,1,0,0:0:0:0:
448,192,96920,1,0,0:0:0:0:
64,192,96976,1,0,0:0:0:0:
192,192,97031,1,0,0:0:0:70:dirty kick #2.wav
320,192,97031,1,0,0:0:0:0:
448,192,97031,1,0,0:0:0:0:
64,192,97142,1,0,0:0:0:0:
192,192,97142,1,0,0:0:0:0:
448,192,97198,1,0,0:0:0:0:
64,192,97253,1,0,0:0:0:70:dirty kick #2.wav
192,192,97253,1,0,0:0:0:0:
320,192,97253,1,0,0:0:0:0:
320,192,97364,1,0,0:0:0:0:
448,192,97364,1,0,0:0:0:0:
192,192,97476,1,0,0:0:0:70:dirty kick #2.wav
320,192,97476,1,0,0:0:0:0:
448,192,97476,1,0,0:0:0:0:
64,192,97587,1,0,0:0:0:0:
192,192,97587,1,0,0:0:0:0:
64,192,97698,1,0,0:0:0:70:dirty kick #2.wav
192,192,97698,1,0,0:0:0:0:
320,192,97698,1,0,0:0:0:0:
320,192,97809,1,0,0:0:0:0:
448,192,97809,1,0,0:0:0:0:
192,192,97920,1,0,0:0:0:70:dirty kick #2.wav
320,192,97920,1,0,0:0:0:0:
448,192,97920,1,0,0:0:0:0:
64,192,98031,1,0,0:0:0:0:
192,192,98031,1,0,0:0:0:0:
64,192,98142,1,0,0:0:0:70:dirty kick #2.wav
320,192,98142,1,0,0:0:0:0:
448,192,98142,1,0,0:0:0:0:
64,192,98253,1,0,0:0:0:0:
320,192,98253,1,0,0:0:0:0:
64,192,98364,1,0,0:0:0:70:dirty kick #2.wav
192,192,98364,1,0,0:0:0:0:
448,192,98364,1,0,0:0:0:0:
192,192,98476,1,0,0:0:0:0:
448,192,98476,1,0,0:0:0:0:
64,192,98587,1,0,0:0:0:70:dirty kick #2.wav
320,192,98587,1,0,0:0:0:0:
448,192,98587,1,0,0:0:0:0:
64,192,98698,1,0,0:0:0:0:
192,192,98698,1,0,0:0:0:0:
448,192,98753,1,0,0:0:0:0:
64,192,98809,1,0,0:0:0:70:dirty kick #2.wav
192,192,98809,1,0,0:0:0:0:
320,192,98809,1,0,0:0:0:0:
320,192,98920,1,0,0:0:0:0:
448,192,98920,1,0,0:0:0:0:
64,192,98976,1,0,0:0:0:0:
192,192,99031,1,0,0:0:0:70:dirty kick #2 low.wav
320,192,99031,1,0,0:0:0:70:cymbal00.wav
448,192,99031,1,0,0:0:0:0:
64,192,99142,1,0,0:0:0:0:
192,192,99142,1,0,0:0:0:0:
448,192,99142,1,0,0:0:0:0:
64,192,99253,1,0,0:0:0:70:dirty kick #2 low.wav
192,192,99253,1,0,0:0:0:70:cymbal00.wav
320,192,99253,1,0,0:0:0:0:
64,192,99364,1,0,0:0:0:0:
320,192,99364,1,0,0:0:0:0:
448,192,99364,1,0,0:0:0:0:
192,192,99476,1,0,0:0:0:70:dirty kick #2 low.wav
320,192,99531,1,0,0:0:0:0:
192,192,99587,1,0,0:0:0:0:
320,192,99642,1,0,0:0:0:0:
64,192,99698,1,0,0:0:0:70:dirty kick #2 low.wav
192,192,99698,1,0,0:0:0:70:cymbal00.wav
448,192,99698,1,0,0:0:0:0:
64,192,99920,1,0,0:0:0:70:dirty kick #2.wav
320,192,99920,1,0,0:0:0:70:cymbal00.wav
448,192,99920,1,0,0:0:0:0:
64,192,100031,1,0,0:0:0:0:
192,192,100142,1,0,0:0:0:70:dirty kick #2.wav
320,192,100142,1,0,0:0:0:0:
448,192,100142,1,0,0:0:0:0:
448,192,100253,1,0,0:0:0:0:
64,192,100364,1,0,0:0:0:70:dirty kick #2.wav
192,192,100364,1,0,0:0:0:0:
320,192,100364,1,0,0:0:0:0:
192,192,100476,1,0,0:0:0:0:
64,192,100587,1,0,0:0:0:70:dirty kick #2.wav
320,192,100587,1,0,0:0:0:0:
448,192,100587,1,0,0:0:0:0:
64,192,100698,1,0,0:0:0:0:
192,192,100809,1,0,0:0:0:70:dirty kick #2.wav
320,192,100809,1,0,0:0:0:0:
448,192,100809,1,0,0:0:0:0:
320,192,100920,1,0,0:0:0:0:
448,192,100920,1,0,0:0:0:0:
64,192,101031,1,0,0:0:0:70:dirty kick #2.wav
192,192,101031,1,0,0:0:0:0:
448,192,101031,1,0,0:0:0:0:
64,192,101142,1,0,0:0:0:0:
192,192,101253,1,0,0:0:0:70:dirty kick #2.wav
320,192,101253,1,0,0:0:0:0:
448,192,101253,1,0,0:0:0:0:
448,192,101364,1,0,0:0:0:0:
64,192,101476,1,0,0:0:0:70:dirty kick #2.wav
192,192,101476,1,0,0:0:0:0:
320,192,101476,1,0,0:0:0:0:
320,192,101587,1,0,0:0:0:0:
64,192,101698,1,0,0:0:0:70:dirty kick #2.wav
192,192,101698,1,0,0:0:0:0:
448,192,101698,1,0,0:0:0:0:
64,192,101809,1,0,0:0:0:0:
192,192,101920,1,0,0:0:0:70:dirty kick #2.wav
320,192,101920,1,0,0:0:0:0:
448,192,101920,1,0,0:0:0:0:
448,192,102031,1,0,0:0:0:0:
64,192,102142,1,0,0:0:0:70:dirty kick #2.wav
192,192,102142,1,0,0:0:0:0:
320,192,102142,1,0,0:0:0:0:
192,192,102253,1,0,0:0:0:0:
64,192,102364,1,0,0:0:0:70:dirty kick #2.wav
320,192,102364,1,0,0:0:0:0:
448,192,102364,1,0,0:0:0:0:
192,192,102420,1,0,0:0:0:0:
320,192,102476,1,0,0:0:0:0:
64,192,102587,1,0,0:0:0:70:dirty kick #2.wav
192,192,102587,1,0,0:0:0:0:
448,192,102587,1,0,0:0:0:0:
320,192,102698,1,0,0:0:0:0:
192,192,102753,1,0,0:0:0:0:
64,192,102809,1,0,0:0:0:70:dirty kick #2.wav
320,192,102809,1,0,0:0:0:0:
448,192,102809,1,0,0:0:0:0:
448,192,102920,1,0,0:0:0:0:
64,192,103031,1,0,0:0:0:70:dirty kick #2.wav
192,192,103031,1,0,0:0:0:0:
320,192,103031,1,0,0:0:0:0:
64,192,103142,1,0,0:0:0:0:
192,192,103253,1,0,0:0:0:70:dirty kick #2.wav
320,192,103253,1,0,0:0:0:0:
448,192,103253,1,0,0:0:0:0:
64,192,103364,1,0,0:0:0:0:
192,192,103420,1,0,0:0:0:0:
64,192,103476,1,0,0:0:0:70:dirty kick #2.wav
320,192,103476,1,0,0:0:0:0:
448,192,103476,1,0,0:0:0:0:
448,192,103587,1,0,0:0:0:0:
64,192,103698,1,0,0:0:0:70:dirty kick #2.wav
192,192,103698,1,0,0:0:0:0:
320,192,103698,1,0,0:0:0:0:
64,192,103809,1,0,0:0:0:0:
192,192,103920,1,0,0:0:0:70:dirty kick #2.wav
320,192,103920,1,0,0:0:0:0:
448,192,103920,1,0,0:0:0:0:
448,192,104031,1,0,0:0:0:0:
64,192,104142,1,0,0:0:0:70:dirty kick #2.wav
192,192,104142,1,0,0:0:0:0:
320,192,104142,1,0,0:0:0:0:
320,192,104253,1,0,0:0:0:0:
64,192,104364,1,0,0:0:0:70:dirty kick #2.wav
192,192,104364,1,0,0:0:0:0:
448,192,104364,1,0,0:0:0:0:
64,192,104476,1,0,0:0:0:0:
192,192,104476,1,0,0:0:0:0:
64,192,104587,1,0,0:0:0:70:dirty kick #2.wav
320,192,104587,1,0,0:0:0:0:
448,192,104587,1,0,0:0:0:0:
320,192,104698,1,0,0:0:0:0:
64,192,104809,1,0,0:0:0:70:dirty kick #2.wav
192,192,104809,1,0,0:0:0:0:
448,192,104809,1,0,0:0:0:0:
192,192,104920,1,0,0:0:0:0:
64,192,105031,1,0,0:0:0:70:dirty kick #2.wav
320,192,105031,1,0,0:0:0:0:
448,192,105031,1,0,0:0:0:0:
192,192,105142,1,0,0:0:0:0:
64,192,105198,1,0,0:0:0:0:
192,192,105253,1,0,0:0:0:70:dirty kick #2.wav
320,192,105253,1,0,0:0:0:0:
448,192,105253,1,0,0:0:0:0:
448,192,105364,1,0,0:0:0:0:
64,192,105476,1,0,0:0:0:70:dirty kick #2.wav
192,192,105476,1,0,0:0:0:0:
320,192,105476,1,0,0:0:0:0:
64,192,105587,1,0,0:0:0:0:
192,192,105698,1,0,0:0:0:70:dirty kick #2.wav
320,192,105698,1,0,0:0:0:0:
448,192,105698,1,0,0:0:0:0:
448,192,105809,1,0,0:0:0:0:
64,192,105920,1,0,0:0:0:70:dirty kick #2.wav
192,192,105920,1,0,0:0:0:0:
320,192,105920,1,0,0:0:0:0:
448,192,105976,1,0,0:0:0:0:
64,192,106031,1,0,0:0:0:0:
448,192,106142,1,0,0:0:0:0:
192,192,106253,1,0,0:0:0:0:
448,192,106364,1,0,0:0:0:0:
192,192,106476,1,0,0:0:0:0:
320,192,106587,1,0,0:0:0:0:
192,192,106698,1,0,0:0:0:0:
320,192,106809,1,0,0:0:0:0:
192,192,106920,1,0,0:0:0:0:
64,192,107031,1,0,0:0:0:70:dirty kick #2.wav
320,192,107031,1,0,0:0:0:0:
448,192,107031,1,0,0:0:0:0:
64,192,107142,1,0,0:0:0:0:
192,192,107253,1,0,0:0:0:70:dirty kick #2.wav
320,192,107253,1,0,0:0:0:0:
448,192,107253,1,0,0:0:0:0:
448,192,107364,1,0,0:0:0:0:
64,192,107476,1,0,0:0:0:70:dirty kick #2.wav
192,192,107476,1,0,0:0:0:0:
320,192,107476,1,0,0:0:0:0:
192,192,107587,1,0,0:0:0:0:
64,192,107698,1,0,0:0:0:70:dirty kick #2.wav
320,192,107698,1,0,0:0:0:0:
448,192,107698,1,0,0:0:0:0:
64,192,107809,1,0,0:0:0:0:
192,192,107920,1,0,0:0:0:70:dirty kick #2.wav
320,192,107920,1,0,0:0:0:0:
448,192,107920,1,0,0:0:0:0:
320,192,108031,1,0,0:0:0:0:
448,192,108031,1,0,0:0:0:0:
64,192,108142,1,0,0:0:0:70:dirty kick #2.wav
192,192,108142,1,0,0:0:0:0:
448,192,108142,1,0,0:0:0:0:
64,192,108253,1,0,0:0:0:0:
192,192,108364,1,0,0:0:0:70:dirty kick #2.wav
320,192,108364,1,0,0:0:0:0:
448,192,108364,1,0,0:0:0:0:
448,192,108476,1,0,0:0:0:0:
64,192,108587,1,0,0:0:0:70:dirty kick #2.wav
192,192,108587,1,0,0:0:0:0:
320,192,108587,1,0,0:0:0:0:
320,192,108698,1,0,0:0:0:0:
64,192,108809,1,0,0:0:0:70:dirty kick #2.wav
192,192,108809,1,0,0:0:0:0:
448,192,108809,1,0,0:0:0:0:
64,192,108920,1,0,0:0:0:0:
192,192,109031,1,0,0:0:0:70:dirty kick #2.wav
320,192,109031,1,0,0:0:0:0:
448,192,109031,1,0,0:0:0:0:
448,192,109142,1,0,0:0:0:0:
64,192,109253,1,0,0:0:0:70:dirty kick #2.wav
192,192,109253,1,0,0:0:0:0:
320,192,109253,1,0,0:0:0:0:
192,192,109364,1,0,0:0:0:0:
64,192,109476,1,0,0:0:0:70:dirty kick #2.wav
320,192,109476,1,0,0:0:0:0:
448,192,109476,1,0,0:0:0:0:
192,192,109531,1,0,0:0:0:0:
320,192,109587,1,0,0:0:0:0:
64,192,109698,1,0,0:0:0:70:dirty kick #2.wav
192,192,109698,1,0,0:0:0:0:
448,192,109698,1,0,0:0:0:0:
320,192,109809,1,0,0:0:0:0:
192,192,109864,1,0,0:0:0:0:
64,192,109920,1,0,0:0:0:70:dirty kick #2.wav
320,192,109920,1,0,0:0:0:0:
448,192,109920,1,0,0:0:0:0:
448,192,110031,1,0,0:0:0:0:
64,192,110142,1,0,0:0:0:70:dirty kick #2.wav
192,192,110142,1,0,0:0:0:0:
320,192,110142,1,0,0:0:0:0:
64,192,110253,1,0,0:0:0:0:
192,192,110364,1,0,0:0:0:70:dirty kick #2.wav
320,192,110364,1,0,0:0:0:0:
448,192,110364,1,0,0:0:0:0:
64,192,110476,1,0,0:0:0:0:
192,192,110531,1,0,0:0:0:0:
64,192,110587,1,0,0:0:0:70:dirty kick #2.wav
320,192,110587,1,0,0:0:0:0:
448,192,110587,1,0,0:0:0:0:
448,192,110698,1,0,0:0:0:0:
64,192,110809,1,0,0:0:0:70:dirty kick #2.wav
192,192,110809,1,0,0:0:0:0:
320,192,110809,1,0,0:0:0:0:
64,192,110920,1,0,0:0:0:0:
192,192,111031,1,0,0:0:0:70:dirty kick #2.wav
320,192,111031,1,0,0:0:0:0:
448,192,111031,1,0,0:0:0:0:
448,192,111142,1,0,0:0:0:0:
64,192,111253,1,0,0:0:0:70:dirty kick #2.wav
192,192,111253,1,0,0:0:0:0:
320,192,111253,1,0,0:0:0:0:
320,192,111364,1,0,0:0:0:0:
64,192,111476,1,0,0:0:0:70:dirty kick #2.wav
192,192,111476,1,0,0:0:0:0:
448,192,111476,1,0,0:0:0:0:
64,192,111587,1,0,0:0:0:0:
192,192,111587,1,0,0:0:0:0:
64,192,111698,1,0,0:0:0:70:dirty kick #2.wav
320,192,111698,1,0,0:0:0:0:
448,192,111698,1,0,0:0:0:0:
320,192,111809,1,0,0:0:0:0:
64,192,111920,1,0,0:0:0:70:dirty kick #2.wav
192,192,111920,1,0,0:0:0:0:
448,192,111920,1,0,0:0:0:0:
192,192,112031,1,0,0:0:0:0:
64,192,112142,1,0,0:0:0:70:dirty kick #2.wav
320,192,112142,1,0,0:0:0:0:
448,192,112142,1,0,0:0:0:0:
64,192,112253,1,0,0:0:0:0:
192,192,112364,1,0,0:0:0:70:dirty kick #2.wav
320,192,112364,1,0,0:0:0:0:
448,192,112364,1,0,0:0:0:0:
448,192,112476,1,0,0:0:0:0:
64,192,112587,1,0,0:0:0:70:dirty kick #2.wav
192,192,112587,1,0,0:0:0:0:
320,192,112587,1,0,0:0:0:0:
64,192,112698,1,0,0:0:0:0:
192,192,112809,1,0,0:0:0:70:dirty kick #2.wav
320,192,112809,1,0,0:0:0:0:
448,192,112809,1,0,0:0:0:0:
448,192,112920,1,0,0:0:0:0:
192,192,112976,1,0,0:0:0:0:
64,192,113031,1,0,0:0:0:70:dirty kick #2.wav
320,192,113031,1,0,0:0:0:0:
448,192,113031,1,0,0:0:0:0:
192,192,113142,1,0,0:0:0:0:
64,192,113198,1,0,0:0:0:0:
320,192,113253,1,0,0:0:0:0:
448,192,113323,1,0,0:0:0:0:
192,192,113364,1,0,0:0:0:0:
448,192,113434,1,0,0:0:0:0:
64,192,113550,1,0,0:0:0:0:
192,192,113587,1,0,0:0:0:0:
320,192,113624,1,0,0:0:0:0:
448,192,113661,1,0,0:0:0:0:
192,192,113698,1,0,0:0:0:0:
64,192,113767,1,0,0:0:0:0:
320,192,113809,1,0,0:0:0:0:
64,192,113878,1,0,0:0:0:0:
448,192,113976,1,0,0:0:0:0:
320,192,114031,1,0,0:0:0:0:
192,192,114087,1,0,0:0:0:0:
64,192,114142,1,0,0:0:0:70:dirty kick #2.wav
320,192,114142,1,0,0:0:0:70:cymbal00.wav
448,192,114142,1,0,0:0:0:0:
320,192,114253,1,0,0:0:0:0:
448,192,114253,1,0,0:0:0:0:
64,192,114364,1,0,0:0:0:70:dirty kick #2.wav
192,192,114364,1,0,0:0:0:0:
448,192,114364,1,0,0:0:0:0:
64,192,114476,1,0,0:0:0:0:
192,192,114476,1,0,0:0:0:0:
64,192,114587,1,0,0:0:0:70:dirty kick #2.wav
320,192,114587,1,0,0:0:0:0:
448,192,114587,1,0,0:0:0:0:
320,192,114698,1,0,0:0:0:0:
448,192,114698,1,0,0:0:0:0:
64,192,114809,1,0,0:0:0:70:dirty kick #2.wav
192,192,114809,1,0,0:0:0:0:
448,192,114809,1,0,0:0:0:0:
64,192,114920,1,0,0:0:0:0:
192,192,114920,1,0,0:0:0:0:
64,192,115031,1,0,0:0:0:70:dirty kick #2.wav
320,192,115031,1,0,0:0:0:0:
448,192,115031,1,0,0:0:0:0:
320,192,115142,1,0,0:0:0:0:
448,192,115142,1,0,0:0:0:0:
64,192,115253,1,0,0:0:0:70:dirty kick #2.wav
192,192,115253,1,0,0:0:0:0:
448,192,115253,1,0,0:0:0:0:
64,192,115364,1,0,0:0:0:0:
192,192,115364,1,0,0:0:0:0:
64,192,115476,1,0,0:0:0:70:dirty kick #2.wav
320,192,115476,1,0,0:0:0:0:
448,192,115476,1,0,0:0:0:0:
320,192,115587,1,0,0:0:0:0:
448,192,115587,1,0,0:0:0:0:
64,192,115698,1,0,0:0:0:70:dirty kick #2.wav
192,192,115698,1,0,0:0:0:0:
448,192,115698,1,0,0:0:0:0:
64,192,115809,1,0,0:0:0:0:
320,192,115809,1,0,0:0:0:0:
64,192,115920,1,0,0:0:0:70:dirty kick #2.wav
320,192,115920,1,0,0:0:0:0:
448,192,115920,1,0,0:0:0:0:
192,192,116031,1,0,0:0:0:0:
448,192,116031,1,0,0:0:0:0:
192,192,116142,1,0,0:0:0:70:dirty kick #2.wav
320,192,116142,1,0,0:0:0:0:
448,192,116142,1,0,0:0:0:0:
64,192,116253,1,0,0:0:0:0:
320,192,116253,1,0,0:0:0:0:
64,192,116364,1,0,0:0:0:70:dirty kick #2.wav
192,192,116364,1,0,0:0:0:0:
320,192,116364,1,0,0:0:0:0:
192,192,116476,1,0,0:0:0:0:
448,192,116476,1,0,0:0:0:0:
192,192,116587,1,0,0:0:0:70:dirty kick #2.wav
320,192,116587,1,0,0:0:0:0:
448,192,116587,1,0,0:0:0:0:
64,192,116698,1,0,0:0:0:0:
320,192,116698,1,0,0:0:0:0:
64,192,116809,1,0,0:0:0:70:dirty kick #2.wav
192,192,116809,1,0,0:0:0:0:
320,192,116809,1,0,0:0:0:0:
192,192,116920,1,0,0:0:0:0:
448,192,116920,1,0,0:0:0:0:
64,192,117031,1,0,0:0:0:70:dirty kick #2.wav
192,192,117031,1,0,0:0:0:0:
320,192,117031,1,0,0:0:0:0:
64,192,117142,1,0,0:0:0:0:
448,192,117142,1,0,0:0:0:0:
192,192,117253,1,0,0:0:0:70:dirty kick #2.wav
320,192,117253,1,0,0:0:0:0:
448,192,117253,1,0,0:0:0:0:
64,192,117364,1,0,0:0:0:0:
320,192,117364,1,0,0:0:0:0:
64,192,117476,1,0,0:0:0:70:dirty kick #2.wav
192,192,117476,1,0,0:0:0:0:
448,192,117476,1,0,0:0:0:0:
192,192,117587,1,0,0:0:0:0:
320,192,117587,1,0,0:0:0:0:
64,192,117698,1,0,0:0:0:70:dirty kick #2.wav
320,192,117698,1,0,0:0:0:0:
448,192,117698,1,0,0:0:0:0:
64,192,117809,1,0,0:0:0:0:
192,192,117809,1,0,0:0:0:0:
64,192,117920,1,0,0:0:0:70:dirty kick #2.wav
192,192,117920,1,0,0:0:0:0:
448,192,117920,1,0,0:0:0:0:
320,192,118031,1,0,0:0:0:0:
448,192,118031,1,0,0:0:0:0:
64,192,118142,1,0,0:0:0:70:dirty kick #2.wav
320,192,118142,1,0,0:0:0:0:
448,192,118142,1,0,0:0:0:0:
64,192,118253,1,0,0:0:0:0:
192,192,118253,1,0,0:0:0:0:
64,192,118364,1,0,0:0:0:70:dirty kick #2.wav
192,192,118364,1,0,0:0:0:0:
448,192,118364,1,0,0:0:0:0:
320,192,118476,1,0,0:0:0:0:
448,192,118476,1,0,0:0:0:0:
192,192,118587,1,0,0:0:0:70:dirty kick #2.wav
320,192,118587,1,0,0:0:0:0:
448,192,118587,1,0,0:0:0:0:
64,192,118698,1,0,0:0:0:0:
192,192,118698,1,0,0:0:0:0:
64,192,118809,1,0,0:0:0:70:dirty kick #2.wav
192,192,118809,1,0,0:0:0:0:
448,192,118809,1,0,0:0:0:0:
320,192,118920,1,0,0:0:0:0:
448,192,118920,1,0,0:0:0:0:
64,192,119031,1,0,0:0:0:70:dirty kick #2.wav
320,192,119031,1,0,0:0:0:0:
448,192,119031,1,0,0:0:0:0:
64,192,119142,1,0,0:0:0:0:
192,192,119142,1,0,0:0:0:0:
64,192,119253,1,0,0:0:0:70:dirty kick #2.wav
192,192,119253,1,0,0:0:0:0:
320,192,119253,1,0,0:0:0:0:
64,192,119364,1,0,0:0:0:0:
448,192,119364,1,0,0:0:0:0:
192,192,119476,1,0,0:0:0:70:dirty kick #2.wav
320,192,119476,1,0,0:0:0:0:
448,192,119476,1,0,0:0:0:0:
192,192,119587,1,0,0:0:0:0:
320,192,119587,1,0,0:0:0:0:
64,192,119698,1,0,0:0:0:70:dirty kick #2.wav
320,192,119698,1,0,0:0:0:0:
448,192,119698,1,0,0:0:0:0:
64,192,119809,1,0,0:0:0:0:
448,192,119809,1,0,0:0:0:0:
64,192,119920,1,0,0:0:0:70:dirty kick #2.wav
192,192,119920,1,0,0:0:0:0:
320,192,119920,1,0,0:0:0:0:
192,192,120031,1,0,0:0:0:0:
320,192,120031,1,0,0:0:0:0:
64,192,120142,1,0,0:0:0:70:dirty kick #2.wav
320,192,120142,1,0,0:0:0:0:
448,192,120142,1,0,0:0:0:0:
64,192,120253,1,0,0:0:0:0:
448,192,120253,1,0,0:0:0:0:
192,192,120364,1,0,0:0:0:70:dirty kick #2.wav
320,192,120364,1,0,0:0:0:0:
448,192,120364,1,0,0:0:0:0:
64,192,120476,1,0,0:0:0:0:
320,192,120476,1,0,0:0:0:0:
64,192,120587,1,0,0:0:0:70:dirty kick #2.wav
192,192,120587,1,0,0:0:0:0:
448,192,120587,1,0,0:0:0:0:
320,192,120698,1,0,0:0:0:0:
448,192,120698,1,0,0:0:0:0:
64,192,120809,1,0,0:0:0:70:dirty kick #2.wav
192,192,120809,1,0,0:0:0:0:
320,192,120809,1,0,0:0:0:0:
192,192,120920,1,0,0:0:0:0:
448,192,120920,1,0,0:0:0:0:
64,192,121031,1,0,0:0:0:70:dirty kick #2.wav
320,192,121031,1,0,0:0:0:0:
448,192,121031,1,0,0:0:0:0:
64,192,121142,1,0,0:0:0:0:
192,192,121142,1,0,0:0:0:0:
64,192,121253,1,0,0:0:0:70:dirty kick #2.wav
192,192,121253,1,0,0:0:0:70:cymbal00.wav
320,192,121253,1,0,0:0:0:0:
448,192,121253,1,0,0:0:0:0:
320,192,121364,1,0,0:0:0:0:
448,192,121364,1,0,0:0:0:0:
64,192,121476,1,0,0:0:0:70:dirty kick #2.wav
192,192,121476,1,0,0:0:0:0:
448,192,121476,1,0,0:0:0:0:
64,192,121587,1,0,0:0:0:0:
192,192,121587,1,0,0:0:0:0:
64,192,121698,1,0,0:0:0:70:dirty kick #2.wav
320,192,121698,1,0,0:0:0:0:
448,192,121698,1,0,0:0:0:0:
320,192,121809,1,0,0:0:0:0:
448,192,121809,1,0,0:0:0:0:
64,192,121920,1,0,0:0:0:70:dirty kick #2.wav
192,192,121920,1,0,0:0:0:0:
448,192,121920,1,0,0:0:0:0:
64,192,122031,1,0,0:0:0:0:
192,192,122031,1,0,0:0:0:0:
64,192,122142,1,0,0:0:0:70:dirty kick #2.wav
320,192,122142,1,0,0:0:0:0:
448,192,122142,1,0,0:0:0:0:
320,192,122253,1,0,0:0:0:0:
448,192,122253,1,0,0:0:0:0:
64,192,122364,1,0,0:0:0:70:dirty kick #2.wav
192,192,122364,1,0,0:0:0:0:
448,192,122364,1,0,0:0:0:0:
64,192,122476,1,0,0:0:0:0:
192,192,122476,1,0,0:0:0:0:
64,192,122587,1,0,0:0:0:70:dirty kick #2.wav
320,192,122587,1,0,0:0:0:0:
448,192,122587,1,0,0:0:0:0:
320,192,122698,1,0,0:0:0:0:
448,192,122698,1,0,0:0:0:0:
64,192,122809,1,0,0:0:0:70:dirty kick #2.wav
192,192,122809,1,0,0:0:0:0:
448,192,122809,1,0,0:0:0:0:
64,192,122920,1,0,0:0:0:0:
320,192,122920,1,0,0:0:0:0:
64,192,123031,1,0,0:0:0:70:dirty kick #2.wav
192,192,123031,1,0,0:0:0:70:cymbal00.wav
320,192,123031,1,0,0:0:0:0:
448,192,123031,1,0,0:0:0:0:
192,192,123142,1,0,0:0:0:0:
448,192,123142,1,0,0:0:0:0:
192,192,123253,1,0,0:0:0:70:dirty kick #2.wav
320,192,123253,1,0,0:0:0:0:
448,192,123253,1,0,0:0:0:0:
64,192,123364,1,0,0:0:0:0:
320,192,123364,1,0,0:0:0:0:
64,192,123476,1,0,0:0:0:70:dirty kick #2.wav
192,192,123476,1,0,0:0:0:0:
320,192,123476,1,0,0:0:0:0:
192,192,123587,1,0,0:0:0:0:
448,192,123587,1,0,0:0:0:0:
192,192,123698,1,0,0:0:0:70:dirty kick #2.wav
320,192,123698,1,0,0:0:0:0:
448,192,123698,1,0,0:0:0:0:
64,192,123809,1,0,0:0:0:0:
320,192,123809,1,0,0:0:0:0:
64,192,123920,1,0,0:0:0:70:dirty kick #2.wav
192,192,123920,1,0,0:0:0:0:
320,192,123920,1,0,0:0:0:0:
192,192,124031,1,0,0:0:0:0:
448,192,124031,1,0,0:0:0:0:
64,192,124142,1,0,0:0:0:70:dirty kick #2.wav
192,192,124142,1,0,0:0:0:0:
320,192,124142,1,0,0:0:0:0:
64,192,124253,1,0,0:0:0:0:
448,192,124253,1,0,0:0:0:0:
192,192,124364,1,0,0:0:0:70:dirty kick #2.wav
320,192,124364,1,0,0:0:0:0:
448,192,124364,1,0,0:0:0:0:
64,192,124476,1,0,0:0:0:0:
320,192,124476,1,0,0:0:0:0:
64,192,124587,1,0,0:0:0:70:dirty kick #2.wav
192,192,124587,1,0,0:0:0:0:
448,192,124587,1,0,0:0:0:0:
320,192,124698,1,0,0:0:0:0:
448,192,124698,1,0,0:0:0:0:
64,192,124809,1,0,0:0:0:70:dirty kick #2.wav
192,192,124809,1,0,0:0:0:70:cymbal00.wav
320,192,124809,1,0,0:0:0:0:
448,192,124809,1,0,0:0:0:0:
64,192,124920,1,0,0:0:0:0:
192,192,124920,1,0,0:0:0:0:
64,192,125031,1,0,0:0:0:70:dirty kick #2.wav
192,192,125031,1,0,0:0:0:0:
448,192,125031,1,0,0:0:0:0:
320,192,125142,1,0,0:0:0:0:
448,192,125142,1,0,0:0:0:0:
64,192,125253,1,0,0:0:0:70:dirty kick #2.wav
320,192,125253,1,0,0:0:0:0:
448,192,125253,1,0,0:0:0:0:
64,192,125364,1,0,0:0:0:0:
192,192,125364,1,0,0:0:0:0:
64,192,125476,1,0,0:0:0:70:dirty kick #2.wav
192,192,125476,1,0,0:0:0:0:
448,192,125476,1,0,0:0:0:0:
320,192,125587,1,0,0:0:0:0:
448,192,125587,1,0,0:0:0:0:
64,192,125698,1,0,0:0:0:70:dirty kick #2.wav
192,192,125698,1,0,0:0:0:70:cymbal00.wav
320,192,125698,1,0,0:0:0:0:
448,192,125698,1,0,0:0:0:0:
64,192,125809,1,0,0:0:0:0:
192,192,125809,1,0,0:0:0:0:
64,192,125920,1,0,0:0:0:70:dirty kick #2.wav
192,192,125920,1,0,0:0:0:0:
448,192,125920,1,0,0:0:0:0:
320,192,126031,1,0,0:0:0:0:
448,192,126031,1,0,0:0:0:0:
64,192,126142,1,0,0:0:0:70:dirty kick #2.wav
320,192,126142,1,0,0:0:0:0:
448,192,126142,1,0,0:0:0:0:
64,192,126253,1,0,0:0:0:0:
192,192,126253,1,0,0:0:0:0:
64,192,126364,1,0,0:0:0:70:dirty kick #2.wav
192,192,126364,1,0,0:0:0:0:
320,192,126364,1,0,0:0:0:0:
64,192,126476,1,0,0:0:0:0:
448,192,126476,1,0,0:0:0:0:
64,192,126587,1,0,0:0:0:70:dirty kick #2.wav
192,192,126587,1,0,0:0:0:70:cymbal00.wav
320,192,126587,1,0,0:0:0:0:
448,192,126587,1,0,0:0:0:0:
320,192,126698,1,0,0:0:0:0:
448,192,126698,1,0,0:0:0:0:
64,192,126809,1,0,0:0:0:70:dirty kick #2.wav
192,192,126809,1,0,0:0:0:70:cymbal00.wav
320,192,126809,1,0,0:0:0:0:
448,192,126809,1,0,0:0:0:0:
64,192,126920,1,0,0:0:0:0:
192,192,126920,1,0,0:0:0:0:
64,192,127031,1,0,0:0:0:70:dirty kick #2.wav
320,192,127031,1,0,0:0:0:0:
448,192,127031,1,0,0:0:0:0:
192,192,127142,1,0,0:0:0:0:
320,192,127142,1,0,0:0:0:0:
64,192,127253,1,0,0:0:0:70:dirty kick #2.wav
192,192,127253,1,0,0:0:0:70:cymbal00.wav
320,192,127253,1,0,0:0:0:0:
448,192,127253,1,0,0:0:0:0:
64,192,127364,1,0,0:0:0:0:
448,192,127364,1,0,0:0:0:0:
320,192,127476,1,0,0:0:0:0:
192,192,127503,1,0,0:0:0:0:
448,192,127587,1,0,0:0:0:0:
192,192,127614,1,0,0:0:0:0:
320,192,127698,1,0,0:0:0:0:
192,192,127753,1,0,0:0:0:0:
64,192,127809,1,0,0:0:0:0:
192,192,127920,1,0,0:0:0:0:
448,192,127948,1,0,0:0:0:0:
320,192,128031,1,0,0:0:0:0:
448,192,128059,1,0,0:0:0:0:
64,192,128142,1,0,0:0:0:0:
192,192,128170,1,0,0:0:0:0:
320,192,128198,1,0,0:0:0:0:
448,192,128226,1,0,0:0:0:0:
64,192,128253,1,0,0:0:0:0:
192,192,128281,1,0,0:0:0:0:
