osu file format v14

[General]
AudioFilename: 28-horrible-heartbeat-stage-5-from-contra.mp3
AudioLeadIn: 0
PreviewTime: 12578
Countdown: 0
SampleSet: Soft
StackLeniency: 0.7
Mode: 3
LetterboxInBreaks: 0
SpecialStyle: 0
WidescreenStoryboard: 0

[Editor]
DistanceSpacing: 1.9
BeatDivisor: 4
GridSize: 4
TimelineZoom: 1.5

[Metadata]
Title:Senritsu no Kodou
TitleUnicode:戦慄の鼓動
Artist:Manabu Namiki
ArtistUnicode:並木学
Creator:Surono
Version:HD
Source:魂斗羅ReBirth
Tags:castlevania the adventure rebirth original soundtrack contra stage 5 raediaufar
BeatmapID:802001
BeatmapSetID:319117

[Difficulty]
HPDrainRate:7
CircleSize:4
OverallDifficulty:8
ApproachRate:0
SliderMultiplier:1.4
SliderTickRate:1

[Events]
//Background and Video events
0,0,"Alien_Heart.jpg",0,0
//Break Periods
//Storyboard Layer 0 (Background)
//Storyboard Layer 1 (Fail)
//Storyboard Layer 2 (Pass)
//Storyboard Layer 3 (Foreground)
//Storyboard Sound Samples

[TimingPoints]
473,263.157894736842,4,2,1,50,1,0
13104,263.157894736842,5,2,1,50,1,1
14420,263.157894736842,6,2,1,50,1,1
15999,263.157894736842,5,2,1,50,1,1
17315,263.157894736842,6,2,1,50,1,1
18894,263.157894736842,5,2,1,50,1,1
20209,263.157894736842,6,2,1,50,1,1
21788,263.157894736842,5,2,1,50,1,1
23104,263.157894736842,6,2,1,50,1,1
24683,263.157894736842,5,2,1,50,1,0
28630,263.157894736842,6,2,1,50,1,0
47578,263.157894736842,7,2,1,50,1,1
54946,263.157894736842,4,2,1,50,1,0

[HitObjects]
320,192,473,5,2,0:0:0:0:
448,192,473,1,4,0:0:0:0:
64,192,473,128,0,3630:0:0:0:0:
448,192,999,1,2,0:0:0:0:
192,192,1525,1,2,0:0:0:0:
448,192,2051,1,2,0:0:0:0:
192,192,2578,1,8,0:0:0:0:
320,192,2709,1,8,0:0:0:0:
448,192,2841,1,8,0:0:0:0:
320,192,2972,1,8,0:0:0:0:
192,192,3104,1,2,0:0:0:0:
320,192,3236,1,8,0:0:0:0:
192,192,3367,1,8,0:0:0:0:
448,192,3630,128,0,6788:0:0:0:0:
320,192,3630,1,2,0:0:0:0:
64,192,4157,1,2,0:0:0:0:
320,192,4683,1,2,0:0:0:0:
64,192,5209,1,2,0:0:0:0:
320,192,5736,1,8,0:0:0:0:
192,192,5867,1,8,0:0:0:0:
320,192,5999,1,8,0:0:0:0:
64,192,6262,1,8,0:0:0:0:
192,192,6394,1,8,0:0:0:0:
64,192,6525,1,8,0:0:0:0:
192,192,6788,128,0,9946:0:0:0:0:
320,192,6788,1,2,0:0:0:0:
64,192,7315,1,2,0:0:0:0:
448,192,7841,1,2,0:0:0:0:
64,192,8367,1,2,0:0:0:0:
448,192,8894,1,8,0:0:0:0:
320,192,9025,1,8,0:0:0:0:
64,192,9157,1,8,0:0:0:0:
320,192,9288,1,8,0:0:0:0:
448,192,9420,1,2,0:0:0:0:
320,192,9551,1,8,0:0:0:0:
448,192,9683,1,8,0:0:0:0:
320,192,9946,128,0,13104:0:0:0:0:
64,192,9946,1,2,0:0:0:0:
448,192,10472,1,2,0:0:0:0:
64,192,10999,1,2,0:0:0:0:
448,192,11525,1,2,0:0:0:0:
64,192,12051,1,8,0:0:0:0:
192,192,12183,1,8,0:0:0:0:
64,192,12315,1,8,0:0:0:0:
448,192,12578,1,2,3:0:0:0:
192,192,12644,1,2,0:0:0:0:
64,192,12709,1,2,0:0:0:0:
448,192,12841,1,2,3:0:0:0:
192,192,12972,1,2,0:0:0:0:
64,192,13104,1,8,3:0:0:0:
448,192,13104,1,2,0:0:0:0:
192,192,13235,1,0,0:0:0:0:
320,192,13367,1,0,0:0:0:0:
448,192,13498,1,0,0:0:0:0:
192,192,13498,1,2,0:0:0:0:
64,192,13761,1,0,0:0:0:0:
448,192,13893,1,8,0:0:0:0:
320,192,13893,1,0,0:0:0:0:
64,192,14025,1,0,0:0:0:0:
448,192,14156,1,8,0:0:0:0:
192,192,14156,1,0,0:0:0:0:
320,192,14288,1,0,0:0:0:0:
192,192,14419,1,0,0:0:0:0:
64,192,14420,1,2,0:0:0:0:
448,192,14551,1,0,0:0:0:0:
320,192,14683,1,0,0:0:0:0:
64,192,14683,1,8,0:0:0:0:
192,192,14946,1,2,0:0:0:0:
448,192,15209,1,8,0:0:0:0:
320,192,15275,1,8,0:0:0:0:
192,192,15341,1,8,0:0:0:0:
448,192,15472,1,8,0:0:0:0:
192,192,15604,1,0,0:0:0:0:
64,192,15604,1,0,0:0:0:0:
448,192,15735,1,2,0:0:0:0:
320,192,15867,1,0,0:0:0:0:
192,192,15867,1,0,0:0:0:0:
64,192,15998,1,8,0:0:0:0:
448,192,15999,1,2,0:0:0:0:
320,192,16130,1,0,0:0:0:0:
192,192,16262,1,0,0:0:0:0:
64,192,16393,1,0,0:0:0:0:
320,192,16393,1,2,0:0:0:0:
448,192,16656,1,0,0:0:0:0:
64,192,16788,1,8,0:0:0:0:
192,192,16788,1,0,0:0:0:0:
448,192,16920,1,0,0:0:0:0:
64,192,17051,1,8,0:0:0:0:
320,192,17051,1,0,0:0:0:0:
192,192,17183,1,0,0:0:0:0:
320,192,17314,1,0,0:0:0:0:
448,192,17315,1,2,0:0:0:0:
64,192,17446,1,0,0:0:0:0:
192,192,17578,1,0,0:0:0:0:
448,192,17578,1,8,0:0:0:0:
320,192,17841,1,2,0:0:0:0:
64,192,18104,1,8,0:0:0:0:
192,192,18170,1,8,0:0:0:0:
320,192,18236,1,8,0:0:0:0:
64,192,18367,1,8,0:0:0:0:
320,192,18499,1,0,0:0:0:0:
448,192,18499,1,0,0:0:0:0:
64,192,18630,1,2,0:0:0:0:
192,192,18762,1,0,0:0:0:0:
320,192,18762,1,0,0:0:0:0:
448,192,18894,1,8,0:0:0:0:
64,192,18894,1,2,0:0:0:0:
192,192,19025,1,0,0:0:0:0:
320,192,19157,1,0,0:0:0:0:
448,192,19288,1,0,0:0:0:0:
192,192,19288,1,2,0:0:0:0:
64,192,19551,1,0,0:0:0:0:
448,192,19683,1,8,0:0:0:0:
320,192,19683,1,0,0:0:0:0:
64,192,19815,1,0,0:0:0:0:
448,192,19946,1,8,0:0:0:0:
192,192,19946,1,0,0:0:0:0:
320,192,20078,1,0,0:0:0:0:
192,192,20209,1,0,0:0:0:0:
64,192,20209,1,2,0:0:0:0:
448,192,20340,1,0,0:0:0:0:
320,192,20472,1,0,0:0:0:0:
64,192,20472,1,8,0:0:0:0:
192,192,20735,1,2,0:0:0:0:
448,192,20998,1,8,0:0:0:0:
320,192,21064,1,8,0:0:0:0:
192,192,21130,1,8,0:0:0:0:
448,192,21261,1,8,0:0:0:0:
192,192,21393,1,0,0:0:0:0:
64,192,21393,1,0,0:0:0:0:
448,192,21524,1,2,0:0:0:0:
320,192,21656,1,0,0:0:0:0:
192,192,21656,1,0,0:0:0:0:
64,192,21787,1,8,0:0:0:0:
448,192,21788,1,2,0:0:0:0:
320,192,21919,1,0,0:0:0:0:
192,192,22051,1,0,0:0:0:0:
64,192,22182,1,0,0:0:0:0:
320,192,22182,1,2,0:0:0:0:
448,192,22445,1,0,0:0:0:0:
64,192,22577,1,8,0:0:0:0:
192,192,22577,1,0,0:0:0:0:
448,192,22709,1,0,0:0:0:0:
64,192,22840,1,8,0:0:0:0:
320,192,22840,1,0,0:0:0:0:
192,192,22972,1,0,0:0:0:0:
320,192,23103,1,0,0:0:0:0:
448,192,23103,1,2,0:0:0:0:
64,192,23235,1,0,0:0:0:0:
192,192,23367,1,0,0:0:0:0:
448,192,23367,1,8,0:0:0:0:
320,192,23630,1,2,0:0:0:0:
64,192,23893,1,8,0:0:0:0:
192,192,23959,1,8,0:0:0:0:
320,192,24025,1,8,0:0:0:0:
64,192,24156,1,8,0:0:0:0:
320,192,24288,1,0,0:0:0:0:
448,192,24288,1,0,0:0:0:0:
64,192,24419,1,2,0:0:0:0:
192,192,24551,1,0,0:0:0:0:
320,192,24551,1,0,0:0:0:0:
448,192,24683,1,8,0:0:0:0:
64,192,24683,1,2,0:0:0:0:
192,192,24814,1,0,0:0:0:0:
320,192,24946,1,0,0:0:0:0:
448,192,25077,1,2,0:0:0:0:
64,192,25077,1,0,0:0:0:0:
320,192,25209,1,0,0:0:0:0:
192,192,25340,1,0,0:0:0:0:
64,192,25472,1,0,0:0:0:0:
448,192,25472,1,8,0:0:0:0:
192,192,25604,1,0,0:0:0:0:
320,192,25735,1,0,0:0:0:0:
192,192,25867,1,0,0:0:0:0:
64,192,25998,1,8,0:0:0:0:
448,192,25998,1,2,0:0:0:0:
320,192,26130,1,0,0:0:0:0:
192,192,26261,1,0,0:0:0:0:
64,192,26393,1,2,0:0:0:0:
448,192,26393,1,0,0:0:0:0:
192,192,26525,1,0,0:0:0:0:
320,192,26656,1,0,0:0:0:0:
448,192,26788,1,0,0:0:0:0:
64,192,26788,1,8,0:0:0:0:
320,192,26919,1,0,0:0:0:0:
192,192,27051,1,2,0:0:0:0:
320,192,27183,1,0,0:0:0:0:
64,192,27314,1,2,0:0:0:0:
448,192,27314,1,8,0:0:0:0:
192,192,27446,1,0,0:0:0:0:
320,192,27577,1,0,0:0:0:0:
448,192,27709,1,2,0:0:0:0:
64,192,27709,1,0,0:0:0:0:
320,192,27840,1,0,0:0:0:0:
192,192,27972,1,0,0:0:0:0:
64,192,28104,1,0,0:0:0:0:
448,192,28104,1,8,0:0:0:0:
192,192,28235,1,0,0:0:0:0:
320,192,28367,1,2,0:0:0:0:
192,192,28498,1,0,0:0:0:0:
320,192,28630,128,0,29419:0:0:0:0:
64,192,28630,1,2,0:0:0:0:
448,192,28761,1,0,0:0:0:0:
64,192,29024,1,0,0:0:0:0:
448,192,29156,1,0,0:0:0:0:
192,192,29156,1,0,0:0:0:0:
192,192,29419,128,0,30208:0:0:0:0:
64,192,29419,1,8,0:0:0:0:
448,192,29551,1,0,0:0:0:0:
320,192,29682,1,8,0:0:0:0:
64,192,29945,1,0,0:0:0:0:
448,192,30208,128,0,30998:0:0:0:0:
320,192,30208,1,2,0:0:0:0:
64,192,30340,1,0,0:0:0:0:
320,192,30603,1,0,0:0:0:0:
64,192,30735,1,0,0:0:0:0:
192,192,30735,1,0,0:0:0:0:
64,192,30998,128,0,31787:0:0:0:0:
320,192,30998,1,8,0:0:0:0:
192,192,31130,1,0,0:0:0:0:
448,192,31261,1,8,0:0:0:0:
320,192,31524,1,0,0:0:0:0:
448,192,31787,128,0,32577:0:0:0:0:
192,192,31787,1,2,0:0:0:0:
320,192,31919,1,0,0:0:0:0:
192,192,32182,1,0,0:0:0:0:
64,192,32314,1,0,0:0:0:0:
320,192,32314,1,0,0:0:0:0:
320,192,32577,128,0,33366:0:0:0:0:
64,192,32577,1,8,0:0:0:0:
192,192,32708,1,0,0:0:0:0:
448,192,32840,1,8,0:0:0:0:
64,192,33103,1,0,0:0:0:0:
64,192,33366,1,8,0:0:0:0:
448,192,33366,1,2,0:0:0:0:
192,192,33498,1,0,0:0:0:0:
320,192,33630,1,0,0:0:0:0:
192,192,33761,1,8,0:0:0:0:
64,192,33761,1,2,0:0:0:0:
320,192,33893,1,0,0:0:0:0:
192,192,34024,1,0,0:0:0:0:
320,192,34156,1,8,0:0:0:0:
448,192,34156,1,2,0:0:0:0:
192,192,34287,1,0,0:0:0:0:
320,192,34419,1,0,0:0:0:0:
192,192,34551,1,8,0:0:0:0:
64,192,34551,1,2,0:0:0:0:
320,192,34682,1,0,0:0:0:0:
192,192,34814,1,0,0:0:0:0:
320,192,34945,128,0,35735:0:0:0:0:
64,192,34945,1,2,0:0:0:0:
448,192,35077,1,0,0:0:0:0:
64,192,35340,1,0,0:0:0:0:
192,192,35472,1,0,0:0:0:0:
448,192,35472,1,0,0:0:0:0:
64,192,35735,1,8,0:0:0:0:
192,192,35735,128,0,36524:0:0:0:0:
448,192,35866,1,0,0:0:0:0:
320,192,35998,1,8,0:0:0:0:
64,192,36261,1,0,0:0:0:0:
448,192,36524,128,0,37314:0:0:0:0:
320,192,36524,1,2,0:0:0:0:
64,192,36656,1,0,0:0:0:0:
320,192,36919,1,0,0:0:0:0:
192,192,37051,1,0,0:0:0:0:
64,192,37051,1,0,0:0:0:0:
320,192,37314,1,8,0:0:0:0:
64,192,37314,128,0,38103:0:0:0:0:
192,192,37445,1,0,0:0:0:0:
448,192,37577,1,8,0:0:0:0:
320,192,37840,1,0,0:0:0:0:
448,192,38103,128,0,38893:0:0:0:0:
192,192,38103,1,2,0:0:0:0:
320,192,38235,1,0,0:0:0:0:
192,192,38498,1,0,0:0:0:0:
320,192,38630,1,0,0:0:0:0:
64,192,38630,1,0,0:0:0:0:
320,192,38893,128,0,39682:0:0:0:0:
64,192,38893,1,8,0:0:0:0:
192,192,39024,1,0,0:0:0:0:
448,192,39156,1,8,0:0:0:0:
64,192,39419,1,0,0:0:0:0:
64,192,39682,1,8,0:0:0:0:
448,192,39682,1,2,0:0:0:0:
192,192,39814,1,0,0:0:0:0:
320,192,39945,1,0,0:0:0:0:
192,192,40077,1,8,0:0:0:0:
448,192,40077,1,2,0:0:0:0:
320,192,40208,1,0,0:0:0:0:
192,192,40340,1,0,0:0:0:0:
320,192,40472,1,8,0:0:0:0:
64,192,40472,1,2,0:0:0:0:
192,192,40603,1,0,0:0:0:0:
320,192,40735,1,0,0:0:0:0:
448,192,40866,1,8,0:0:0:0:
192,192,40866,1,2,0:0:0:0:
320,192,40998,1,0,0:0:0:0:
448,192,41130,1,0,0:0:0:0:
320,192,41261,128,0,42051:0:0:0:0:
64,192,41261,1,2,0:0:0:0:
448,192,41393,1,0,0:0:0:0:
64,192,41656,1,0,0:0:0:0:
192,192,41787,1,0,0:0:0:0:
448,192,41787,1,0,0:0:0:0:
64,192,42051,1,8,0:0:0:0:
192,192,42051,128,0,42840:0:0:0:0:
448,192,42182,1,0,0:0:0:0:
320,192,42314,1,8,0:0:0:0:
64,192,42577,1,0,0:0:0:0:
448,192,42840,128,0,43629:0:0:0:0:
320,192,42840,1,2,0:0:0:0:
64,192,42972,1,0,0:0:0:0:
320,192,43235,1,0,0:0:0:0:
64,192,43366,1,0,0:0:0:0:
192,192,43366,1,0,0:0:0:0:
64,192,43629,1,2,0:0:0:0:
192,192,43695,1,2,0:0:0:0:
320,192,43761,1,2,0:0:0:0:
64,192,43893,1,2,0:0:0:0:
192,192,44024,1,2,0:0:0:0:
448,192,44156,1,2,0:0:0:0:
320,192,44287,1,2,0:0:0:0:
64,192,44419,1,4,0:0:0:0:
448,192,44419,1,2,0:0:0:0:
192,192,44551,1,0,0:0:0:0:
64,192,44682,1,0,0:0:0:0:
320,192,44814,1,8,0:0:0:0:
192,192,44814,1,0,0:0:0:0:
448,192,44945,1,0,0:0:0:0:
320,192,45077,1,0,0:0:0:0:
448,192,45208,1,2,0:0:0:0:
64,192,45208,1,0,0:0:0:0:
192,192,45472,1,2,0:0:0:0:
320,192,45603,1,8,0:0:0:0:
64,192,45603,1,0,0:0:0:0:
448,192,45998,1,0,0:0:0:0:
192,192,45998,1,2,0:0:0:0:
320,192,46130,1,0,0:0:0:0:
64,192,46261,1,0,0:0:0:0:
448,192,46261,1,0,0:0:0:0:
192,192,46393,1,8,0:0:0:0:
320,192,46393,1,0,0:0:0:0:
448,192,46524,1,0,0:0:0:0:
64,192,46524,1,0,0:0:0:0:
192,192,46656,1,0,0:0:0:0:
64,192,46787,1,0,0:0:0:0:
320,192,46787,1,2,0:0:0:0:
320,192,47051,1,2,0:0:0:0:
448,192,47051,1,0,0:0:0:0:
64,192,47182,1,2,0:0:0:0:
192,192,47248,1,2,0:0:0:0:
448,192,47314,1,2,0:0:0:0:
320,192,47379,1,2,0:0:0:0:
192,192,47445,1,2,0:0:0:0:
448,192,47577,1,8,0:0:0:0:
64,192,47577,128,2,47972:0:0:0:0:
320,192,47709,1,0,0:0:0:0:
448,192,47841,1,0,0:0:0:0:
192,192,47972,1,8,0:0:0:0:
320,192,48104,1,0,0:0:0:0:
448,192,48235,1,0,0:0:0:0:
64,192,48367,1,2,0:0:0:0:
192,192,48499,1,2,0:0:0:0:
320,192,48564,1,2,0:0:0:0:
64,192,48630,1,0,0:0:0:0:
448,192,48630,1,8,0:0:0:0:
448,192,48893,1,2,0:0:0:0:
64,192,49025,1,0,0:0:0:0:
320,192,49156,1,2,0:0:0:0:
192,192,49288,1,0,0:0:0:0:
64,192,49420,128,8,49814:0:0:0:0:
448,192,49420,1,2,0:0:0:0:
320,192,49551,1,0,0:0:0:0:
448,192,49683,1,0,0:0:0:0:
192,192,49814,1,8,0:0:0:0:
320,192,49946,1,0,0:0:0:0:
448,192,50078,1,2,0:0:0:0:
64,192,50209,1,0,0:0:0:0:
192,192,50341,1,2,0:0:0:0:
320,192,50406,1,2,0:0:0:0:
64,192,50472,1,0,0:0:0:0:
448,192,50472,1,8,0:0:0:0:
192,192,50735,1,2,0:0:0:0:
64,192,50735,1,8,0:0:0:0:
320,192,50867,1,8,0:0:0:0:
448,192,50867,1,2,0:0:0:0:
192,192,50999,1,2,0:0:0:0:
320,192,51130,1,2,0:0:0:0:
64,192,51262,1,8,0:0:0:0:
448,192,51262,128,2,51656:0:0:0:0:
192,192,51393,1,0,0:0:0:0:
64,192,51525,1,0,0:0:0:0:
320,192,51656,1,8,0:0:0:0:
192,192,51788,1,0,0:0:0:0:
64,192,51920,1,0,0:0:0:0:
448,192,52051,1,2,0:0:0:0:
320,192,52183,1,2,0:0:0:0:
192,192,52249,1,2,0:0:0:0:
448,192,52314,1,0,0:0:0:0:
64,192,52314,1,8,0:0:0:0:
64,192,52578,1,2,0:0:0:0:
448,192,52709,1,0,0:0:0:0:
192,192,52841,1,2,0:0:0:0:
320,192,52972,1,0,0:0:0:0:
64,192,53104,1,8,0:0:0:0:
448,192,53104,128,2,53499:0:0:0:0:
192,192,53235,1,0,0:0:0:0:
64,192,53367,1,0,0:0:0:0:
320,192,53499,1,8,0:0:0:0:
192,192,53630,1,0,0:0:0:0:
64,192,53762,1,0,0:0:0:0:
448,192,53893,1,2,0:0:0:0:
320,192,54025,1,2,0:0:0:0:
192,192,54091,1,2,0:0:0:0:
448,192,54156,1,4,0:0:0:0:
64,192,54156,1,8,0:0:0:0:
320,192,54420,1,2,0:0:0:0:
448,192,54420,1,0,0:0:0:0:
192,192,54551,1,2,0:0:0:0:
64,192,54551,128,4,54946:0:0:0:0:
448,192,54946,1,2,0:0:0:0:
320,192,54946,1,4,0:0:0:0:
