osu file format v14

[General]
AudioFilename: 28-horrible-heartbeat-stage-5-from-contra.mp3
AudioLeadIn: 0
PreviewTime: 12578
Countdown: 0
SampleSet: Soft
StackLeniency: 0.7
Mode: 3
LetterboxInBreaks: 0
SpecialStyle: 0
WidescreenStoryboard: 0

[Editor]
DistanceSpacing: 1.9
BeatDivisor: 2
GridSize: 4
TimelineZoom: 0.9

[Metadata]
Title:Senritsu no Kodou
TitleUnicode:戦慄の鼓動
Artist:Manabu Namiki
ArtistUnicode:並木学
Creator:Surono
Version:EZ
Source:魂斗羅ReBirth
Tags:castlevania the adventure rebirth original soundtrack contra stage 5 raediaufar
BeatmapID:802000
BeatmapSetID:319117

[Difficulty]
HPDrainRate:6
CircleSize:4
OverallDifficulty:7
ApproachRate:0
SliderMultiplier:1.4
SliderTickRate:1

[Events]
//Background and Video events
0,0,"Alien_Heart.jpg",0,0
//Break Periods
//Storyboard Layer 0 (Background)
//Storyboard Layer 1 (Fail)
//Storyboard Layer 2 (Pass)
//Storyboard Layer 3 (Foreground)
//Storyboard Sound Samples

[TimingPoints]
473,263.157894736842,4,2,1,50,1,0
13104,263.157894736842,5,2,1,50,1,1
14420,263.157894736842,6,2,1,50,1,1
15999,263.157894736842,5,2,1,50,1,1
17315,263.157894736842,6,2,1,50,1,1
18894,263.157894736842,5,2,1,50,1,1
20209,263.157894736842,6,2,1,50,1,1
21788,263.157894736842,5,2,1,50,1,1
23104,263.157894736842,6,2,1,50,1,1
24683,263.157894736842,5,2,1,50,1,0
28630,263.157894736842,6,2,1,50,1,0
47578,263.157894736842,7,2,1,50,1,1
54946,263.157894736842,4,2,1,50,1,0

[HitObjects]
64,192,473,128,2,3630:0:0:0:0:
448,192,473,1,4,0:0:0:0:
448,192,3630,128,2,6788:0:0:0:0:
192,192,6788,128,2,9946:0:0:0:0:
320,192,9946,128,2,13104:0:0:0:0:
192,192,13104,1,2,3:0:0:0:
64,192,13498,1,2,0:0:0:0:
448,192,13893,1,8,0:0:0:0:
320,192,14156,1,8,0:0:0:0:
64,192,14419,1,2,0:0:0:0:
192,192,14683,1,8,0:0:0:0:
448,192,14946,1,2,0:0:0:0:
192,192,15209,1,8,0:0:0:0:
320,192,15472,1,0,0:0:0:0:
192,192,15735,1,2,0:0:0:0:
320,192,15998,1,2,0:0:0:0:
448,192,16393,1,2,0:0:0:0:
64,192,16788,1,8,0:0:0:0:
192,192,17051,1,8,0:0:0:0:
448,192,17315,1,2,0:0:0:0:
320,192,17578,1,8,0:0:0:0:
64,192,17841,1,2,0:0:0:0:
320,192,18104,1,8,0:0:0:0:
192,192,18367,1,8,0:0:0:0:
320,192,18630,1,2,0:0:0:0:
192,192,18894,1,2,0:0:0:0:
64,192,19288,1,2,0:0:0:0:
448,192,19683,1,8,0:0:0:0:
320,192,19946,1,8,0:0:0:0:
64,192,20209,1,2,0:0:0:0:
192,192,20472,1,8,0:0:0:0:
448,192,20735,1,2,0:0:0:0:
192,192,20998,1,8,0:0:0:0:
320,192,21261,1,8,0:0:0:0:
192,192,21524,1,2,0:0:0:0:
320,192,21787,1,2,0:0:0:0:
448,192,22182,1,2,0:0:0:0:
64,192,22577,1,8,0:0:0:0:
192,192,22840,1,8,0:0:0:0:
448,192,23104,1,2,0:0:0:0:
320,192,23367,1,8,0:0:0:0:
64,192,23630,1,2,0:0:0:0:
192,192,23893,1,8,0:0:0:0:
320,192,24156,1,8,0:0:0:0:
192,192,24419,1,2,0:0:0:0:
320,192,24683,1,2,0:0:0:0:
192,192,25077,1,2,0:0:0:0:
64,192,25472,1,8,0:0:0:0:
192,192,25998,1,8,0:0:0:0:
320,192,26393,1,2,0:0:0:0:
448,192,26788,1,8,0:0:0:0:
320,192,27314,1,2,0:0:0:0:
192,192,27709,1,2,0:0:0:0:
448,192,28104,1,8,0:0:0:0:
192,192,28630,128,2,29419:0:0:0:0:
320,192,29419,128,8,30208:0:0:0:0:
192,192,30208,128,2,30998:0:0:0:0:
320,192,30998,128,8,31787:0:0:0:0:
64,192,31787,128,2,32577:0:0:0:0:
448,192,32577,128,8,33366:0:0:0:0:
64,192,33366,1,8,0:0:0:0:
192,192,33761,1,8,0:0:0:0:
320,192,34156,1,8,0:0:0:0:
448,192,34551,1,8,0:0:0:0:
320,192,34945,128,2,35735:0:0:0:0:
192,192,35735,128,8,36524:0:0:0:0:
320,192,36524,128,2,37314:0:0:0:0:
192,192,37314,128,8,38103:0:0:0:0:
448,192,38103,128,2,38893:0:0:0:0:
64,192,38893,128,8,39682:0:0:0:0:
448,192,39682,1,8,0:0:0:0:
320,192,40077,1,8,0:0:0:0:
192,192,40472,1,8,0:0:0:0:
64,192,40866,1,8,0:0:0:0:
192,192,41261,128,2,42051:0:0:0:0:
320,192,42051,128,8,42840:0:0:0:0:
192,192,42840,128,2,43629:0:0:0:0:
320,192,43629,128,2,44419:0:0:0:0:
64,192,44419,1,4,0:0:0:0:
448,192,44419,1,2,0:0:0:0:
192,192,44814,1,8,0:0:0:0:
320,192,45208,1,2,0:0:0:0:
192,192,45603,1,8,0:0:0:0:
448,192,45998,1,2,0:0:0:0:
64,192,46393,1,8,0:0:0:0:
448,192,46787,1,2,0:0:0:0:
192,192,47051,1,2,0:0:0:0:
64,192,47577,128,8,47972:0:0:0:0:
320,192,47972,1,8,0:0:0:0:
192,192,48367,1,2,0:0:0:0:
64,192,48630,1,8,0:0:0:0:
320,192,48893,1,2,0:0:0:0:
192,192,49420,128,8,49814:0:0:0:0:
448,192,49814,1,8,0:0:0:0:
64,192,50209,1,0,0:0:0:0:
448,192,50472,1,8,0:0:0:0:
320,192,50735,1,2,0:0:0:0:
192,192,50999,1,2,0:0:0:0:
448,192,51262,128,8,51656:0:0:0:0:
192,192,51656,1,8,0:0:0:0:
320,192,52051,1,2,0:0:0:0:
64,192,52314,1,8,0:0:0:0:
192,192,52578,1,2,0:0:0:0:
320,192,53104,128,8,53499:0:0:0:0:
64,192,53499,1,8,0:0:0:0:
448,192,53893,1,2,0:0:0:0:
320,192,54156,1,4,0:0:0:0:
192,192,54420,1,2,0:0:0:0:
64,192,54420,128,0,54946:0:0:0:0:
448,192,54946,1,2,0:0:0:0:
