osu file format v14

[General]
AudioFilename: the better salty.mp3
AudioLeadIn: 0
PreviewTime: 14227
Countdown: 0
SampleSet: Normal
StackLeniency: 0.7
Mode: 1
LetterboxInBreaks: 0
WidescreenStoryboard: 0

[Editor]
DistanceSpacing: 1
BeatDivisor: 4
GridSize: 32
TimelineZoom: 2.5

[Metadata]
Title:Sally (Select)
TitleUnicode:Sally (Select)
Artist:Manabu Namiki
ArtistUnicode:並木学
Creator:Surono
Version:Inner Oni
Source:怒首領蜂大復活 BLACK LABEL
Tags:Do Don Pachi Dai-Fukkatsu Original Soundtrack Alsty- Eldergleam Vulkin Skull Kid
BeatmapID:1337661
BeatmapSetID:631701

[Difficulty]
HPDrainRate:6
CircleSize:2
OverallDifficulty:7
ApproachRate:10
SliderMultiplier:1.4
SliderTickRate:1

[Events]
//Background and Video events
0,0,"wibush.jpg",0,69
//Break Periods
//Storyboard Layer 0 (Background)
//Storyboard Layer 1 (Fail)
//Storyboard Layer 2 (Pass)
//Storyboard Layer 3 (Foreground)
//Storyboard Sound Samples

[TimingPoints]
970,428.571428571429,4,1,0,90,1,0
24970,-100,4,1,0,90,0,1
28398,-100,4,1,0,90,0,0
52398,-100,4,1,0,90,0,1
55827,-100,4,1,0,90,0,0

[HitObjects]
256,192,970,5,4,0:0:0:0:
256,192,1184,1,0,0:0:0:0:
256,192,1398,1,8,0:0:0:0:
256,192,1612,1,0,0:0:0:0:
256,192,1720,1,0,0:0:0:0:
256,192,1827,1,0,0:0:0:0:
256,192,2041,1,0,0:0:0:0:
256,192,2255,1,8,0:0:0:0:
256,192,2470,1,0,0:0:0:0:
256,192,2577,1,8,0:0:0:0:
256,192,2684,1,0,0:0:0:0:
256,192,2898,1,0,0:0:0:0:
256,192,3112,1,8,0:0:0:0:
256,192,3327,1,0,0:0:0:0:
256,192,3541,1,0,0:0:0:0:
256,192,3755,1,0,0:0:0:0:
256,192,3970,1,8,0:0:0:0:
256,192,4184,1,8,0:0:0:0:
256,192,4398,1,8,0:0:0:0:
256,192,4612,1,0,0:0:0:0:
256,192,4827,1,8,0:0:0:0:
256,192,5041,1,0,0:0:0:0:
256,192,5148,1,0,0:0:0:0:
256,192,5255,1,8,0:0:0:0:
256,192,5470,1,0,0:0:0:0:
256,192,5684,1,8,0:0:0:0:
256,192,5898,1,8,0:0:0:0:
256,192,6327,1,0,0:0:0:0:
256,192,6541,1,8,0:0:0:0:
256,192,6755,1,8,0:0:0:0:
256,192,6970,1,0,0:0:0:0:
256,192,7184,1,8,0:0:0:0:
256,192,7398,1,8,0:0:0:0:
256,192,7505,1,0,0:0:0:0:
256,192,7612,1,0,0:0:0:0:
256,192,7827,1,0,0:0:0:0:
256,192,8041,1,0,0:0:0:0:
256,192,8255,1,8,0:0:0:0:
256,192,8470,1,0,0:0:0:0:
256,192,8577,1,0,0:0:0:0:
256,192,8684,1,0,0:0:0:0:
256,192,8898,1,0,0:0:0:0:
256,192,9112,1,8,0:0:0:0:
256,192,9327,1,0,0:0:0:0:
256,192,9434,1,8,0:0:0:0:
256,192,9541,1,0,0:0:0:0:
256,192,9755,1,0,0:0:0:0:
256,192,9970,1,8,0:0:0:0:
256,192,10184,1,0,0:0:0:0:
256,192,10398,1,8,0:0:0:0:
256,192,10612,1,8,0:0:0:0:
256,192,10720,1,0,0:0:0:0:
256,192,10827,1,8,0:0:0:0:
256,192,10934,1,8,0:0:0:0:
256,192,11041,1,0,0:0:0:0:
256,192,11148,1,8,0:0:0:0:
256,192,11255,1,0,0:0:0:0:
256,192,11362,1,0,0:0:0:0:
256,192,11470,1,8,0:0:0:0:
256,192,11577,1,0,0:0:0:0:
256,192,11684,1,8,0:0:0:0:
256,192,11791,1,8,0:0:0:0:
256,192,11898,1,0,0:0:0:0:
256,192,12005,1,8,0:0:0:0:
256,192,12112,1,0,0:0:0:0:
256,192,12220,1,8,0:0:0:0:
256,192,12327,1,0,0:0:0:0:
256,192,12434,1,0,0:0:0:0:
256,192,12541,1,8,0:0:0:0:
256,192,12648,1,0,0:0:0:0:
256,192,12755,1,8,0:0:0:0:
256,192,12970,1,8,0:0:0:0:
256,192,13184,1,0,0:0:0:0:
256,192,13398,1,8,0:0:0:0:
256,192,13612,1,8,0:0:0:0:
256,192,13720,1,0,0:0:0:0:
256,192,13827,1,8,0:0:0:0:
256,192,13934,1,8,0:0:0:0:
256,192,14041,1,0,0:0:0:0:
256,192,14255,1,0,0:0:0:0:
256,192,14327,1,0,0:0:0:0:
256,192,14398,1,0,0:0:0:0:
256,192,14470,1,0,0:0:0:0:
256,192,14684,1,4,0:0:0:0:
256,192,15112,1,0,0:0:0:0:
256,192,15541,1,8,0:0:0:0:
256,192,15755,1,0,0:0:0:0:
256,192,15862,1,8,0:0:0:0:
256,192,16077,1,8,0:0:0:0:
256,192,16184,1,8,0:0:0:0:
256,192,16398,1,0,0:0:0:0:
256,192,16827,1,0,0:0:0:0:
256,192,17255,1,0,0:0:0:0:
256,192,17470,1,0,0:0:0:0:
256,192,17577,1,0,0:0:0:0:
256,192,17791,1,8,0:0:0:0:
256,192,17898,1,0,0:0:0:0:
256,192,18112,1,8,0:0:0:0:
256,192,18327,1,0,0:0:0:0:
256,192,18541,1,8,0:0:0:0:
256,192,18970,1,8,0:0:0:0:
256,192,19184,1,0,0:0:0:0:
256,192,19291,1,8,0:0:0:0:
256,192,19398,1,8,0:0:0:0:
256,192,19505,1,0,0:0:0:0:
256,192,19612,1,0,0:0:0:0:
256,192,19934,1,0,0:0:0:0:
256,192,20041,1,8,0:0:0:0:
256,192,20148,1,0,0:0:0:0:
256,192,20255,1,0,0:0:0:0:
256,192,20684,1,8,0:0:0:0:
256,192,20898,1,0,0:0:0:0:
256,192,21005,1,0,0:0:0:0:
256,192,21112,1,8,0:0:0:0:
256,192,21220,1,0,0:0:0:0:
256,192,21434,1,0,0:0:0:0:
256,192,21648,1,8,0:0:0:0:
256,192,21755,1,8,0:0:0:0:
256,192,21970,1,12,0:0:0:0:
256,192,22184,1,0,0:0:0:0:
256,192,22398,1,8,0:0:0:0:
256,192,22612,1,0,0:0:0:0:
256,192,22720,1,8,0:0:0:0:
256,192,22827,1,8,0:0:0:0:
256,192,22934,1,0,0:0:0:0:
256,192,23041,1,8,0:0:0:0:
256,192,23362,1,0,0:0:0:0:
256,192,23470,1,0,0:0:0:0:
256,192,23684,1,12,0:0:0:0:
256,192,23898,1,8,0:0:0:0:
256,192,24112,1,0,0:0:0:0:
256,192,24327,1,0,0:0:0:0:
256,192,24434,1,8,0:0:0:0:
256,192,24541,1,8,0:0:0:0:
256,192,24648,1,8,0:0:0:0:
256,192,24755,1,0,0:0:0:0:
256,192,24862,1,0,0:0:0:0:
256,192,24970,1,8,0:0:0:0:
256,192,25077,1,8,0:0:0:0:
256,192,25184,1,0,0:0:0:0:
256,192,25291,1,8,0:0:0:0:
256,192,25398,1,8,0:0:0:0:
256,192,25505,1,0,0:0:0:0:
256,192,25612,1,8,0:0:0:0:
256,192,25720,1,0,0:0:0:0:
256,192,25827,1,8,0:0:0:0:
256,192,25934,1,8,0:0:0:0:
256,192,26041,1,8,0:0:0:0:
256,192,26148,1,0,0:0:0:0:
256,192,26255,1,8,0:0:0:0:
256,192,26362,1,8,0:0:0:0:
256,192,26470,1,0,0:0:0:0:
256,192,26684,1,8,0:0:0:0:
256,192,26791,1,8,0:0:0:0:
256,192,26898,1,0,0:0:0:0:
256,192,27112,1,8,0:0:0:0:
256,192,27219,1,8,0:0:0:0:
256,192,27326,1,0,0:0:0:0:
256,192,27541,1,8,0:0:0:0:
256,192,27648,1,8,0:0:0:0:
256,192,27755,1,0,0:0:0:0:
256,192,27862,1,0,0:0:0:0:
256,192,27970,1,8,0:0:0:0:
256,192,28041,1,8,0:0:0:0:
256,192,28112,1,8,0:0:0:0:
256,192,28184,1,8,0:0:0:0:
256,192,28398,5,4,0:0:0:0:
256,192,28612,1,0,0:0:0:0:
256,192,28826,1,8,0:0:0:0:
256,192,29040,1,0,0:0:0:0:
256,192,29148,1,0,0:0:0:0:
256,192,29255,1,0,0:0:0:0:
256,192,29469,1,0,0:0:0:0:
256,192,29683,1,8,0:0:0:0:
256,192,29898,1,0,0:0:0:0:
256,192,30005,1,8,0:0:0:0:
256,192,30112,1,0,0:0:0:0:
256,192,30326,1,0,0:0:0:0:
256,192,30540,1,8,0:0:0:0:
256,192,30755,1,0,0:0:0:0:
256,192,30969,1,0,0:0:0:0:
256,192,31183,1,0,0:0:0:0:
256,192,31398,1,8,0:0:0:0:
256,192,31612,1,8,0:0:0:0:
256,192,31826,1,8,0:0:0:0:
256,192,32040,1,0,0:0:0:0:
256,192,32255,1,8,0:0:0:0:
256,192,32469,1,0,0:0:0:0:
256,192,32576,1,0,0:0:0:0:
256,192,32683,1,8,0:0:0:0:
256,192,32898,1,0,0:0:0:0:
256,192,33112,1,8,0:0:0:0:
256,192,33326,1,8,0:0:0:0:
256,192,33755,1,0,0:0:0:0:
256,192,33969,1,8,0:0:0:0:
256,192,34183,1,8,0:0:0:0:
256,192,34398,1,0,0:0:0:0:
256,192,34612,1,8,0:0:0:0:
256,192,34826,1,8,0:0:0:0:
256,192,34933,1,0,0:0:0:0:
256,192,35040,1,0,0:0:0:0:
256,192,35255,1,0,0:0:0:0:
256,192,35469,1,0,0:0:0:0:
256,192,35683,1,8,0:0:0:0:
256,192,35898,1,0,0:0:0:0:
256,192,36005,1,0,0:0:0:0:
256,192,36112,1,0,0:0:0:0:
256,192,36326,1,0,0:0:0:0:
256,192,36540,1,8,0:0:0:0:
256,192,36755,1,0,0:0:0:0:
256,192,36862,1,8,0:0:0:0:
256,192,36969,1,0,0:0:0:0:
256,192,37183,1,0,0:0:0:0:
256,192,37398,1,8,0:0:0:0:
256,192,37612,5,0,0:0:0:0:
256,192,37826,1,8,0:0:0:0:
256,192,38040,5,8,0:0:0:0:
256,192,38148,1,0,0:0:0:0:
256,192,38255,1,8,0:0:0:0:
256,192,38362,1,8,0:0:0:0:
256,192,38469,1,0,0:0:0:0:
256,192,38576,1,8,0:0:0:0:
256,192,38683,1,0,0:0:0:0:
256,192,38790,1,0,0:0:0:0:
256,192,38898,1,8,0:0:0:0:
256,192,39005,1,0,0:0:0:0:
256,192,39112,1,8,0:0:0:0:
256,192,39219,1,8,0:0:0:0:
256,192,39326,1,0,0:0:0:0:
256,192,39433,1,8,0:0:0:0:
256,192,39540,1,0,0:0:0:0:
256,192,39648,1,8,0:0:0:0:
256,192,39755,1,0,0:0:0:0:
256,192,39862,1,0,0:0:0:0:
256,192,39969,1,8,0:0:0:0:
256,192,40076,1,0,0:0:0:0:
256,192,40183,1,8,0:0:0:0:
256,192,40398,1,8,0:0:0:0:
256,192,40612,1,0,0:0:0:0:
256,192,40826,1,8,0:0:0:0:
256,192,41040,1,8,0:0:0:0:
256,192,41148,1,0,0:0:0:0:
256,192,41255,1,8,0:0:0:0:
256,192,41362,1,8,0:0:0:0:
256,192,41469,1,0,0:0:0:0:
256,192,41683,1,0,0:0:0:0:
256,192,41755,1,0,0:0:0:0:
256,192,41827,1,0,0:0:0:0:
256,192,41898,1,0,0:0:0:0:
256,192,42112,1,4,0:0:0:0:
256,192,42540,1,0,0:0:0:0:
256,192,42969,1,8,0:0:0:0:
256,192,43184,1,0,0:0:0:0:
256,192,43290,1,8,0:0:0:0:
256,192,43505,1,8,0:0:0:0:
256,192,43612,1,8,0:0:0:0:
256,192,43826,1,0,0:0:0:0:
256,192,44255,1,0,0:0:0:0:
256,192,44683,1,0,0:0:0:0:
256,192,44898,1,0,0:0:0:0:
256,192,45005,1,0,0:0:0:0:
256,192,45220,1,8,0:0:0:0:
256,192,45326,1,0,0:0:0:0:
256,192,45540,1,8,0:0:0:0:
256,192,45755,1,0,0:0:0:0:
256,192,45969,1,8,0:0:0:0:
256,192,46398,1,8,0:0:0:0:
256,192,46612,1,0,0:0:0:0:
256,192,46720,1,8,0:0:0:0:
256,192,46826,1,8,0:0:0:0:
256,192,46933,1,0,0:0:0:0:
256,192,47040,1,0,0:0:0:0:
256,192,47362,1,0,0:0:0:0:
256,192,47469,1,8,0:0:0:0:
256,192,47577,1,0,0:0:0:0:
256,192,47683,1,0,0:0:0:0:
256,192,48112,1,8,0:0:0:0:
256,192,48327,1,0,0:0:0:0:
256,192,48433,1,0,0:0:0:0:
256,192,48540,1,8,0:0:0:0:
256,192,48648,1,0,0:0:0:0:
256,192,48862,1,0,0:0:0:0:
256,192,49076,1,8,0:0:0:0:
256,192,49183,1,8,0:0:0:0:
256,192,49398,1,12,0:0:0:0:
256,192,49612,1,0,0:0:0:0:
256,192,49826,1,8,0:0:0:0:
256,192,50041,1,0,0:0:0:0:
256,192,50148,1,8,0:0:0:0:
256,192,50255,1,8,0:0:0:0:
256,192,50362,1,0,0:0:0:0:
256,192,50469,1,8,0:0:0:0:
256,192,50790,1,0,0:0:0:0:
256,192,50898,1,0,0:0:0:0:
256,192,51112,1,12,0:0:0:0:
256,192,51326,1,8,0:0:0:0:
256,192,51540,1,0,0:0:0:0:
256,192,51755,1,0,0:0:0:0:
256,192,51862,1,8,0:0:0:0:
256,192,51969,1,8,0:0:0:0:
256,192,52076,1,8,0:0:0:0:
256,192,52184,1,0,0:0:0:0:
256,192,52290,1,0,0:0:0:0:
256,192,52398,1,8,0:0:0:0:
256,192,52505,1,8,0:0:0:0:
256,192,52612,1,0,0:0:0:0:
256,192,52719,1,8,0:0:0:0:
256,192,52826,1,8,0:0:0:0:
256,192,52933,1,0,0:0:0:0:
256,192,53041,1,8,0:0:0:0:
256,192,53148,1,0,0:0:0:0:
256,192,53255,1,8,0:0:0:0:
256,192,53362,1,8,0:0:0:0:
256,192,53469,1,8,0:0:0:0:
256,192,53576,1,0,0:0:0:0:
256,192,53683,1,8,0:0:0:0:
256,192,53790,1,8,0:0:0:0:
256,192,53898,1,0,0:0:0:0:
256,192,54112,1,8,0:0:0:0:
256,192,54219,1,8,0:0:0:0:
256,192,54326,1,0,0:0:0:0:
256,192,54540,1,8,0:0:0:0:
256,192,54647,1,8,0:0:0:0:
256,192,54754,1,0,0:0:0:0:
256,192,54969,1,8,0:0:0:0:
256,192,55076,1,8,0:0:0:0:
256,192,55183,1,0,0:0:0:0:
256,192,55291,1,0,0:0:0:0:
256,192,55398,1,8,0:0:0:0:
256,192,55470,1,8,0:0:0:0:
256,192,55541,1,8,0:0:0:0:
256,192,55612,1,8,0:0:0:0:
256,192,55826,1,4,0:0:0:0:
