osu file format v14

[General]
AudioFilename: 20-jungle-battle-stage-1-from-contra-.mp3
AudioLeadIn: 0
PreviewTime: 14661
Countdown: 0
SampleSet: Normal
StackLeniency: 0.7
Mode: 1
LetterboxInBreaks: 0
WidescreenStoryboard: 1

[Editor]
DistanceSpacing: 1
BeatDivisor: 4
GridSize: 32
TimelineZoom: 2.799999

[Metadata]
Title:Mitsurin no tatakai
TitleUnicode:密林の戦い
Artist:Manabu Namiki
ArtistUnicode:並木学
Creator:Surono
Version:Muzukashii
Source:魂斗羅ReBirth
Tags:Contra rebirth stage 1 battle of the jungle nishizumi ozzyozrock
BeatmapID:1019535
BeatmapSetID:313267

[Difficulty]
HPDrainRate:7
CircleSize:5
OverallDifficulty:5
ApproachRate:5
SliderMultiplier:1.4
SliderTickRate:1

[Events]
//Background and Video events
0,0,"Contra.jpg",0,69
//Break Periods
//Storyboard Layer 0 (Background)
//Storyboard Layer 1 (Fail)
//Storyboard Layer 2 (Pass)
//Storyboard Layer 3 (Foreground)
//Storyboard Layer 4 (Overlay)
//Storyboard Sound Samples

[TimingPoints]
2161,416.666666666667,4,1,0,80,1,0
15494,-100,4,1,0,80,0,1
23827,-100,4,1,0,80,0,0
33827,-100,4,1,0,80,0,1
47161,-100,4,1,0,80,0,0

[HitObjects]
256,192,495,5,12,0:0:0:0:
256,192,911,1,0,0:0:0:0:
256,192,1328,1,8,0:0:0:0:
256,192,1536,1,8,0:0:0:0:
256,192,1640,1,8,0:0:0:0:
256,192,1745,1,8,0:0:0:0:
256,192,1953,1,8,0:0:0:0:
256,192,2161,1,0,0:0:0:0:
256,192,2578,1,8,0:0:0:0:
256,192,2786,1,0,0:0:0:0:
256,192,3203,1,0,0:0:0:0:
256,192,3411,1,8,0:0:0:0:
256,192,3724,1,8,0:0:0:0:
256,192,3828,1,8,0:0:0:0:
256,192,4036,1,0,0:0:0:0:
256,192,4245,1,8,0:0:0:0:
256,192,4661,1,0,0:0:0:0:
256,192,4870,1,0,0:0:0:0:
256,192,5078,1,8,0:0:0:0:
256,192,5182,1,8,0:0:0:0:
256,192,5495,1,0,0:0:0:0:
256,192,5911,1,8,0:0:0:0:
256,192,6120,1,0,0:0:0:0:
256,192,6536,1,0,0:0:0:0:
256,192,6745,1,8,0:0:0:0:
256,192,7057,1,0,0:0:0:0:
256,192,7161,1,0,0:0:0:0:
256,192,7370,1,0,0:0:0:0:
256,192,7578,1,8,0:0:0:0:
256,192,8099,1,0,0:0:0:0:
256,192,8411,1,8,0:0:0:0:
256,192,8620,1,0,0:0:0:0:
256,192,8828,1,0,0:0:0:0:
256,192,9245,1,8,0:0:0:0:
256,192,9453,1,0,0:0:0:0:
256,192,9870,1,0,0:0:0:0:
256,192,10078,1,8,0:0:0:0:
256,192,10390,1,8,0:0:0:0:
256,192,10495,1,8,0:0:0:0:
256,192,10703,1,0,0:0:0:0:
256,192,10911,1,8,0:0:0:0:
256,192,11328,1,0,0:0:0:0:
256,192,11536,1,0,0:0:0:0:
256,192,11745,1,8,0:0:0:0:
256,192,11849,1,8,0:0:0:0:
256,192,12161,1,0,0:0:0:0:
256,192,12578,1,8,0:0:0:0:
256,192,12786,1,0,0:0:0:0:
256,192,13203,1,0,0:0:0:0:
256,192,13411,1,8,0:0:0:0:
256,192,13724,1,0,0:0:0:0:
256,192,13828,1,0,0:0:0:0:
256,192,14036,1,0,0:0:0:0:
256,192,14245,1,8,0:0:0:0:
256,192,14765,1,0,0:0:0:0:
256,192,15078,1,8,0:0:0:0:
256,192,15286,1,8,0:0:0:0:
256,192,15495,1,4,0:0:0:0:
256,192,15703,1,4,0:0:0:0:
256,192,16015,1,8,0:0:0:0:
256,192,16328,1,4,0:0:0:0:
256,192,16536,1,4,0:0:0:0:
256,192,17161,1,4,0:0:0:0:
256,192,17370,1,4,0:0:0:0:
256,192,17682,1,0,0:0:0:0:
256,192,17995,1,12,0:0:0:0:
256,192,18203,1,12,0:0:0:0:
256,192,18515,1,12,0:0:0:0:
256,192,18828,1,4,0:0:0:0:
256,192,19036,1,4,0:0:0:0:
256,192,19349,1,8,0:0:0:0:
256,192,19661,1,4,0:0:0:0:
256,192,19870,1,4,0:0:0:0:
256,192,20495,1,4,0:0:0:0:
256,192,20703,1,4,0:0:0:0:
256,192,21015,1,8,0:0:0:0:
256,192,21328,1,8,0:0:0:0:
256,192,21536,1,0,0:0:0:0:
256,192,21745,1,12,0:0:0:0:
256,192,22161,1,4,0:0:0:0:
256,192,22786,1,0,0:0:0:0:
256,192,22995,1,8,0:0:0:0:
256,192,23099,1,8,0:0:0:0:
256,192,23203,1,8,0:0:0:0:
256,192,23411,1,8,0:0:0:0:
256,192,23620,1,8,0:0:0:0:
256,192,23828,1,0,0:0:0:0:
256,192,24245,1,8,0:0:0:0:
256,192,24557,1,8,0:0:0:0:
256,192,24661,1,8,0:0:0:0:
256,192,24870,1,0,0:0:0:0:
256,192,25078,1,8,0:0:0:0:
256,192,25495,1,0,0:0:0:0:
256,192,25703,1,0,0:0:0:0:
256,192,25911,1,8,0:0:0:0:
256,192,26224,1,0,0:0:0:0:
256,192,26328,1,0,0:0:0:0:
256,192,26536,1,0,0:0:0:0:
256,192,26745,1,8,0:0:0:0:
256,192,27161,1,8,0:0:0:0:
256,192,27474,1,8,0:0:0:0:
256,192,27786,1,8,0:0:0:0:
256,192,28099,1,8,0:0:0:0:
256,192,28411,1,0,0:0:0:0:
256,192,28515,1,0,0:0:0:0:
256,192,28828,1,0,0:0:0:0:
256,192,29245,1,8,0:0:0:0:
256,192,29557,1,8,0:0:0:0:
256,192,29661,1,8,0:0:0:0:
256,192,29870,1,0,0:0:0:0:
256,192,30078,1,8,0:0:0:0:
256,192,30495,1,0,0:0:0:0:
256,192,30807,1,8,0:0:0:0:
256,192,31120,1,0,0:0:0:0:
256,192,31432,1,8,0:0:0:0:
256,192,31745,1,0,0:0:0:0:
256,192,31849,1,0,0:0:0:0:
256,192,32161,1,8,0:0:0:0:
256,192,32474,1,0,0:0:0:0:
256,192,32786,1,8,0:0:0:0:
256,192,33099,1,4,0:0:0:0:
256,192,33515,1,8,0:0:0:0:
256,192,33828,1,8,0:0:0:0:
256,192,34036,1,0,0:0:0:0:
256,192,34245,1,8,0:0:0:0:
256,192,34661,1,0,0:0:0:0:
256,192,34870,1,0,0:0:0:0:
256,192,35078,1,8,0:0:0:0:
256,192,35181,1,8,0:0:0:0:
256,192,35286,1,8,0:0:0:0:
256,192,35495,1,0,0:0:0:0:
256,192,35911,1,8,0:0:0:0:
256,192,36120,1,0,0:0:0:0:
256,192,36223,1,0,0:0:0:0:
256,192,36328,1,0,0:0:0:0:
256,192,36536,1,8,0:0:0:0:
256,192,36745,1,8,0:0:0:0:
256,192,37161,1,0,0:0:0:0:
256,192,37578,1,8,0:0:0:0:
256,192,37786,1,8,0:0:0:0:
256,192,37995,1,0,0:0:0:0:
256,192,38411,1,8,0:0:0:0:
256,192,38620,1,8,0:0:0:0:
256,192,38828,1,8,0:0:0:0:
256,192,39245,1,8,0:0:0:0:
256,192,39453,1,0,0:0:0:0:
256,192,39661,1,8,0:0:0:0:
256,192,40078,1,0,0:0:0:0:
256,192,40286,1,8,0:0:0:0:
256,192,40495,1,0,0:0:0:0:
256,192,40703,1,0,0:0:0:0:
256,192,40911,1,8,0:0:0:0:
256,192,41328,1,0,0:0:0:0:
256,192,41536,1,0,0:0:0:0:
256,192,41745,1,8,0:0:0:0:
256,192,41848,1,8,0:0:0:0:
256,192,41953,1,8,0:0:0:0:
256,192,42161,1,0,0:0:0:0:
256,192,42578,1,8,0:0:0:0:
256,192,42786,1,0,0:0:0:0:
256,192,42890,1,0,0:0:0:0:
256,192,42995,1,0,0:0:0:0:
256,192,43203,1,8,0:0:0:0:
256,192,43411,1,8,0:0:0:0:
256,192,43828,1,0,0:0:0:0:
256,192,44245,1,8,0:0:0:0:
256,192,44453,1,8,0:0:0:0:
256,192,44661,1,0,0:0:0:0:
256,192,45078,1,8,0:0:0:0:
256,192,45286,1,8,0:0:0:0:
256,192,45495,1,12,0:0:0:0:
256,192,45911,1,0,0:0:0:0:
256,192,46015,1,0,0:0:0:0:
256,192,46120,1,0,0:0:0:0:
256,192,46328,1,12,0:0:0:0:
256,192,46745,1,4,0:0:0:0:
256,192,47161,1,8,0:0:0:0:
256,192,47370,1,0,0:0:0:0:
256,192,47578,1,8,0:0:0:0:
256,192,47786,1,8,0:0:0:0:
256,192,47995,1,0,0:0:0:0:
256,192,48411,1,8,0:0:0:0:
256,192,48515,1,8,0:0:0:0:
256,192,48828,1,0,0:0:0:0:
256,192,49036,1,8,0:0:0:0:
256,192,49245,1,8,0:0:0:0:
256,192,49453,1,0,0:0:0:0:
256,192,49661,1,8,0:0:0:0:
256,192,50078,1,0,0:0:0:0:
256,192,50182,1,0,0:0:0:0:
256,192,50495,1,8,0:0:0:0:
256,192,50703,1,0,0:0:0:0:
256,192,50911,1,8,0:0:0:0:
256,192,51120,1,8,0:0:0:0:
256,192,51328,1,0,0:0:0:0:
256,192,51745,1,8,0:0:0:0:
256,192,51849,1,8,0:0:0:0:
256,192,52161,1,0,0:0:0:0:
256,192,52370,1,8,0:0:0:0:
256,192,52578,1,8,0:0:0:0:
256,192,52786,1,0,0:0:0:0:
256,192,52995,1,8,0:0:0:0:
256,192,53203,1,0,0:0:0:0:
256,192,53307,1,0,0:0:0:0:
256,192,53515,1,4,0:0:0:0:
256,192,53828,1,8,0:0:0:0:
256,192,54036,1,0,0:0:0:0:
256,192,54245,1,8,0:0:0:0:
256,192,54453,1,8,0:0:0:0:
256,192,54661,1,0,0:0:0:0:
256,192,55078,1,8,0:0:0:0:
256,192,55182,1,8,0:0:0:0:
256,192,55495,1,0,0:0:0:0:
256,192,55703,1,8,0:0:0:0:
256,192,55911,1,8,0:0:0:0:
256,192,56120,1,0,0:0:0:0:
256,192,56328,1,8,0:0:0:0:
256,192,56745,1,0,0:0:0:0:
256,192,56849,1,0,0:0:0:0:
256,192,57161,1,8,0:0:0:0:
256,192,57370,1,0,0:0:0:0:
256,192,57578,1,8,0:0:0:0:
256,192,57786,1,8,0:0:0:0:
256,192,57995,1,0,0:0:0:0:
256,192,58411,1,8,0:0:0:0:
256,192,58515,1,8,0:0:0:0:
256,192,58828,1,12,0:0:0:0:
256,192,59036,1,12,0:0:0:0:
256,192,59453,1,4,0:0:0:0:
256,192,59661,1,4,0:0:0:0:
256,192,60182,1,8,0:0:0:0:
256,192,60495,1,4,0:0:0:0:
256,192,62161,1,12,0:0:0:0:
256,192,63099,1,8,0:0:0:0:
256,192,63307,1,8,0:0:0:0:
256,192,63515,1,8,0:0:0:0:
256,192,63828,1,4,0:0:0:0:
