osu file format v14

[General]
AudioFilename: 20-jungle-battle-stage-1-from-contra-.mp3
AudioLeadIn: 0
PreviewTime: 14661
Countdown: 0
SampleSet: Normal
StackLeniency: 0.7
Mode: 1
LetterboxInBreaks: 0
WidescreenStoryboard: 0

[Editor]
DistanceSpacing: 1
BeatDivisor: 4
GridSize: 4
TimelineZoom: 2.799999

[Metadata]
Title:Mitsurin no tatakai
TitleUnicode:密林の戦い
Artist:Manabu Namiki
ArtistUnicode:並木学
Creator:Surono
Version:Fukutsu
Source:魂斗羅ReBirth
Tags:Contra rebirth stage 1 battle of the jungle nishizumi ozzyozrock
BeatmapID:701322
BeatmapSetID:313267

[Difficulty]
HPDrainRate:6
CircleSize:5
OverallDifficulty:6.9
ApproachRate:0
SliderMultiplier:1.4
SliderTickRate:1

[Events]
//Background and Video events
0,0,"Contra.jpg",0,69
//Break Periods
//Storyboard Layer 0 (Background)
//Storyboard Layer 1 (Fail)
//Storyboard Layer 2 (Pass)
//Storyboard Layer 3 (Foreground)
//Storyboard Layer 4 (Overlay)
//Storyboard Sound Samples

[TimingPoints]
2161,416.666666666667,4,1,0,80,1,0
15494,-100,4,1,0,80,0,1
23827,-100,4,1,0,80,0,0
33827,-100,4,1,0,80,0,1
47161,-100,4,1,0,80,0,0

[HitObjects]
216,136,495,5,8,0:0:0:0:
208,136,599,1,8,0:0:0:0:
200,124,703,1,0,0:0:0:0:
200,124,807,1,0,0:0:0:0:
208,128,911,1,8,0:0:0:0:
208,128,1015,1,0,0:0:0:0:
200,124,1120,1,0,0:0:0:0:
208,128,1224,1,0,0:0:0:0:
216,136,1328,1,8,0:0:0:0:
216,136,1432,1,8,0:0:0:0:
216,136,1536,1,8,0:0:0:0:
216,136,1640,1,0,0:0:0:0:
216,136,1745,1,8,0:0:0:0:
216,136,1849,1,0,0:0:0:0:
216,136,1953,1,8,0:0:0:0:
216,136,2057,1,8,0:0:0:0:
216,136,2161,1,0,0:0:0:0:
228,112,2369,1,0,0:0:0:0:
236,124,2473,1,0,0:0:0:0:
224,120,2577,1,8,0:0:0:0:
240,124,2681,1,0,0:0:0:0:
232,100,2786,1,0,0:0:0:0:
240,108,2890,1,8,0:0:0:0:
224,120,2994,1,0,0:0:0:0:
228,124,3202,1,8,0:0:0:0:
244,104,3411,1,8,0:0:0:0:
236,112,3515,1,0,0:0:0:0:
236,112,3723,1,8,0:0:0:0:
236,112,3827,1,8,0:0:0:0:
220,128,4036,1,0,0:0:0:0:
228,124,4140,1,0,0:0:0:0:
228,124,4244,1,8,0:0:0:0:
244,108,4348,1,8,0:0:0:0:
240,112,4452,1,0,0:0:0:0:
240,112,4556,1,8,0:0:0:0:
240,116,4661,5,0,0:0:0:0:
236,92,4869,1,8,0:0:0:0:
236,92,4973,1,0,0:0:0:0:
236,92,5077,1,8,0:0:0:0:
260,108,5181,1,8,0:0:0:0:
252,80,5390,1,0,0:0:0:0:
240,80,5494,1,0,0:0:0:0:
228,112,5702,1,0,0:0:0:0:
236,108,5806,1,0,0:0:0:0:
224,120,5911,1,8,0:0:0:0:
240,124,6015,1,0,0:0:0:0:
232,100,6119,1,0,0:0:0:0:
240,108,6223,1,8,0:0:0:0:
224,120,6327,1,0,0:0:0:0:
228,124,6536,1,8,0:0:0:0:
244,104,6744,1,8,0:0:0:0:
236,112,6848,1,8,0:0:0:0:
236,112,7056,1,0,0:0:0:0:
236,112,7161,1,8,0:0:0:0:
220,128,7369,1,0,0:0:0:0:
228,124,7473,1,0,0:0:0:0:
228,124,7577,1,8,0:0:0:0:
244,108,7681,1,8,0:0:0:0:
240,112,7786,1,0,0:0:0:0:
240,112,7890,1,8,0:0:0:0:
228,112,7994,1,0,0:0:0:0:
228,108,8098,1,0,0:0:0:0:
236,92,8306,1,0,0:0:0:0:
236,92,8411,1,8,0:0:0:0:
228,92,8619,1,8,0:0:0:0:
240,112,8723,1,8,0:0:0:0:
228,112,8827,1,0,0:0:0:0:
228,112,9036,1,0,0:0:0:0:
240,116,9140,1,0,0:0:0:0:
224,120,9244,1,8,0:0:0:0:
240,124,9348,1,0,0:0:0:0:
232,100,9452,1,0,0:0:0:0:
240,108,9556,1,8,0:0:0:0:
224,120,9661,1,0,0:0:0:0:
228,124,9869,1,8,0:0:0:0:
244,104,10077,1,8,0:0:0:0:
236,112,10181,1,0,0:0:0:0:
236,112,10390,1,8,0:0:0:0:
236,112,10494,1,8,0:0:0:0:
220,128,10702,1,0,0:0:0:0:
228,124,10806,1,0,0:0:0:0:
228,124,10911,1,8,0:0:0:0:
244,108,11015,1,8,0:0:0:0:
240,112,11119,1,0,0:0:0:0:
240,112,11223,1,8,0:0:0:0:
240,116,11327,5,0,0:0:0:0:
236,92,11536,1,8,0:0:0:0:
236,92,11640,1,0,0:0:0:0:
236,92,11744,1,8,0:0:0:0:
224,96,11848,1,8,0:0:0:0:
232,116,12056,1,8,0:0:0:0:
248,96,12161,1,0,0:0:0:0:
228,112,12369,1,0,0:0:0:0:
232,104,12473,1,0,0:0:0:0:
224,120,12577,1,8,0:0:0:0:
240,124,12681,1,0,0:0:0:0:
232,100,12786,1,0,0:0:0:0:
240,108,12890,1,8,0:0:0:0:
224,120,12994,1,0,0:0:0:0:
228,124,13202,1,8,0:0:0:0:
244,104,13411,1,8,0:0:0:0:
236,112,13515,1,8,0:0:0:0:
236,112,13723,1,0,0:0:0:0:
236,112,13827,1,8,0:0:0:0:
220,128,14036,1,0,0:0:0:0:
228,124,14140,1,0,0:0:0:0:
228,124,14244,1,8,0:0:0:0:
244,108,14348,1,8,0:0:0:0:
240,112,14452,1,0,0:0:0:0:
240,112,14556,1,8,0:0:0:0:
240,116,14661,5,0,0:0:0:0:
236,92,14765,1,8,0:0:0:0:
236,92,14973,1,0,0:0:0:0:
236,92,15077,1,8,0:0:0:0:
236,92,15286,1,8,0:0:0:0:
252,84,15390,1,8,0:0:0:0:
244,88,15494,1,0,0:0:0:0:
244,88,15702,1,0,0:0:0:0:
248,80,15911,1,8,0:0:0:0:
256,88,16015,1,0,0:0:0:0:
272,92,16223,1,0,0:0:0:0:
264,80,16327,1,0,0:0:0:0:
276,92,16536,1,0,0:0:0:0:
276,92,16640,1,8,0:0:0:0:
276,96,16848,1,0,0:0:0:0:
276,96,16952,1,0,0:0:0:0:
280,96,17056,1,8,0:0:0:0:
280,96,17161,1,0,0:0:0:0:
280,96,17369,1,0,0:0:0:0:
276,100,17577,1,8,0:0:0:0:
276,100,17681,1,0,0:0:0:0:
276,100,17890,1,0,0:0:0:0:
276,100,17994,1,8,0:0:0:0:
280,88,18202,1,0,0:0:0:0:
280,88,18306,1,8,0:0:0:0:
280,88,18411,1,0,0:0:0:0:
280,80,18515,1,0,0:0:0:0:
280,88,18723,1,8,0:0:0:0:
280,88,18827,1,0,0:0:0:0:
280,88,19036,1,0,0:0:0:0:
280,88,19244,1,8,0:0:0:0:
280,92,19348,1,0,0:0:0:0:
280,92,19556,1,0,0:0:0:0:
280,92,19661,1,0,0:0:0:0:
280,92,19869,1,0,0:0:0:0:
280,96,19973,1,8,0:0:0:0:
280,96,20181,1,0,0:0:0:0:
280,92,20286,1,0,0:0:0:0:
280,92,20390,1,8,0:0:0:0:
280,92,20494,1,0,0:0:0:0:
280,92,20702,1,0,0:0:0:0:
280,96,20911,1,8,0:0:0:0:
284,96,21015,1,0,0:0:0:0:
284,96,21223,1,0,0:0:0:0:
284,96,21327,1,8,0:0:0:0:
284,96,21536,1,8,0:0:0:0:
272,80,21605,1,0,0:0:0:0:
272,80,21674,1,0,0:0:0:0:
284,84,21744,1,8,0:0:0:0:
288,88,22161,1,8,0:0:0:0:
228,108,22265,1,0,0:0:0:0:
268,84,22369,1,0,0:0:0:0:
240,108,22473,1,8,0:0:0:0:
232,96,22681,1,0,0:0:0:0:
232,96,22786,1,0,0:0:0:0:
232,96,22890,1,0,0:0:0:0:
248,104,22994,1,8,0:0:0:0:
248,88,23046,1,8,0:0:0:0:
216,88,23098,1,8,0:0:0:0:
248,92,23202,1,8,0:0:0:0:
248,100,23306,1,0,0:0:0:0:
248,92,23411,1,8,0:0:0:0:
244,88,23515,1,0,0:0:0:0:
248,92,23619,1,8,0:0:0:0:
248,92,23723,1,8,0:0:0:0:
248,92,23827,1,0,0:0:0:0:
248,92,24036,1,0,0:0:0:0:
248,92,24244,1,8,0:0:0:0:
216,80,24348,1,0,0:0:0:0:
236,84,24556,1,0,0:0:0:0:
248,92,24661,1,0,0:0:0:0:
256,96,24869,1,0,0:0:0:0:
260,96,25077,1,8,0:0:0:0:
264,100,25181,1,0,0:0:0:0:
272,104,25390,1,8,0:0:0:0:
272,104,25494,1,0,0:0:0:0:
276,104,25702,1,0,0:0:0:0:
276,96,25911,1,8,0:0:0:0:
276,96,26015,1,8,0:0:0:0:
276,100,26223,1,0,0:0:0:0:
276,100,26327,1,8,0:0:0:0:
276,104,26536,1,0,0:0:0:0:
276,100,26744,1,8,0:0:0:0:
276,104,26848,1,8,0:0:0:0:
280,104,27056,1,0,0:0:0:0:
280,104,27161,1,8,0:0:0:0:
280,104,27265,1,8,0:0:0:0:
280,104,27369,1,8,0:0:0:0:
280,104,27473,1,8,0:0:0:0:
280,104,27786,1,8,0:0:0:0:
280,104,27890,1,8,0:0:0:0:
280,104,27994,1,8,0:0:0:0:
280,104,28098,1,8,0:0:0:0:
280,88,28411,1,0,0:0:0:0:
280,88,28515,1,0,0:0:0:0:
280,88,28723,1,8,0:0:0:0:
280,96,28827,1,0,0:0:0:0:
280,96,29036,1,0,0:0:0:0:
280,96,29244,1,8,0:0:0:0:
280,88,29348,1,0,0:0:0:0:
280,88,29556,1,0,0:0:0:0:
284,92,29661,1,0,0:0:0:0:
280,88,29869,1,0,0:0:0:0:
280,88,30077,1,8,0:0:0:0:
280,88,30181,1,0,0:0:0:0:
280,88,30390,1,8,0:0:0:0:
280,88,30494,1,0,0:0:0:0:
276,88,30598,1,0,0:0:0:0:
280,88,30702,1,0,0:0:0:0:
256,88,30806,1,8,0:0:0:0:
256,88,31119,1,0,0:0:0:0:
260,88,31223,1,0,0:0:0:0:
264,88,31327,1,0,0:0:0:0:
272,72,31431,1,8,0:0:0:0:
252,80,31744,1,0,0:0:0:0:
284,80,31848,1,8,0:0:0:0:
272,72,32056,1,0,0:0:0:0:
272,72,32161,1,8,0:0:0:0:
272,76,32265,1,8,0:0:0:0:
272,72,32369,1,8,0:0:0:0:
272,76,32473,1,8,0:0:0:0:
284,80,32786,1,8,0:0:0:0:
284,80,32890,1,8,0:0:0:0:
284,80,32994,1,8,0:0:0:0:
284,80,33098,1,0,0:0:0:0:
272,76,33515,1,8,0:0:0:0:
272,76,33619,1,8,0:0:0:0:
272,76,33723,1,8,0:0:0:0:
272,80,33827,1,0,0:0:0:0:
272,80,33931,1,8,0:0:0:0:
272,80,34036,1,0,0:0:0:0:
272,76,34140,1,0,0:0:0:0:
272,76,34244,1,8,0:0:0:0:
280,76,34452,1,0,0:0:0:0:
280,76,34556,1,0,0:0:0:0:
280,76,34661,1,0,0:0:0:0:
280,76,34869,1,8,0:0:0:0:
280,76,34973,1,0,0:0:0:0:
280,76,35077,1,8,0:0:0:0:
280,80,35181,1,8,0:0:0:0:
280,76,35286,1,0,0:0:0:0:
280,76,35390,1,0,0:0:0:0:
280,76,35494,1,8,0:0:0:0:
280,76,35702,1,0,0:0:0:0:
280,76,35806,1,0,0:0:0:0:
280,76,35911,1,8,0:0:0:0:
280,80,36119,1,8,0:0:0:0:
280,76,36223,1,8,0:0:0:0:
280,76,36327,1,0,0:0:0:0:
280,76,36536,1,8,0:0:0:0:
280,76,36640,1,0,0:0:0:0:
280,76,36744,1,8,0:0:0:0:
272,72,36848,1,8,0:0:0:0:
272,72,36952,1,0,0:0:0:0:
276,72,37056,5,0,0:0:0:0:
272,72,37161,1,0,0:0:0:0:
236,96,37369,1,0,0:0:0:0:
236,96,37473,1,0,0:0:0:0:
236,96,37577,1,8,0:0:0:0:
236,96,37681,1,8,0:0:0:0:
236,96,37786,1,0,0:0:0:0:
236,96,37890,1,0,0:0:0:0:
236,96,37994,1,0,0:0:0:0:
236,96,38202,1,0,0:0:0:0:
236,96,38306,1,0,0:0:0:0:
236,96,38411,1,8,0:0:0:0:
236,96,38515,1,8,0:0:0:0:
236,96,38619,1,0,0:0:0:0:
236,96,38723,1,0,0:0:0:0:
236,96,38827,1,8,0:0:0:0:
236,96,39036,1,0,0:0:0:0:
236,96,39140,1,0,0:0:0:0:
236,96,39244,1,8,0:0:0:0:
236,96,39348,1,8,0:0:0:0:
236,96,39452,1,0,0:0:0:0:
236,96,39556,1,8,0:0:0:0:
236,96,39661,1,8,0:0:0:0:
236,96,39869,1,0,0:0:0:0:
236,96,39973,1,0,0:0:0:0:
256,80,40077,1,8,0:0:0:0:
256,80,40181,1,0,0:0:0:0:
256,80,40286,1,8,0:0:0:0:
272,76,40390,1,8,0:0:0:0:
272,80,40494,1,0,0:0:0:0:
272,80,40598,1,8,0:0:0:0:
272,80,40702,1,0,0:0:0:0:
272,76,40806,1,0,0:0:0:0:
272,76,40911,1,8,0:0:0:0:
280,76,41119,1,0,0:0:0:0:
280,76,41223,1,0,0:0:0:0:
280,76,41327,1,0,0:0:0:0:
280,76,41536,1,8,0:0:0:0:
280,76,41640,1,0,0:0:0:0:
280,76,41744,1,8,0:0:0:0:
280,80,41848,1,8,0:0:0:0:
280,76,41952,1,0,0:0:0:0:
280,76,42056,1,0,0:0:0:0:
280,76,42161,1,8,0:0:0:0:
280,76,42369,1,0,0:0:0:0:
280,76,42473,1,0,0:0:0:0:
280,76,42577,1,8,0:0:0:0:
280,80,42786,1,8,0:0:0:0:
280,76,42890,1,8,0:0:0:0:
280,76,42994,1,0,0:0:0:0:
280,76,43202,1,8,0:0:0:0:
280,76,43306,1,0,0:0:0:0:
280,76,43411,1,8,0:0:0:0:
272,72,43515,1,8,0:0:0:0:
272,72,43619,1,0,0:0:0:0:
276,72,43723,5,0,0:0:0:0:
272,72,43827,1,0,0:0:0:0:
236,96,44036,1,0,0:0:0:0:
236,96,44140,1,0,0:0:0:0:
236,96,44244,1,8,0:0:0:0:
236,96,44348,1,8,0:0:0:0:
236,96,44452,1,0,0:0:0:0:
236,96,44556,1,0,0:0:0:0:
236,96,44661,1,0,0:0:0:0:
236,96,44869,1,0,0:0:0:0:
236,96,44973,1,0,0:0:0:0:
236,96,45077,1,8,0:0:0:0:
236,96,45181,1,8,0:0:0:0:
236,96,45286,1,0,0:0:0:0:
236,96,45390,1,0,0:0:0:0:
240,92,45494,1,8,0:0:0:0:
240,92,45598,1,8,0:0:0:0:
240,92,45702,1,8,0:0:0:0:
240,92,45911,1,0,0:0:0:0:
240,92,46015,1,0,0:0:0:0:
236,96,46223,1,0,0:0:0:0:
248,84,46327,1,8,0:0:0:0:
244,88,46744,1,0,0:0:0:0:
244,88,47161,1,0,0:0:0:0:
240,88,47265,1,8,0:0:0:0:
244,88,47369,1,0,0:0:0:0:
244,88,47473,1,0,0:0:0:0:
244,88,47577,1,8,0:0:0:0:
244,88,47786,1,0,0:0:0:0:
244,88,47890,1,0,0:0:0:0:
244,88,47994,1,0,0:0:0:0:
244,88,48098,1,8,0:0:0:0:
248,72,48306,1,0,0:0:0:0:
248,72,48411,1,8,0:0:0:0:
248,72,48515,1,0,0:0:0:0:
244,88,48827,1,0,0:0:0:0:
240,88,48931,1,0,0:0:0:0:
244,88,49036,1,0,0:0:0:0:
244,88,49140,1,0,0:0:0:0:
244,88,49244,1,8,0:0:0:0:
244,88,49452,1,0,0:0:0:0:
244,88,49556,1,0,0:0:0:0:
244,88,49661,1,0,0:0:0:0:
244,88,49765,1,0,0:0:0:0:
248,72,49973,1,0,0:0:0:0:
248,72,50077,1,8,0:0:0:0:
248,72,50181,1,8,0:0:0:0:
244,88,50494,1,0,0:0:0:0:
240,88,50598,1,8,0:0:0:0:
244,88,50702,1,0,0:0:0:0:
244,88,50806,1,0,0:0:0:0:
244,88,50911,1,8,0:0:0:0:
244,88,51119,1,0,0:0:0:0:
244,88,51223,1,0,0:0:0:0:
244,88,51327,1,0,0:0:0:0:
244,88,51431,1,8,0:0:0:0:
248,72,51640,1,0,0:0:0:0:
248,72,51744,1,8,0:0:0:0:
248,72,51848,1,0,0:0:0:0:
244,88,52161,1,0,0:0:0:0:
240,88,52265,1,0,0:0:0:0:
244,88,52369,1,0,0:0:0:0:
244,88,52473,1,0,0:0:0:0:
244,88,52577,1,8,0:0:0:0:
244,88,52786,1,0,0:0:0:0:
244,88,52890,1,0,0:0:0:0:
244,88,52994,1,8,0:0:0:0:
244,88,53098,1,8,0:0:0:0:
248,72,53202,1,0,0:0:0:0:
248,72,53306,1,8,0:0:0:0:
248,72,53515,1,8,0:0:0:0:
244,88,53827,1,8,0:0:0:0:
240,88,53931,1,8,0:0:0:0:
244,88,54036,1,0,0:0:0:0:
244,88,54140,1,0,0:0:0:0:
244,88,54244,1,8,0:0:0:0:
244,88,54452,1,8,0:0:0:0:
244,88,54556,1,8,0:0:0:0:
244,88,54661,1,8,0:0:0:0:
244,88,54765,1,0,0:0:0:0:
248,72,55077,1,8,0:0:0:0:
248,72,55181,1,8,0:0:0:0:
244,88,55286,1,0,0:0:0:0:
244,88,55390,1,8,0:0:0:0:
244,88,55494,1,0,0:0:0:0:
240,88,55598,1,0,0:0:0:0:
244,88,55702,1,0,0:0:0:0:
244,88,55806,1,0,0:0:0:0:
244,88,55911,1,8,0:0:0:0:
244,88,56119,1,0,0:0:0:0:
244,88,56223,1,0,0:0:0:0:
244,88,56327,1,0,0:0:0:0:
244,88,56431,1,0,0:0:0:0:
248,72,56744,1,8,0:0:0:0:
248,72,56848,1,0,0:0:0:0:
256,88,56952,1,8,0:0:0:0:
256,88,57056,1,8,0:0:0:0:
244,88,57161,1,0,0:0:0:0:
240,88,57265,1,8,0:0:0:0:
244,88,57369,1,0,0:0:0:0:
244,88,57473,1,0,0:0:0:0:
244,88,57577,1,8,0:0:0:0:
244,88,57786,1,0,0:0:0:0:
244,88,57890,1,0,0:0:0:0:
244,88,57994,1,0,0:0:0:0:
244,88,58098,1,8,0:0:0:0:
248,72,58411,1,8,0:0:0:0:
248,72,58515,1,8,0:0:0:0:
248,80,58619,1,0,0:0:0:0:
248,80,58723,1,0,0:0:0:0:
252,80,58827,1,8,0:0:0:0:
252,80,58931,1,8,0:0:0:0:
252,80,59036,1,8,0:0:0:0:
252,80,59140,1,8,0:0:0:0:
248,72,59452,1,8,0:0:0:0:
248,72,59556,1,8,0:0:0:0:
248,72,59661,1,8,0:0:0:0:
240,80,59765,1,0,0:0:0:0:
240,76,60181,1,8,0:0:0:0:
240,76,60286,1,8,0:0:0:0:
240,76,60390,1,8,0:0:0:0:
240,76,60494,1,0,0:0:0:0:
248,72,60598,1,8,0:0:0:0:
244,72,60702,1,0,0:0:0:0:
244,72,60806,1,0,0:0:0:0:
244,72,61015,1,0,0:0:0:0:
244,72,61119,1,0,0:0:0:0:
244,72,61223,1,0,0:0:0:0:
244,72,61327,1,8,0:0:0:0:
244,72,61431,1,0,0:0:0:0:
248,72,61536,1,8,0:0:0:0:
244,72,61640,1,8,0:0:0:0:
244,56,61848,1,8,0:0:0:0:
244,56,61952,1,0,0:0:0:0:
244,56,62056,1,8,0:0:0:0:
244,56,62161,1,8,0:0:0:0:
244,56,62265,1,0,0:0:0:0:
244,56,62369,1,8,0:0:0:0:
248,56,62473,1,0,0:0:0:0:
244,56,62681,1,0,0:0:0:0:
244,56,62786,1,0,0:0:0:0:
244,56,62890,1,0,0:0:0:0:
244,56,63098,1,8,0:0:0:0:
244,56,63202,1,0,0:0:0:0:
244,56,63306,1,8,0:0:0:0:
248,56,63411,1,0,0:0:0:0:
244,56,63515,1,8,0:0:0:0:
244,56,63619,1,8,0:0:0:0:
244,56,63723,1,8,0:0:0:0:
244,56,63827,1,0,0:0:0:0:
