osu file format v14

[General]
AudioFilename: 25-gtr-attack-boss-b-from-contra-the-hard-corps-0.mp3
AudioLeadIn: 0
PreviewTime: 5751
Countdown: 0
SampleSet: None
StackLeniency: 0.7
Mode: 1
LetterboxInBreaks: 0
WidescreenStoryboard: 0

[Editor]
Bookmarks: 11251,31084,32417,57336
DistanceSpacing: 1
BeatDivisor: 6
GridSize: 4
TimelineZoom: 2.1

[Metadata]
Title:GTR ATTACK!
TitleUnicode:GTR ATTACK!
Artist:Manabu Namiki
ArtistUnicode:並木学
Creator:Surono
Version:NOT IN MOOD FOR MAKING TACOS
Source:Surono's Head
Tags:
BeatmapID:1625341
BeatmapSetID:773205

[Difficulty]
HPDrainRate:6
CircleSize:2
OverallDifficulty:6
ApproachRate:0
SliderMultiplier:1.4
SliderTickRate:1

[Events]
//Background and Video events
0,0,"BG.jpg",0,50
//Break Periods
//Storyboard Layer 0 (Background)
//Storyboard Layer 1 (Fail)
//Storyboard Layer 2 (Pass)
//Storyboard Layer 3 (Foreground)
//Storyboard Sound Samples

[TimingPoints]
418,333.333333333333,4,1,0,80,1,8
5751,-100,4,1,0,80,0,9
11084,-100,4,1,0,80,0,8
32417,-100,4,1,0,80,0,9
40417,-100,4,1,0,80,0,8
50417,-100,4,1,0,80,0,9
53751,-100,4,1,0,80,0,8
56417,-100,4,1,0,80,0,9
57917,-100,4,1,0,80,0,8

[HitObjects]
248,184,418,5,4,0:0:0:0:
248,184,584,1,0,0:0:0:0:
248,184,667,1,0,0:0:0:0:
248,184,751,1,8,0:0:0:0:
248,184,917,1,0,0:0:0:0:
248,184,1001,1,0,0:0:0:0:
248,184,1084,1,0,0:0:0:0:
248,184,1167,1,0,0:0:0:0:
248,184,1251,1,0,0:0:0:0:
248,184,1334,1,0,0:0:0:0:
248,184,1417,1,8,0:0:0:0:
248,184,1584,1,8,0:0:0:0:
248,184,1751,1,0,0:0:0:0:
248,184,1917,1,0,0:0:0:0:
248,184,2001,1,0,0:0:0:0:
248,184,2084,1,8,0:0:0:0:
248,184,2251,1,0,0:0:0:0:
248,184,2334,1,0,0:0:0:0:
248,184,2417,1,0,0:0:0:0:
248,184,2501,1,0,0:0:0:0:
248,184,2584,1,0,0:0:0:0:
248,184,2667,1,0,0:0:0:0:
248,184,2751,1,8,0:0:0:0:
248,184,2917,1,8,0:0:0:0:
240,180,2973,1,8,0:0:0:0:
240,180,3029,1,8,0:0:0:0:
240,180,3084,1,0,0:0:0:0:
240,176,3251,1,0,0:0:0:0:
240,176,3334,1,0,0:0:0:0:
240,176,3417,1,8,0:0:0:0:
240,176,3584,1,0,0:0:0:0:
240,176,3667,1,0,0:0:0:0:
240,176,3751,1,0,0:0:0:0:
240,176,3834,1,0,0:0:0:0:
240,176,3917,1,0,0:0:0:0:
240,176,4001,1,0,0:0:0:0:
240,176,4084,1,8,0:0:0:0:
240,176,4251,1,0,0:0:0:0:
240,176,4417,1,8,0:0:0:0:
240,180,4584,1,0,0:0:0:0:
240,180,4667,1,0,0:0:0:0:
240,176,4751,1,8,0:0:0:0:
240,176,4917,1,8,0:0:0:0:
240,176,5001,1,8,0:0:0:0:
240,176,5084,1,8,0:0:0:0:
240,176,5167,1,0,0:0:0:0:
240,176,5251,1,0,0:0:0:0:
240,176,5334,1,0,0:0:0:0:
240,176,5417,1,8,0:0:0:0:
240,176,5501,1,8,0:0:0:0:
240,176,5584,1,8,0:0:0:0:
240,176,5667,1,8,0:0:0:0:
240,180,5751,1,4,0:0:0:0:
240,176,5918,1,0,0:0:0:0:
240,176,6001,1,0,0:0:0:0:
240,176,6084,1,8,0:0:0:0:
240,176,6251,1,0,0:0:0:0:
240,176,6334,1,0,0:0:0:0:
240,176,6417,1,8,0:0:0:0:
240,176,6501,1,0,0:0:0:0:
240,176,6584,1,0,0:0:0:0:
240,176,6668,1,0,0:0:0:0:
240,176,6751,1,8,0:0:0:0:
240,176,6834,1,0,0:0:0:0:
240,176,6917,1,8,0:0:0:0:
240,176,7001,1,8,0:0:0:0:
240,180,7084,1,4,0:0:0:0:
240,176,7251,1,0,0:0:0:0:
240,176,7334,1,0,0:0:0:0:
240,176,7417,1,8,0:0:0:0:
240,176,7584,1,0,0:0:0:0:
240,176,7667,1,0,0:0:0:0:
240,176,7750,1,8,0:0:0:0:
240,176,7834,1,0,0:0:0:0:
240,176,7917,1,0,0:0:0:0:
240,176,8001,1,0,0:0:0:0:
240,176,8084,1,8,0:0:0:0:
240,176,8167,1,0,0:0:0:0:
240,176,8250,1,8,0:0:0:0:
240,176,8334,1,8,0:0:0:0:
240,180,8417,1,4,0:0:0:0:
240,176,8584,1,0,0:0:0:0:
240,176,8667,1,0,0:0:0:0:
240,176,8750,1,8,0:0:0:0:
240,176,8917,1,0,0:0:0:0:
240,176,9000,1,0,0:0:0:0:
240,176,9083,1,8,0:0:0:0:
240,176,9167,1,0,0:0:0:0:
240,176,9250,1,0,0:0:0:0:
240,176,9334,1,0,0:0:0:0:
240,176,9417,1,8,0:0:0:0:
240,176,9500,1,0,0:0:0:0:
240,176,9583,1,8,0:0:0:0:
240,176,9667,1,8,0:0:0:0:
240,180,9751,1,4,0:0:0:0:
240,176,9918,1,0,0:0:0:0:
240,176,10001,1,0,0:0:0:0:
240,176,10084,1,8,0:0:0:0:
240,176,10251,1,0,0:0:0:0:
240,176,10334,1,0,0:0:0:0:
240,176,10417,1,8,0:0:0:0:
240,176,10501,1,0,0:0:0:0:
240,176,10584,1,8,0:0:0:0:
240,176,10668,1,8,0:0:0:0:
240,176,10751,1,8,0:0:0:0:
240,176,10834,1,0,0:0:0:0:
240,176,10917,1,8,0:0:0:0:
240,176,11001,1,8,0:0:0:0:
240,176,11084,1,4,0:0:0:0:
240,176,11251,1,0,0:0:0:0:
240,180,11334,1,0,0:0:0:0:
240,176,11417,1,8,0:0:0:0:
240,176,11584,1,8,0:0:0:0:
240,176,11751,1,0,0:0:0:0:
240,176,11917,1,0,0:0:0:0:
240,176,12001,1,0,0:0:0:0:
240,176,12084,1,8,0:0:0:0:
240,176,12251,1,0,0:0:0:0:
240,176,12334,1,8,0:0:0:0:
240,176,12417,1,0,0:0:0:0:
240,176,12667,1,0,0:0:0:0:
240,176,12751,1,8,0:0:0:0:
240,180,12917,1,8,0:0:0:0:
240,176,13084,1,0,0:0:0:0:
240,176,13167,1,0,0:0:0:0:
240,176,13251,1,0,0:0:0:0:
240,176,13334,1,8,0:0:0:0:
240,176,13417,1,8,0:0:0:0:
240,176,13584,1,0,0:0:0:0:
240,176,13667,1,8,0:0:0:0:
240,176,13751,1,8,0:0:0:0:
240,176,13917,1,0,0:0:0:0:
240,176,14001,1,0,0:0:0:0:
240,176,14084,1,8,0:0:0:0:
240,176,14251,1,8,0:0:0:0:
240,180,14417,1,0,0:0:0:0:
240,176,14584,1,0,0:0:0:0:
240,176,14751,1,8,0:0:0:0:
240,176,14917,1,0,0:0:0:0:
240,176,15001,1,8,0:0:0:0:
240,176,15084,1,0,0:0:0:0:
240,176,15334,1,0,0:0:0:0:
240,176,15417,1,8,0:0:0:0:
240,176,15584,1,8,0:0:0:0:
240,176,15751,1,0,0:0:0:0:
240,176,15834,1,0,0:0:0:0:
240,180,15917,1,0,0:0:0:0:
240,180,16001,1,0,0:0:0:0:
240,176,16084,1,8,0:0:0:0:
240,176,16251,1,8,0:0:0:0:
240,176,16334,1,8,0:0:0:0:
240,176,16417,1,0,0:0:0:0:
240,176,16584,1,0,0:0:0:0:
240,176,16667,1,0,0:0:0:0:
240,176,16751,1,8,0:0:0:0:
240,176,16917,1,8,0:0:0:0:
240,176,17084,1,0,0:0:0:0:
240,176,17251,1,0,0:0:0:0:
240,176,17417,1,8,0:0:0:0:
240,180,17584,1,0,0:0:0:0:
240,176,17667,1,8,0:0:0:0:
240,176,17751,1,0,0:0:0:0:
240,176,18001,1,0,0:0:0:0:
240,176,18084,1,8,0:0:0:0:
240,176,18251,1,8,0:0:0:0:
240,176,18417,1,0,0:0:0:0:
240,176,18501,1,0,0:0:0:0:
240,176,18584,1,0,0:0:0:0:
240,176,18667,1,0,0:0:0:0:
240,176,18751,1,8,0:0:0:0:
240,176,18917,1,8,0:0:0:0:
240,176,19001,1,8,0:0:0:0:
240,180,19084,1,8,0:0:0:0:
240,176,19251,1,0,0:0:0:0:
240,176,19334,1,0,0:0:0:0:
240,176,19417,1,8,0:0:0:0:
240,176,19584,1,0,0:0:0:0:
240,176,19667,1,0,0:0:0:0:
240,176,19751,1,0,0:0:0:0:
240,176,19917,1,0,0:0:0:0:
240,176,20084,1,8,0:0:0:0:
240,176,20251,1,0,0:0:0:0:
240,176,20334,1,8,0:0:0:0:
240,176,20417,1,0,0:0:0:0:
240,180,20667,1,0,0:0:0:0:
240,176,20751,1,8,0:0:0:0:
240,176,20917,1,8,0:0:0:0:
240,176,21084,1,0,0:0:0:0:
240,176,21167,1,8,0:0:0:0:
240,176,21251,1,0,0:0:0:0:
240,176,21334,1,0,0:0:0:0:
240,176,21417,1,8,0:0:0:0:
240,176,21584,1,8,0:0:0:0:
240,176,21667,1,8,0:0:0:0:
240,176,21751,1,0,0:0:0:0:
240,176,21917,1,0,0:0:0:0:
240,176,22001,1,0,0:0:0:0:
240,180,22084,1,8,0:0:0:0:
240,180,22251,1,8,0:0:0:0:
240,176,22417,1,0,0:0:0:0:
240,176,22584,1,0,0:0:0:0:
240,176,22751,1,8,0:0:0:0:
240,176,22917,1,0,0:0:0:0:
240,176,23001,1,8,0:0:0:0:
240,176,23084,1,0,0:0:0:0:
240,176,23251,1,8,0:0:0:0:
240,176,23334,1,0,0:0:0:0:
240,176,23417,1,8,0:0:0:0:
240,176,23584,1,0,0:0:0:0:
240,180,23751,1,8,0:0:0:0:
240,176,23917,1,0,0:0:0:0:
240,176,24001,1,0,0:0:0:0:
240,176,24084,1,8,0:0:0:0:
240,176,24251,1,0,0:0:0:0:
240,176,24334,1,8,0:0:0:0:
240,176,24417,1,8,0:0:0:0:
240,176,24584,1,0,0:0:0:0:
240,176,24667,1,0,0:0:0:0:
240,176,24751,1,8,0:0:0:0:
240,176,24917,1,8,0:0:0:0:
240,176,25084,1,0,0:0:0:0:
240,180,25251,1,0,0:0:0:0:
240,176,25417,1,8,0:0:0:0:
240,176,25584,1,0,0:0:0:0:
240,176,25667,1,8,0:0:0:0:
240,176,25751,1,0,0:0:0:0:
240,176,25917,1,0,0:0:0:0:
240,176,26001,1,0,0:0:0:0:
240,176,26084,1,8,0:0:0:0:
240,176,26251,1,0,0:0:0:0:
240,176,26417,1,8,0:0:0:0:
240,176,26501,1,0,0:0:0:0:
240,176,26584,1,0,0:0:0:0:
240,176,26667,1,0,0:0:0:0:
240,172,26751,1,8,0:0:0:0:
240,176,26917,1,0,0:0:0:0:
240,176,27001,1,8,0:0:0:0:
240,176,27084,1,0,0:0:0:0:
240,176,27251,1,0,0:0:0:0:
240,176,27334,1,0,0:0:0:0:
240,176,27417,1,8,0:0:0:0:
240,176,27584,1,0,0:0:0:0:
240,176,27667,1,0,0:0:0:0:
240,176,27751,1,0,0:0:0:0:
240,176,27917,1,0,0:0:0:0:
240,176,28084,1,8,0:0:0:0:
240,176,28251,1,0,0:0:0:0:
240,180,28334,1,8,0:0:0:0:
240,176,28417,1,0,0:0:0:0:
240,176,28667,1,0,0:0:0:0:
240,176,28751,1,8,0:0:0:0:
240,176,28917,1,8,0:0:0:0:
240,176,29084,1,0,0:0:0:0:
240,176,29167,1,0,0:0:0:0:
240,176,29251,1,0,0:0:0:0:
240,176,29334,1,0,0:0:0:0:
240,176,29417,1,8,0:0:0:0:
240,176,29501,1,8,0:0:0:0:
240,176,29584,1,8,0:0:0:0:
240,176,29667,1,8,0:0:0:0:
240,176,29751,1,0,0:0:0:0:
240,176,30001,1,0,0:0:0:0:
240,176,30084,1,8,0:0:0:0:
240,176,30251,1,8,0:0:0:0:
240,176,30334,1,8,0:0:0:0:
240,176,30417,1,0,0:0:0:0:
240,176,30584,1,0,0:0:0:0:
240,176,30751,1,8,0:0:0:0:
272,164,30917,1,0,0:0:0:0:
272,164,31001,1,8,0:0:0:0:
272,168,31084,1,8,0:0:0:0:
272,168,31167,1,8,0:0:0:0:
272,168,31251,1,0,0:0:0:0:
272,168,31334,1,0,0:0:0:0:
272,168,31417,1,8,0:0:0:0:
248,180,31501,1,0,0:0:0:0:
260,164,31584,1,0,0:0:0:0:
272,164,31667,1,0,0:0:0:0:
272,168,31751,1,8,0:0:0:0:
272,168,31834,1,0,0:0:0:0:
272,168,31917,1,0,0:0:0:0:
272,168,32001,1,8,0:0:0:0:
272,168,32084,1,8,0:0:0:0:
272,168,32167,1,0,0:0:0:0:
272,168,32251,1,8,0:0:0:0:
272,168,32334,1,8,0:0:0:0:
272,168,32417,1,4,0:0:0:0:
248,216,32584,1,8,0:0:0:0:
248,216,32751,1,0,0:0:0:0:
248,216,32834,1,8,0:0:0:0:
256,224,32917,1,0,0:0:0:0:
248,216,33001,1,0,0:0:0:0:
248,216,33084,1,8,0:0:0:0:
256,224,33167,1,0,0:0:0:0:
248,216,33251,1,0,0:0:0:0:
248,216,33334,1,8,0:0:0:0:
256,224,33417,1,0,0:0:0:0:
248,216,33501,1,0,0:0:0:0:
248,216,33584,1,8,0:0:0:0:
256,224,33667,1,8,0:0:0:0:
248,216,33751,1,0,0:0:0:0:
248,216,33917,1,8,0:0:0:0:
248,216,34084,1,0,0:0:0:0:
248,216,34167,1,8,0:0:0:0:
256,224,34251,1,0,0:0:0:0:
248,216,34334,1,0,0:0:0:0:
248,216,34417,1,8,0:0:0:0:
256,224,34501,1,0,0:0:0:0:
248,216,34584,1,0,0:0:0:0:
248,216,34667,1,8,0:0:0:0:
256,224,34751,1,0,0:0:0:0:
248,216,34834,1,0,0:0:0:0:
248,216,34917,1,8,0:0:0:0:
248,216,35084,1,0,0:0:0:0:
248,216,35251,1,8,0:0:0:0:
248,216,35417,1,0,0:0:0:0:
248,216,35501,1,8,0:0:0:0:
248,216,35584,1,0,0:0:0:0:
248,216,35668,1,0,0:0:0:0:
248,216,35751,1,8,0:0:0:0:
248,220,35834,1,0,0:0:0:0:
248,216,35918,1,0,0:0:0:0:
248,216,36001,1,8,0:0:0:0:
248,220,36084,1,0,0:0:0:0:
248,216,36168,1,0,0:0:0:0:
248,216,36251,1,8,0:0:0:0:
248,220,36334,1,8,0:0:0:0:
248,216,36418,1,0,0:0:0:0:
248,216,36584,1,8,0:0:0:0:
248,216,36751,1,0,0:0:0:0:
248,216,36834,1,8,0:0:0:0:
248,220,36917,1,0,0:0:0:0:
248,216,37001,1,0,0:0:0:0:
248,216,37084,1,8,0:0:0:0:
248,216,37167,1,0,0:0:0:0:
248,216,37251,1,0,0:0:0:0:
248,216,37334,1,8,0:0:0:0:
248,220,37417,1,0,0:0:0:0:
248,216,37501,1,0,0:0:0:0:
248,216,37584,1,8,0:0:0:0:
248,216,37751,1,0,0:0:0:0:
248,216,37917,1,8,0:0:0:0:
248,216,38084,1,0,0:0:0:0:
248,216,38167,1,8,0:0:0:0:
248,216,38251,1,0,0:0:0:0:
248,216,38334,1,0,0:0:0:0:
248,216,38417,1,8,0:0:0:0:
248,220,38501,1,0,0:0:0:0:
248,216,38584,1,0,0:0:0:0:
248,216,38667,1,8,0:0:0:0:
248,216,38751,1,0,0:0:0:0:
248,216,38834,1,0,0:0:0:0:
248,216,38917,1,8,0:0:0:0:
248,220,39001,1,8,0:0:0:0:
248,216,39084,1,0,0:0:0:0:
248,216,39251,1,8,0:0:0:0:
248,216,39418,1,0,0:0:0:0:
248,216,39501,1,8,0:0:0:0:
248,216,39584,1,0,0:0:0:0:
248,216,39668,1,0,0:0:0:0:
248,216,39751,1,8,0:0:0:0:
248,216,39834,1,0,0:0:0:0:
248,216,39918,1,0,0:0:0:0:
248,216,40001,1,8,0:0:0:0:
248,220,40084,1,8,0:0:0:0:
248,216,40168,1,0,0:0:0:0:
248,216,40251,1,8,0:0:0:0:
248,216,40418,1,0,0:0:0:0:
248,216,40584,1,8,0:0:0:0:
248,216,40667,1,0,0:0:0:0:
248,216,40751,1,0,0:0:0:0:
248,216,40834,1,8,0:0:0:0:
248,216,40917,1,0,0:0:0:0:
248,216,41001,1,0,0:0:0:0:
248,216,41084,1,8,0:0:0:0:
248,216,41167,1,0,0:0:0:0:
248,216,41251,1,0,0:0:0:0:
248,216,41334,1,8,0:0:0:0:
248,208,41417,1,0,0:0:0:0:
248,216,41501,1,0,0:0:0:0:
248,216,41584,1,8,0:0:0:0:
248,216,41667,1,8,0:0:0:0:
248,216,41751,1,0,0:0:0:0:
248,216,41917,1,8,0:0:0:0:
248,216,42001,1,0,0:0:0:0:
248,216,42084,1,8,0:0:0:0:
248,216,42167,1,8,0:0:0:0:
248,216,42251,1,0,0:0:0:0:
248,216,42334,1,0,0:0:0:0:
248,216,42417,1,8,0:0:0:0:
232,212,42584,1,0,0:0:0:0:
244,208,42667,1,0,0:0:0:0:
248,216,42751,1,8,0:0:0:0:
248,216,42834,1,8,0:0:0:0:
248,216,42917,1,0,0:0:0:0:
248,216,43001,1,8,0:0:0:0:
248,216,43084,1,0,0:0:0:0:
248,216,43140,1,0,0:0:0:0:
248,216,43195,1,0,0:0:0:0:
248,216,43251,1,0,0:0:0:0:
248,216,43306,1,0,0:0:0:0:
256,224,43362,1,0,0:0:0:0:
248,216,43417,1,8,0:0:0:0:
248,216,43473,1,8,0:0:0:0:
252,208,43529,1,8,0:0:0:0:
248,216,43584,1,8,0:0:0:0:
248,212,43640,1,8,0:0:0:0:
248,212,43695,1,8,0:0:0:0:
248,216,43751,1,0,0:0:0:0:
248,216,43918,1,0,0:0:0:0:
248,216,44001,1,8,0:0:0:0:
248,216,44084,1,0,0:0:0:0:
248,216,44168,1,0,0:0:0:0:
248,216,44251,1,8,0:0:0:0:
248,216,44334,1,0,0:0:0:0:
248,216,44418,1,0,0:0:0:0:
248,216,44584,1,8,0:0:0:0:
248,216,44751,1,0,0:0:0:0:
248,216,44834,1,8,0:0:0:0:
248,216,44917,1,8,0:0:0:0:
248,216,45001,1,0,0:0:0:0:
248,216,45084,1,8,0:0:0:0:
248,216,45251,1,0,0:0:0:0:
248,216,45334,1,8,0:0:0:0:
248,216,45417,1,0,0:0:0:0:
248,216,45501,1,0,0:0:0:0:
248,216,45584,1,8,0:0:0:0:
248,216,45667,1,8,0:0:0:0:
248,216,45751,1,0,0:0:0:0:
248,216,45917,1,8,0:0:0:0:
248,216,46084,1,0,0:0:0:0:
248,216,46167,1,8,0:0:0:0:
248,216,46251,1,8,0:0:0:0:
248,216,46334,1,0,0:0:0:0:
248,216,46417,1,8,0:0:0:0:
248,216,46501,1,0,0:0:0:0:
248,216,46584,1,0,0:0:0:0:
248,216,46667,1,8,0:0:0:0:
248,216,46834,1,0,0:0:0:0:
248,216,46917,1,8,0:0:0:0:
248,216,47001,1,8,0:0:0:0:
248,216,47084,1,0,0:0:0:0:
248,216,47251,1,8,0:0:0:0:
248,216,47334,1,0,0:0:0:0:
248,216,47417,1,8,0:0:0:0:
248,216,47501,1,8,0:0:0:0:
248,216,47584,1,0,0:0:0:0:
248,216,47668,1,0,0:0:0:0:
248,216,47751,1,8,0:0:0:0:
248,216,47918,1,0,0:0:0:0:
248,216,48001,1,8,0:0:0:0:
248,216,48084,1,0,0:0:0:0:
248,216,48168,1,0,0:0:0:0:
248,216,48251,1,8,0:0:0:0:
248,216,48418,1,0,0:0:0:0:
248,216,48584,1,8,0:0:0:0:
248,216,48751,1,0,0:0:0:0:
248,216,48834,1,8,0:0:0:0:
252,224,48917,1,0,0:0:0:0:
248,216,48973,1,0,0:0:0:0:
248,216,49029,1,0,0:0:0:0:
248,216,49084,1,8,0:0:0:0:
252,224,49167,1,0,0:0:0:0:
248,216,49251,1,0,0:0:0:0:
248,216,49334,1,8,0:0:0:0:
252,224,49417,1,8,0:0:0:0:
248,216,49501,1,0,0:0:0:0:
248,216,49584,1,8,0:0:0:0:
132,180,49667,1,8,0:0:0:0:
248,216,49751,1,0,0:0:0:0:
248,216,49917,1,8,0:0:0:0:
248,216,50084,1,0,0:0:0:0:
248,216,50167,1,8,0:0:0:0:
132,180,50251,1,0,0:0:0:0:
248,216,50417,1,0,0:0:0:0:
132,180,50473,1,0,0:0:0:0:
248,216,50529,1,0,0:0:0:0:
248,216,50584,1,0,0:0:0:0:
264,164,50640,1,0,0:0:0:0:
264,164,50695,1,0,0:0:0:0:
132,180,50751,1,8,0:0:0:0:
264,164,50806,1,8,0:0:0:0:
248,216,50862,1,8,0:0:0:0:
248,216,50917,1,8,0:0:0:0:
132,180,50973,1,8,0:0:0:0:
232,136,51029,1,8,0:0:0:0:
248,216,51084,1,0,0:0:0:0:
232,136,51140,1,8,0:0:0:0:
132,180,51195,1,8,0:0:0:0:
132,180,51251,1,0,0:0:0:0:
132,180,51306,1,8,0:0:0:0:
232,156,51362,1,8,0:0:0:0:
248,216,51417,1,8,0:0:0:0:
232,156,51473,1,8,0:0:0:0:
248,216,51529,1,8,0:0:0:0:
132,180,51584,1,0,0:0:0:0:
248,216,51640,1,8,0:0:0:0:
216,108,51695,1,8,0:0:0:0:
248,216,51751,1,0,0:0:0:0:
216,108,51806,1,8,0:0:0:0:
132,180,51862,1,8,0:0:0:0:
248,216,51918,1,0,0:0:0:0:
296,148,51973,1,8,0:0:0:0:
248,216,52029,1,8,0:0:0:0:
132,180,52084,1,8,0:0:0:0:
216,132,52140,1,8,0:0:0:0:
248,216,52195,1,8,0:0:0:0:
248,216,52251,1,0,0:0:0:0:
200,168,52306,1,8,0:0:0:0:
132,180,52362,1,8,0:0:0:0:
248,216,52418,1,0,0:0:0:0:
248,216,52584,1,8,0:0:0:0:
132,180,52667,1,8,0:0:0:0:
248,216,52751,1,0,0:0:0:0:
248,216,52917,1,8,0:0:0:0:
248,216,53001,1,8,0:0:0:0:
132,180,53084,1,0,0:0:0:0:
248,208,53167,1,0,0:0:0:0:
248,208,53251,1,8,0:0:0:0:
248,216,53334,1,8,0:0:0:0:
132,180,53417,1,8,0:0:0:0:
248,216,53501,1,8,0:0:0:0:
248,216,53584,1,8,0:0:0:0:
284,188,53667,1,8,0:0:0:0:
132,180,53751,1,4,0:0:0:0:
248,164,53973,1,0,0:0:0:0:
260,156,54140,1,0,0:0:0:0:
248,164,54195,1,0,0:0:0:0:
260,156,54362,1,0,0:0:0:0:
248,164,54417,1,0,0:0:0:0:
260,156,54584,1,8,0:0:0:0:
248,164,54640,1,8,0:0:0:0:
248,164,54862,1,8,0:0:0:0:
260,156,54917,1,8,0:0:0:0:
260,156,54973,1,8,0:0:0:0:
260,156,55029,1,8,0:0:0:0:
256,188,55084,1,4,0:0:0:0:
248,164,55306,1,0,0:0:0:0:
264,164,55473,1,0,0:0:0:0:
248,164,55529,1,0,0:0:0:0:
264,164,55695,1,0,0:0:0:0:
248,164,55751,1,0,0:0:0:0:
264,164,55917,1,8,0:0:0:0:
248,164,55973,1,8,0:0:0:0:
248,164,56195,1,8,0:0:0:0:
264,164,56251,1,8,0:0:0:0:
264,164,56306,1,8,0:0:0:0:
264,164,56362,1,8,0:0:0:0:
256,188,56417,1,12,0:0:0:0:
264,164,56584,1,0,0:0:0:0:
276,168,56667,1,0,0:0:0:0:
256,188,56751,1,12,0:0:0:0:
276,168,56917,1,0,0:0:0:0:
276,168,57001,1,0,0:0:0:0:
256,188,57084,1,12,0:0:0:0:
276,168,57251,1,0,0:0:0:0:
276,168,57334,1,0,0:0:0:0:
256,188,57417,1,12,0:0:0:0:
276,168,57584,1,0,0:0:0:0:
276,168,57667,1,0,0:0:0:0:
256,188,57751,1,12,0:0:0:0:
256,192,57917,12,0,58584,0:0:0:0:
152,216,58751,5,8,0:0:0:0:
152,216,58806,1,8,0:0:0:0:
256,176,58862,1,8,0:0:0:0:
256,176,58917,1,8,0:0:0:0:
224,176,58973,1,8,0:0:0:0:
224,176,59029,1,8,0:0:0:0:
256,188,59084,5,4,0:0:0:0:
