osu file format v14

[General]
AudioFilename: Dream on.mp3
AudioLeadIn: 0
PreviewTime: 45031
Countdown: 0
SampleSet: Soft
StackLeniency: 0.5
Mode: 0
LetterboxInBreaks: 0
WidescreenStoryboard: 1

[Editor]
DistanceSpacing: 1
BeatDivisor: 4
GridSize: 8
TimelineZoom: 1

[Metadata]
Title:Dream on (TV Size)
TitleUnicode:Dream on (TV Size)
Artist:Mamoru Miyano
ArtistUnicode:宮野真守
Creator:Yahuri
Version:Hard
Source:うらみちお兄さん
Tags:life lessons with uramichi-oniisan uramichi sty japanese jpop pop anime ending ed 蛇賀池照 iketeru daga いけてるお兄さん 歌のお兄さん uta no oniisan onii san onii-san
BeatmapID:3104098
BeatmapSetID:1514373

[Difficulty]
HPDrainRate:4
CircleSize:3.5
OverallDifficulty:5
ApproachRate:6.5
SliderMultiplier:1.7
SliderTickRate:1

[Events]
//Background and Video events
0,0,"uta.jpg",0,0
Video,180,"video.mp4"
//Break Periods
//Storyboard Layer 0 (Background)
//Storyboard Layer 1 (Fail)
//Storyboard Layer 2 (Pass)
//Storyboard Layer 3 (Foreground)
//Storyboard Layer 4 (Overlay)
//Storyboard Sound Samples

[TimingPoints]
1767,560.747663551402,4,2,1,40,1,0
1767,-111.111111111111,4,2,1,40,0,0
10738,-100,4,2,1,50,0,0
28682,-83.3333333333333,4,2,1,60,0,0
32467,-83.3333333333333,4,2,1,5,0,0
32608,-83.3333333333333,4,2,1,60,0,0
46626,-71.4285714285714,4,2,1,70,0,1
55038,-58.8235294117647,4,2,1,70,0,1
55458,-71.4285714285714,4,2,1,5,0,0
55598,-71.4285714285714,4,2,1,70,0,1
64570,-142.857142857143,4,2,1,70,0,0
65131,-58.8235294117647,4,2,1,70,0,1
65552,-71.4285714285714,4,2,1,5,0,1
65692,-71.4285714285714,4,2,1,70,0,1
72981,-58.8235294117647,4,2,1,70,0,1
73542,-142.857142857143,4,2,1,70,0,0
74103,-58.8235294117647,4,2,1,70,0,1
74524,-71.4285714285714,4,2,1,5,0,1
74664,-71.4285714285714,4,2,1,70,0,1
82514,-100,4,2,1,70,0,0

[Colours]
Combo1 : 21,181,234
Combo2 : 74,74,181
Combo3 : 157,133,228
Combo4 : 128,41,214

[HitObjects]
378,105,1767,6,0,P|310:138|256:191,1,152.999995330811
392,255,2888,2,0,P|329:213|256:192,1,152.999995330811
119,259,4009,1,2,0:0:0:0:
245,345,4570,1,2,0:0:0:0:
256,192,5131,1,2,0:0:0:0:
130,106,5692,1,2,0:0:0:0:
269,41,6252,6,0,P|274:117|256:191,1,152.999995330811
133,105,7374,2,0,P|201:138|256:191,1,152.999995330811
256,345,8495,1,2,0:0:0:0:
22,107,10738,6,0,P|62:118|104:113,1,85,6|0,0:0|0:0,0:0:0:0:
181,68,11299,1,8,0:0:0:0:
251,134,11580,1,0,0:0:0:0:
251,134,11720,1,0,0:0:0:0:
251,134,11860,2,0,L|335:126,1,85
419,160,12421,1,8,0:0:0:0:
419,160,12561,2,0,P|430:200|425:242,1,85
408,281,12981,6,0,L|323:288,1,85
251,334,13542,1,8,0:0:0:0:
172,302,13823,1,0,0:0:0:0:
172,302,13963,1,0,0:0:0:0:
172,302,14103,2,0,L|87:309,1,85
11,269,14664,1,8,0:0:0:0:
11,269,14804,2,0,P|0:228|5:186,1,85
30,152,15224,6,0,P|71:156|112:145,1,85
167,80,15785,1,8,0:0:0:0:
252,88,16066,1,0,0:0:0:0:
294,162,16346,2,0,L|301:247,1,85
386,273,16907,1,8,0:0:0:0:
386,273,17047,2,0,L|379:188,1,85
406,155,17467,6,0,P|447:159|488:148,1,85
481,64,18028,2,0,P|438:60|398:72,1,85,8|0,0:0|0:0,0:0:0:0:
328,121,18589,1,0,0:0:0:0:
248,90,18869,1,8,0:0:0:0:
177,138,19150,2,0,L|184:223,1,85,8|2,0:0|0:3,0:0:0:0:
161,304,19710,6,0,P|91:275|-9:295,2,170,6|8|0,0:0|0:0|0:0,0:0:0:0:
328,272,21393,1,8,0:0:0:0:
408,297,21673,1,0,0:0:0:0:
484,258,21953,2,0,P|500:185|463:88,2,170,0|8|0,0:0|0:0|0:0,0:0:0:0:
327,190,23636,1,8,0:0:0:0:
334,105,23916,1,2,0:3:0:0:
274,44,24196,6,0,L|189:51,1,85
113,89,24757,2,0,P|117:132|105:172,1,85,8|0,0:0|0:0,0:0:0:0:
41,227,25318,2,0,L|211:211,1,170,0|8,0:0|0:0,0:0:0:0:
290,239,26159,1,0,0:0:0:0:
365,200,26439,6,0,P|369:158|358:117,1,85
306,50,27000,2,0,L|221:57,1,85,8|0,0:0|0:0,0:0:0:0:
138,74,27561,2,8,L|95:70,3,42.5,8|8|8|8,0:1|0:1|0:1|0:1,0:1:0:0:
64,99,28122,1,8,0:1:0:0:
65,120,28262,1,8,0:1:0:0:
67,141,28402,1,8,0:1:0:0:
69,162,28542,1,8,0:1:0:0:
71,183,28682,6,0,B|172:191|172:191|244:264|244:264|346:273|346:273|394:277|417:212,1,407.999987548829,2|0,3:3|0:3,0:3:0:0:
324,30,30365,1,0,3:0:0:0:
303,44,30505,1,0,3:0:0:0:
286,64,30645,2,0,B|245:168|331:161|323:206|339:249|253:256|311:352,1,305.999990661621,2|0,3:0|0:0,0:0:0:0:
467,221,32047,2,0,P|413:169|339:176,1,152.999995330811
304,213,32608,2,8,L|299:263,3,50.9999984436036,8|8|8|8,0:1|0:1|0:1|0:1,0:1:0:0:
263,299,33168,6,0,B|258:350|258:350|233:378|192:375|172:343|172:343|186:190|186:190|164:137|105:137|105:137,1,407.999987548829,2|0,3:0|0:0,0:0:0:0:
42,217,34570,1,0,0:0:0:0:
75,120,34851,1,0,0:0:0:0:
47,21,35131,2,0,B|98:9|140:41|140:41|185:76|240:63|240:63|300:44|284:-14|284:-14|225:1|240:63|240:63|257:117|305:136,1,509.999984436036,2|0,3:0|0:0,0:0:0:0:
404,110,36813,1,0,0:0:0:0:
480,177,37094,2,8,L|483:227,3,50.9999984436036,8|8|8|8,0:1|0:1|0:1|0:1,0:1:0:0:
512,270,37654,5,2,3:0:0:0:
469,363,37935,1,0,0:0:0:0:
367,371,38215,1,8,0:0:0:0:
308,288,38495,1,0,0:0:0:0:
352,195,38776,2,0,B|250:230|257:146|156:177,1,203.999993774414,0|8,0:0|3:0,0:0:0:0:
134,190,39477,1,0,3:0:0:0:
116,209,39617,6,0,P|91:328|198:269,1,305.999990661621,2|8,3:0|0:0,0:0:0:0:
169,67,41019,2,0,P|219:61|270:77,1,101.999996887207
340,148,41580,1,8,0:1:0:0:
331,250,41860,1,2,0:3:0:0:
403,321,42140,6,0,B|462:308|467:250|467:250|476:150,2,203.999993774414,2|8|0,3:0|0:0|0:0,0:0:0:0:
307,349,43542,1,0,0:0:0:0:
233,277,43823,1,8,0:0:0:0:
137,305,44103,2,0,L|35:296,1,101.999996887207
35,296,45505,6,8,L|85:299,3,50.9999984436036,8|8|8|8,0:1|0:1|0:1|0:1,0:1:0:0:
128,271,46066,1,8,0:1:0:0:
124,235,46206,1,8,0:1:0:0:
121,199,46346,1,8,0:1:0:0:
118,164,46486,1,8,0:1:0:0:
115,128,46626,6,0,P|169:105|228:110,1,118.999996368408,2|0,3:2|0:0,0:0:0:0:
278,153,47047,1,0,0:0:0:0:
278,153,47187,2,0,B|337:142|337:142|371:136|383:110,1,118.999996368408,8|0,3:0|0:0,0:0:0:0:
478,38,47748,2,0,P|500:92|495:151,1,118.999996368408,2|0,3:2|0:0,0:0:0:0:
465,204,48168,1,0,0:0:0:0:
465,204,48309,1,8,3:0:0:0:
500,317,48589,1,0,0:0:0:0:
396,258,48869,6,0,B|337:247|337:247|281:268,1,118.999996368408,2|0,3:2|0:0,0:0:0:0:
255,323,49290,1,0,0:0:0:0:
255,323,49430,1,8,3:0:0:0:
157,254,49710,2,0,P|166:208|190:248,1,118.999996368408,0|0,0:0|3:0,0:0:0:0:
146,359,50271,1,0,0:0:0:0:
63,274,50552,2,0,P|57:215|80:160,1,118.999996368408,8|0,3:0|0:0,0:0:0:0:
45,47,51112,6,0,B|69:65|93:80|93:80|122:74|151:65,1,118.999996368408,2|0,3:2|0:0,0:0:0:0:
204,37,51533,1,0,0:0:0:0:
204,37,51673,1,8,3:0:0:0:
272,134,51953,1,0,0:0:0:0:
369,65,52234,2,0,P|427:59|482:81,1,118.999996368408,2|0,3:2|0:0,0:0:0:0:
512,139,52654,1,0,0:0:0:0:
512,139,52795,1,8,3:0:0:0:
393,272,53215,5,0,0:0:0:0:
393,272,53355,2,0,P|352:248|398:239,1,118.999996368408,2|0,3:2|0:0,0:0:0:0:
445,201,53776,1,0,0:0:0:0:
445,201,53916,2,0,P|450:142|428:87,1,118.999996368408,8|0,3:0|0:0,0:0:0:0:
390,48,54337,1,0,0:0:0:0:
390,48,54477,2,0,P|335:70|276:64,1,118.999996368408,0|8,3:2|0:0,0:0:0:0:
234,31,54897,1,0,0:0:0:0:
234,31,55038,2,0,B|122:3|138:94|27:67,1,216.750004134178,12|0,0:3|0:0,0:0:0:0:
0,119,55598,6,0,B|19:153|19:153|6:231,1,118.999996368408,2|0,3:2|0:0,0:0:0:0:
18,295,56019,1,0,0:0:0:0:
18,295,56159,1,8,3:0:0:0:
107,372,56439,1,0,0:0:0:0:
144,258,56720,2,0,B|124:223|124:223|137:146,1,118.999996368408,2|0,3:2|0:0,0:0:0:0:
176,108,57140,1,0,0:0:0:0:
176,108,57281,1,8,3:0:0:0:
249,14,57561,1,0,0:0:0:0:
293,125,57841,6,0,B|288:154|270:178|270:178|279:207|273:237,1,118.999996368408,2|0,3:2|0:0,0:0:0:0:
315,287,58262,1,0,0:0:0:0:
315,287,58402,2,0,P|407:310|499:208,1,237.999992736817,8|0,3:0|3:0,0:0:0:0:
408,86,59383,1,0,0:0:0:0:
408,86,59524,1,8,3:0:0:0:
408,86,59664,2,0,L|387:203,1,118.999996368408,0|0,0:0|0:2,0:0:0:0:
350,250,60084,6,0,B|329:229|295:235|295:235|236:245,1,118.999996368408,2|0,3:2|0:0,0:0:0:0:
192,285,60505,1,0,0:0:0:0:
192,285,60645,1,8,3:0:0:0:
114,194,60925,1,0,0:0:0:0:
1,233,61206,1,0,3:0:0:0:
76,75,61626,1,0,0:0:0:0:
76,75,61767,1,8,3:0:0:0:
76,75,61907,2,0,L|192:95,1,118.999996368408,0|0,0:0|0:2,0:0:0:0:
251,82,62327,6,0,B|310:91|310:91|344:97|364:77,1,118.999996368408,2|0,3:2|0:0,0:0:0:0:
455,0,62888,1,8,3:0:0:0:
478,116,63168,1,0,0:0:0:0:
415,217,63449,1,0,3:0:0:0:
438,333,63729,1,0,0:0:0:0:
330,295,64009,1,8,3:0:0:0:
330,295,64150,1,0,0:0:0:0:
164,362,64570,6,0,L|76:346,1,89.2499972763062,2|0,0:0|0:0,0:0:0:0:
39,317,65131,6,0,B|13:225|87:238|69:145|69:145|51:179,1,216.750004134178,12|0,3:2|0:0,0:0:0:0:
98,215,65692,2,0,P|156:220|211:198,1,118.999996368408,2|0,3:2|0:0,0:0:0:0:
244,149,66112,1,0,0:0:0:0:
244,149,66252,2,0,B|222:92|222:92|233:34,1,118.999996368408,8|0,3:2|0:0,0:0:0:0:
352,26,66813,6,0,P|370:83|360:141,1,118.999996368408,2|0,3:2|0:0,0:0:0:0:
340,199,67234,1,0,0:0:0:0:
340,199,67374,2,0,L|456:219,1,118.999996368408,8|0,3:0|0:2,0:0:0:0:
498,331,67935,1,0,3:0:0:0:
381,310,68215,1,0,0:0:0:0:
270,353,68495,1,8,3:0:0:0:
153,332,68776,1,0,0:0:0:0:
44,380,69056,6,0,B|26:356|11:332|11:332|17:303|26:274,1,118.999996368408,2|0,3:2|0:0,0:0:0:0:
74,237,69477,1,0,0:0:0:0:
74,237,69617,2,0,P|98:183|97:124,1,118.999996368408,8|0,3:0|0:0,0:0:0:0:
26,28,70178,2,0,B|55:37|84:43|84:43|108:28|132:10,1,118.999996368408,2|0,3:2|0:0,0:0:0:0:
188,42,70598,1,0,0:0:0:0:
188,42,70738,2,0,P|247:43|300:19,1,118.999996368408,8|0,3:0|0:0,0:0:0:0:
414,54,71299,6,0,L|393:171,1,118.999996368408,2|0,3:2|0:2,0:0:0:0:
418,230,71720,1,0,0:0:0:0:
418,230,71860,1,8,3:0:0:0:
305,268,72140,2,0,P|266:243|311:235,1,118.999996368408,0|0,0:0|3:0,0:0:0:0:
383,330,72701,1,8,0:0:0:0:
269,363,72981,2,0,B|195:371|202:329|130:338,1,144.500002756119,12|0,0:3|0:0,0:0:0:0:
12,363,73542,6,0,L|27:275,1,89.2499972763062,2|0,0:0|0:0,0:0:0:0:
21,231,74103,6,0,B|112:257|100:182|193:201|193:201|175:207|162:219,1,216.750004134178,12|0,3:2|0:0,0:0:0:0:
205,261,74664,2,0,P|259:238|318:243,1,118.999996368408,2|0,3:2|0:0,0:0:0:0:
371,279,75084,1,0,0:0:0:0:
371,279,75224,2,0,B|391:299|425:293|425:293|484:283,1,118.999996368408,8|0,3:0|0:0,0:0:0:0:
511,167,75785,6,0,B|476:147|476:147|399:160,1,118.999996368408,2|0,3:2|0:0,0:0:0:0:
346,144,76206,1,0,0:0:0:0:
346,144,76346,1,8,3:0:0:0:
249,75,76626,2,0,P|258:29|282:69,1,118.999996368408,0|0,0:0|3:0,0:0:0:0:
222,171,77187,1,0,0:0:0:0:
142,83,77467,2,0,P|83:77|28:99,1,118.999996368408,8|0,3:0|0:0,0:0:0:0:
100,195,78028,6,0,B|119:229|119:229|106:307,1,118.999996368408,2|0,3:2|0:0,0:0:0:0:
80,363,78449,1,0,0:0:0:0:
80,363,78589,2,0,L|197:342,1,118.999996368408,8|0,3:0|0:2,0:0:0:0:
314,362,79150,2,0,B|295:328|295:328|308:250,1,118.999996368408,2|0,3:2|0:0,0:0:0:0:
301,194,79570,1,0,0:0:0:0:
301,194,79710,1,8,3:0:0:0:
417,221,79991,1,0,0:0:0:0:
474,117,80271,6,0,P|512:91|466:83,1,118.999996368408,2|0,3:2|0:0,0:0:0:0:
421,54,80692,1,0,0:0:0:0:
421,54,80832,2,0,B|392:58|368:76|368:76|339:67|309:73,1,118.999996368408,8|0,3:0|0:0,0:0:0:0:
256,99,81252,1,0,0:0:0:0:
256,99,81393,2,0,B|224:105|195:96|195:96|171:114|142:118,1,118.999996368408,0|0,3:0|0:0,0:0:0:0:
90,103,81813,1,0,0:0:0:0:
90,103,81953,1,8,3:0:0:0:
39,211,82234,1,0,0:0:0:0:
71,289,82514,5,2,0:0:0:0:
