osu file format v14

[General]
AudioFilename: Dream on.mp3
AudioLeadIn: 0
PreviewTime: 45031
Countdown: 0
SampleSet: Soft
StackLeniency: 0.5
Mode: 0
LetterboxInBreaks: 0
WidescreenStoryboard: 1

[Editor]
DistanceSpacing: 1.7
BeatDivisor: 8
GridSize: 8
TimelineZoom: 2.1

[Metadata]
Title:Dream on (TV Size)
TitleUnicode:Dream on (TV Size)
Artist:Mamoru Miyano
ArtistUnicode:宮野真守
Creator:Yahuri
Version:Dreamin'
Source:うらみちお兄さん
Tags:life lessons with uramichi-oniisan uramichi sty japanese jpop pop anime ending ed 蛇賀池照 iketeru daga いけてるお兄さん 歌のお兄さん uta no oniisan onii san onii-san
BeatmapID:3100706
BeatmapSetID:1514373

[Difficulty]
HPDrainRate:5
CircleSize:4.2
OverallDifficulty:7
ApproachRate:8
SliderMultiplier:1.7
SliderTickRate:1

[Events]
//Background and Video events
0,0,"uta.jpg",0,0
Video,180,"video.mp4"
//Break Periods
//Storyboard Layer 0 (Background)
//Storyboard Layer 1 (Fail)
//Storyboard Layer 2 (Pass)
//Storyboard Layer 3 (Foreground)
//Storyboard Layer 4 (Overlay)
//Storyboard Sound Samples

[TimingPoints]
1767,560.747663551402,4,2,1,40,1,0
1767,-142.857142857143,4,2,1,40,0,0
9056,-142.857142857143,4,2,1,5,0,0
9126,-142.857142857143,4,2,1,10,0,0
9196,-142.857142857143,4,2,1,20,0,0
9267,-142.857142857143,4,2,1,30,0,0
9337,-142.857142857143,4,2,1,40,0,0
9407,-142.857142857143,4,2,1,50,0,0
9477,-142.857142857143,4,2,1,60,0,0
9617,-142.857142857143,4,2,1,20,0,0
10178,-142.857142857143,4,2,1,40,0,0
10738,-83.3333333333333,4,2,1,50,0,0
28682,-62.5,4,2,1,60,0,0
30224,-62.5,4,2,1,5,0,0
30365,-62.5,4,2,1,60,0,0
31066,-62.5,4,2,1,5,0,0
31206,-62.5,4,2,1,60,0,0
31907,-62.5,4,2,1,5,0,0
32047,-62.5,4,2,1,60,0,0
32467,-62.5,4,2,1,5,0,0
32608,-62.5,4,2,1,60,0,0
39196,-62.5,4,2,1,5,0,0
39337,-62.5,4,2,1,60,0,0
46626,-58.8235294117647,4,2,1,70,0,1
55038,-45.4545454545455,4,2,1,70,0,1
55458,-58.8235294117647,4,2,1,5,0,0
55598,-58.8235294117647,4,2,1,70,0,1
64570,-200,4,2,1,70,0,0
64991,-200,4,2,1,40,0,0
65131,-45.4545454545455,4,2,1,70,0,1
65552,-58.8235294117647,4,2,1,5,0,1
65692,-58.8235294117647,4,2,1,70,0,1
72981,-45.4545454545455,4,2,1,70,0,1
73542,-200,4,2,1,70,0,0
73963,-200,4,2,1,40,0,0
74103,-45.4545454545455,4,2,1,70,0,1
74524,-58.8235294117647,4,2,1,5,0,1
74664,-58.8235294117647,4,2,1,70,0,1
82514,-58.8235294117647,4,2,1,70,0,0

[Colours]
Combo1 : 21,181,234
Combo2 : 74,74,181
Combo3 : 157,133,228
Combo4 : 128,41,214

[HitObjects]
109,77,645,6,0,L|83:62,2,21.25,2|0|0,0:0|0:0|0:0,0:0:0:0:
213,58,925,2,0,L|207:37,2,21.25,2|0|0,0:0|0:0|0:0,0:0:0:0:
299,118,1206,2,0,L|309:99,2,21.25,2|0|0,0:0|0:0|0:0,0:0:0:0:
317,221,1486,2,0,L|337:215,2,21.25,2|0|0,0:0|0:0|0:0,0:0:0:0:
255,306,1767,6,0,B|195:314|201:279|141:285,1,118.999996368408
256,78,2888,2,0,B|316:69|310:104|370:98,1,118.999996368408
371,98,4009,5,2,0:0:0:0:
240,224,4570,1,2,0:0:0:0:
411,173,5131,1,2,0:0:0:0:
199,47,5692,1,2,0:0:0:0:
324,192,6252,6,0,B|332:242|332:242|328:257|328:257|337:308,1,118.999996368408
188,192,7374,2,0,B|196:141|196:141|206:128|206:128|215:77,1,118.999996368408
337,308,8495,5,2,0:0:0:0:
256,192,8566,12,0,9617,0:0:0:0:
92,157,10178,6,0,L|99:245,1,89.2499972763062
104,275,10738,6,0,P|134:236|183:240,1,101.999996887207,6|0,0:0|0:0,0:0:0:0:
292,349,11299,1,8,0:0:0:0:
422,239,11580,1,0,0:0:0:0:
420,249,11720,1,0,0:0:0:0:
418,259,11860,2,0,P|370:277|320:276,1,101.999996887207
257,232,12281,1,0,0:3:0:0:
259,222,12421,1,8,0:3:0:0:
262,212,12561,2,0,L|280:111,1,101.999996887207
249,41,12981,6,0,P|198:40|150:57,1,101.999996887207
58,180,13542,2,0,P|108:179|156:196,1,101.999996887207,8|0,0:0|0:0,0:0:0:0:
222,236,13963,1,0,0:0:0:0:
217,245,14103,2,0,L|198:345,1,101.999996887207
270,373,14524,1,0,0:0:0:0:
280,371,14664,1,8,0:0:0:0:
290,369,14804,2,0,B|299:317|299:317|341:290,1,101.999996887207
400,242,15224,6,0,P|349:242|301:225,1,101.999996887207
377,91,15785,1,8,0:0:0:0:
430,235,16066,1,0,0:0:0:0:
278,208,16346,2,0,L|177:226,1,101.999996887207
46,305,16907,1,8,0:0:0:0:
54,310,17047,2,0,P|71:262|70:211,1,101.999996887207
37,142,17467,6,0,L|138:124,1,101.999996887207
277,188,18028,1,8,0:0:0:0:
317,40,18309,1,0,0:0:0:0:
453,156,18589,1,0,0:0:0:0:
339,125,18869,1,8,0:0:0:0:
256,209,19150,2,0,B|246:261|246:261|276:301,1,101.999996887207,8|2,0:0|0:3,0:0:0:0:
469,360,19710,6,0,P|457:313|489:276,1,101.999996887207,6|0,0:0|0:0,0:0:0:0:
351,342,20271,2,0,B|246:368|262:281|158:308,1,203.999993774414,8|0,0:0|0:0,0:0:0:0:
19,370,21112,1,0,0:0:0:0:
19,370,21393,1,8,0:0:0:0:
109,247,21673,1,0,0:0:0:0:
75,86,21953,6,0,P|58:133|58:184,1,101.999996887207
158,308,22514,2,0,B|262:334|246:247|350:274,1,203.999993774414,8|0,0:0|0:0,0:0:0:0:
467,373,23355,1,0,0:0:0:0:
412,225,23636,1,8,0:0:0:0:
312,347,23916,1,2,0:3:0:0:
201,248,24196,5,0,0:0:0:0:
351,274,24477,1,0,0:0:0:0:
489,170,24757,1,8,0:0:0:0:
339,196,25038,1,0,0:0:0:0:
391,53,25318,2,0,B|413:185|413:185|419:223|391:251,1,203.999993774414,0|8,0:0|0:0,0:0:0:0:
286,339,26159,1,0,0:0:0:0:
339,196,26439,5,0,0:0:0:0:
437,313,26720,1,0,0:0:0:0:
380,130,27000,2,0,P|331:119|286:139,1,101.999996887207,8|0,0:0|0:0,0:0:0:0:
188,305,27561,5,8,0:1:0:0:
215,291,27701,1,8,0:1:0:0:
245,288,27841,1,8,0:1:0:0:
275,296,27981,1,8,0:1:0:0:
308,320,28122,5,8,0:1:0:0:
347,329,28262,1,8,0:1:0:0:
388,327,28402,1,8,0:1:0:0:
427,315,28542,1,8,0:1:0:0:
461,293,28682,6,0,P|470:260|472:226,1,68,2|0,3:0|0:0,0:0:0:0:
379,145,28963,2,0,P|411:154|445:156,1,68
434,14,29243,2,0,L|423:81,1,68
314,192,29524,2,0,L|302:125,1,68
239,20,29804,2,0,B|195:5|126:25|126:25|186:20|214:40,1,204
154,149,30365,5,0,3:0:0:0:
146,189,30505,1,0,3:0:0:0:
139,228,30645,2,0,B|150:293|150:293|125:329|90:304|90:304|78:238,1,204,2|0,3:0|0:0,0:0:0:0:
154,149,31206,2,0,P|186:158|220:160,1,68
326,127,31486,2,0,P|321:209|390:165,1,204
462,67,32047,2,0,B|407:93|417:148|417:148|435:249,1,204,0|0,0:3|0:0,0:0:0:0:
457,371,32608,5,8,0:1:0:0:
421,352,32748,1,8,0:1:0:0:
381,343,32888,2,0,L|373:299,1,34,8|8,0:1|0:1,0:0:0:0:
340,344,33028,1,8,0:1:0:0:
301,355,33168,6,0,B|182:408|157:268|46:360|46:360|182:408|157:268|287:278,1,544,2|0,3:0|0:0,0:0:0:0:
87,253,34570,6,0,P|78:220|77:187,1,68
192,146,34851,2,0,P|201:178|205:212,1,68
147,83,35131,6,0,B|205:46|214:95|276:59|276:59|404:140|329:222|329:222|231:170|324:50|324:50|395:63|386:14|454:29,1,680,2|0,3:0|0:0,0:0:0:0:
444,170,36813,6,0,P|435:137|434:103,1,68
481,260,37094,2,0,L|473:304,1,34,8|8,0:1|0:1,0:0:0:0:
440,267,37234,1,8,0:1:0:0:
400,274,37374,1,8,0:1:0:0:
360,281,37514,1,8,0:1:0:0:
320,288,37654,6,0,P|286:286|253:277,1,68,2|0,3:0|0:0,0:0:0:0:
243,153,37935,2,0,P|230:185|212:214,1,68
91,184,38215,2,0,P|117:205|138:231,1,68,8|0,0:0|0:0,0:0:0:0:
74,337,38495,2,0,P|102:318|134:306,1,68
253,277,38776,2,0,B|327:307|404:256|404:256|380:255|360:248,1,204
274,158,39337,5,8,3:0:0:0:
281,117,39477,1,0,3:0:0:0:
305,84,39617,2,0,B|221:69|204:5|204:5|166:59|82:44,1,272,2|0,3:0|0:0,0:0:0:0:
170,225,40458,2,0,B|192:184|184:112|184:112|179:172|154:196,1,204,8|0,0:0|0:0,0:0:0:0:
95,303,41019,2,0,P|156:274|223:281,1,136
418,341,41580,6,0,L|410:297,1,34,8|8,0:1|0:1,0:0:0:0:
332,143,41860,2,0,P|330:176|321:209,1,68,2|0,0:3|0:0,0:0:0:0:
222,281,42140,6,0,B|156:255|94:301|94:301|39:343|-7:301|38:247|57:286,2,272,2|8|0,3:0|0:0|0:0,0:0:0:0:
418,133,43542,6,0,L|351:145,1,68
223,194,43823,2,0,L|290:206,1,68,8|0,0:0|0:0,0:0:0:0:
418,255,44103,2,0,B|351:266|351:266|313:273|305:311,1,136
305,310,45505,6,0,L|299:342,1,34,8|8,0:1|0:1,0:0:0:0:
268,290,45645,1,8,0:1:0:0:
228,279,45785,1,8,0:1:0:0:
188,278,45925,1,8,0:1:0:0:
147,286,46066,5,8,0:1:0:0:
160,240,46206,1,8,0:1:0:0:
158,193,46346,1,8,0:1:0:0:
140,149,46486,1,8,0:1:0:0:
109,112,46626,6,0,P|53:82|96:36,1,144.500002756119,2|0,3:2|0:0,0:0:0:0:
216,88,47047,1,0,0:0:0:0:
228,95,47187,2,0,P|299:98|358:59,1,144.500002756119,8|0,3:0|0:0,0:0:0:0:
510,233,47748,6,0,B|479:238|439:223|439:223|406:251|376:256,1,144.500002756119,2|0,3:2|0:0,0:0:0:0:
218,214,48168,1,0,0:0:0:0:
231,209,48309,2,0,P|266:214|297:232,1,72.2500013780594,8|0,3:0|0:0,0:0:0:0:
229,358,48589,2,0,L|241:287,1,72.2500013780594
357,177,48869,6,0,P|411:132|413:62,1,144.500002756119,2|0,3:2|0:0,0:0:0:0:
269,71,49290,1,0,0:0:0:0:
271,84,49430,2,0,P|305:97|341:97,1,72.2500013780594,8|0,3:0|0:0,0:0:0:0:
221,11,49710,6,0,B|232:76|232:76|227:89|227:89|238:152,1,144.500002756119,0|0,0:0|3:0,0:0:0:0:
188,271,50131,1,0,0:0:0:0:
178,281,50271,2,0,P|144:293|108:294,1,72.2500013780594
84,163,50552,2,0,P|111:185|130:216,1,72.2500013780594,8|0,3:0|0:0,0:0:0:0:
30,304,50832,2,0,P|35:268|53:237,1,72.2500013780594
156,357,51112,6,0,B|201:374|201:374|295:357,1,144.500002756119,2|0,3:2|0:0,0:0:0:0:
404,258,51533,1,0,0:0:0:0:
397,271,51673,2,0,L|326:283,1,72.2500013780594,8|0,3:0|0:0,0:0:0:0:
211,220,51953,2,0,P|198:186|198:150,1,72.2500013780594
318,106,52234,6,0,B|243:113|256:61|182:69,1,144.500002756119,2|0,3:2|0:0,0:0:0:0:
65,173,52654,1,0,0:0:0:0:
62,187,52795,2,0,B|135:194|122:142|196:150,1,144.500002756119,8|0,3:2|0:0,0:0:0:0:
294,236,53215,5,0,0:0:0:0:
288,249,53355,2,0,B|271:305|306:352|306:352|325:348|334:334,1,144.500002756119,2|0,3:2|0:0,0:0:0:0:
367,207,53776,1,0,0:0:0:0:
375,218,53916,2,0,B|415:260|473:253|473:253|480:235|472:220,1,144.500002756119,8|0,3:2|0:0,0:0:0:0:
378,128,54337,1,0,0:0:0:0:
391,127,54477,2,0,B|448:112|471:59|471:59|458:44|441:43,1,144.500002756119,0|8,3:2|0:0,0:0:0:0:
305,158,54897,5,0,0:0:0:0:
296,148,55038,2,0,B|215:98|201:177|120:117|120:117|97:100|50:124|95:173|110:139,1,280.500008560181,12|0,3:3|0:0,0:0:0:0:
243,209,55598,6,0,P|265:267|203:275,1,144.500002756119,2|0,3:2|0:0,0:0:0:0:
98,353,56019,1,0,0:0:0:0:
108,363,56159,2,0,L|179:350,1,72.2500013780594,8|0,3:0|0:0,0:0:0:0:
140,226,56439,2,0,L|68:239,1,72.2500013780594
2,126,56720,6,0,B|-11:104|9:82|9:82|105:99,1,144.500002756119,2|0,3:2|0:0,0:0:0:0:
230,72,57140,1,0,0:0:0:0:
223,84,57281,2,0,P|210:117|209:153,1,72.2500013780594,8|0,3:0|0:0,0:0:0:0:
330,169,57561,2,0,P|342:135|343:99,1,72.2500013780594
260,235,57841,6,0,B|331:248|331:248|349:280|390:287,1,144.500002756119,2|0,3:2|0:0,0:0:0:0:
510,204,58262,1,0,0:0:0:0:
512,188,58402,2,0,B|480:157|447:158|447:158|417:169|399:208,1,144.500002756119,8|0,3:0|0:0,0:0:0:0:
233,347,58963,2,0,B|202:378|170:378|170:378|139:367|121:327,1,144.500002756119,0|0,3:0|0:0,0:0:0:0:
65,209,59383,5,0,0:0:0:0:
85,162,59524,1,8,3:0:0:0:
77,112,59664,2,0,P|147:121|209:87,1,144.500002756119
320,20,60084,6,0,B|301:35|291:53|287:82|287:82|300:154,1,144.500002756119,2|0,3:2|0:0,0:0:0:0:
427,252,60505,1,0,0:0:0:0:
440,256,60645,2,0,L|453:184,1,72.2500013780594,8|0,3:0|0:0,0:0:0:0:
367,84,60925,2,0,L|380:156,1,72.2500013780594
284,250,61206,2,0,B|300:154|300:154|292:108,1,144.500002756119,0|0,3:2|0:0,0:0:0:0:
202,14,61626,5,0,0:0:0:0:
155,34,61767,1,8,3:0:0:0:
104,25,61907,2,0,P|41:51|35:119,1,144.500002756119
110,227,62327,6,0,B|97:205|117:183|117:183|213:200,1,144.500002756119,2|0,3:2|0:0,0:0:0:0:
287,289,62748,1,0,0:0:0:0:
295,301,62888,2,0,P|276:331|248:354,1,72.2500013780594,8|0,3:0|0:0,0:0:0:0:
338,234,63168,2,0,P|361:261|374:295,1,72.2500013780594
288,172,63449,2,0,P|321:157|357:156,1,72.2500013780594,0|0,3:0|0:0,0:0:0:0:
212,200,63729,2,0,P|208:163|218:129,1,72.2500013780594
229,275,64009,1,8,3:0:0:0:
215,278,64150,2,0,B|150:289|150:289|137:284|137:284|74:295,1,144.500002756119
21,156,64570,6,0,L|83:166,1,63.75,2|0,0:0|0:0,0:0:0:0:
187,89,65131,6,0,P|111:151|202:115,1,280.500008560181,12|0,3:2|0:0,0:0:0:0:
296,25,65692,6,0,B|370:11|361:64|434:50,1,144.500002756119,2|0,3:2|0:0,0:0:0:0:
512,153,66112,1,0,0:0:0:0:
500,161,66252,2,0,B|457:184|412:176|412:176|440:191|450:212,1,144.500002756119,8|0,3:2|0:0,0:0:0:0:
283,350,66813,6,0,B|241:341|234:304|234:304|222:232,1,144.500002756119,2|0,3:2|0:0,0:0:0:0:
306,132,67234,1,0,0:0:0:0:
320,132,67374,2,0,B|361:140|368:177|368:177|380:249,2,144.500002756119,8|0|0,3:2|0:0|3:0,0:0:0:0:
105,163,68215,6,0,P|68:162|34:151,1,72.2500013780594
131,36,68495,2,0,P|148:68|154:104,1,72.2500013780594,8|0,3:0|0:0,0:0:0:0:
7,77,68776,2,0,P|25:45|52:22,1,72.2500013780594
105,163,69056,6,0,P|178:177|228:127,1,144.500002756119,2|0,3:2|0:0,0:0:0:0:
335,37,69477,1,0,0:0:0:0:
347,45,69617,2,0,B|304:68|259:60|259:60|287:75|297:96,1,144.500002756119,8|0,3:2|0:0,0:0:0:0:
186,299,70178,6,0,B|154:330|121:329|121:329|91:318|73:279,1,144.500002756119,2|0,3:2|0:0,0:0:0:0:
90,151,70598,1,0,0:0:0:0:
98,138,70738,2,0,B|127:107|160:106|160:106|190:116|211:157,1,144.500002756119,8|0,3:2|0:0,0:0:0:0:
328,356,71299,6,0,B|373:373|373:373|467:356,1,144.500002756119,2|0,3:2|0:0,0:0:0:0:
511,232,71720,1,0,0:0:0:0:
504,245,71860,2,0,L|433:257,1,72.2500013780594,8|0,3:0|0:0,0:0:0:0:
323,187,72140,6,0,B|312:252|312:252|317:265|317:265|306:328,1,144.500002756119,0|0,0:0|3:0,0:0:0:0:
184,377,72561,1,0,0:0:0:0:
197,370,72701,2,0,L|209:299,1,72.2500013780594,8|0,0:0|0:0,0:0:0:0:
99,154,72981,6,0,P|53:148|11:169,1,93.5000028533936,12|0,3:0|0:0,0:0:0:0:
39,335,73262,2,0,P|85:340|127:320,1,93.5000028533936
234,217,73542,6,0,L|295:228,1,63.75,2|0,0:0|0:0,0:0:0:0:
390,316,74103,6,0,P|316:251|366:335,1,280.500008560181,12|0,3:2|0:0,0:0:0:0:
471,257,74664,6,0,P|436:196|373:163,1,144.500002756119,2|0,3:2|0:0,0:0:0:0:
251,211,75084,1,0,0:0:0:0:
260,200,75224,2,0,B|276:105|276:105|254:85|232:98,1,144.500002756119,8|0,3:2|0:0,0:0:0:0:
33,217,75785,6,0,B|64:222|104:207|104:207|137:235|167:240,1,144.500002756119,2|0,3:2|0:0,0:0:0:0:
267,324,76206,1,0,0:0:0:0:
277,314,76346,2,0,P|310:301|346:300,1,72.2500013780594,8|0,3:0|0:0,0:0:0:0:
463,356,76626,6,0,B|452:291|452:291|457:278|457:278|446:215,1,144.500002756119,0|0,0:0|3:0,0:0:0:0:
465,80,77047,1,0,0:0:0:0:
455,70,77187,2,0,P|421:58|385:57,1,72.2500013780594
361,188,77467,2,0,P|388:166|407:135,1,72.2500013780594,8|0,3:0|0:0,0:0:0:0:
307,47,77748,2,0,P|312:83|330:114,1,72.2500013780594
445,214,78028,6,0,B|371:200|380:253|307:239,1,144.500002756119,2|0,3:2|0:0,0:0:0:0:
181,275,78449,1,0,0:0:0:0:
191,284,78589,2,0,B|205:295|225:292|225:292|241:236|206:189,1,144.500002756119,8|0,3:2|0:0,0:0:0:0:
18,84,79150,6,0,B|89:97|89:97|107:129|148:136,1,144.500002756119,2|0,3:2|0:0,0:0:0:0:
239,37,79570,1,0,0:0:0:0:
228,46,79710,2,0,L|157:58,1,72.2500013780594,8|0,3:0|0:0,0:0:0:0:
99,206,79991,2,0,L|170:218,1,72.2500013780594
306,299,80271,6,0,P|247:276|239:338,1,144.500002756119,2|0,3:2|0:0,0:0:0:0:
390,316,80692,1,0,0:0:0:0:
395,302,80832,2,0,B|409:228|356:237|370:164,1,144.500002756119,8|0,3:2|0:0,0:0:0:0:
405,16,81252,1,0,0:0:0:0:
399,29,81393,2,0,B|381:69|350:80|350:80|318:80|287:49,1,144.500002756119,0|0,3:0|0:0,0:0:0:0:
149,93,81813,1,0,0:0:0:0:
159,103,81953,2,0,P|177:133|184:168,1,72.2500013780594,8|0,3:0|0:0,0:0:0:0:
271,286,82234,2,0,P|271:250|284:216,1,72.2500013780594
354,99,82514,1,2,0:0:0:0:
