osu file format v14

[General]
AudioFilename: audio.mp3
AudioLeadIn: 0
PreviewTime: 28150
Countdown: 0
SampleSet: Soft
StackLeniency: 0.4
Mode: 2
LetterboxInBreaks: 0
WidescreenStoryboard: 0

[Editor]
Bookmarks: 12789,13655,55337,119953,175193,203030,216010,241107
DistanceSpacing: 1.5
BeatDivisor: 4
GridSize: 4
TimelineZoom: 3.199999

[Metadata]
Title:Canon
TitleUnicode:カノン
Artist:Mamoru Miyano
ArtistUnicode:宮野真守
Creator:F D Flourite
Version:Overdose
Source:うたの☆プリンスさまっ♪ マジLOVE2000%
Tags:Otome Ichinose Tokiya Uta no Prince sama Regraz Ascendance utapri
BeatmapID:1183237
BeatmapSetID:452107

[Difficulty]
HPDrainRate:6
CircleSize:4
OverallDifficulty:9.2
ApproachRate:9.2
SliderMultiplier:1.5
SliderTickRate:2

[Events]
//Background and Video events
0,0,"20160901235741.jpg",0,0
//Break Periods
2,94768,100921
2,187076,192749
2,212461,214960
//Storyboard Layer 0 (Background)
//Storyboard Layer 1 (Fail)
//Storyboard Layer 2 (Pass)
//Storyboard Layer 3 (Foreground)
//Storyboard Sound Samples

[TimingPoints]
2261,288.461538461538,4,2,1,60,1,0
2261,-117.647058823529,4,2,1,60,0,0
9184,-100,4,2,1,60,0,0
10337,-100,4,2,1,70,0,0
11203,-100,4,2,1,60,0,0
11491,-100,4,2,1,60,0,0
13222,-83.3333333333333,4,2,1,60,0,0
13655,-100,4,2,1,80,0,0
15962,-100,4,2,1,80,0,0
17116,-100,4,2,1,82,0,0
18270,-100,4,2,1,80,0,0
27645,-117.647058823529,4,2,1,30,0,0
34568,-111.111111111111,4,2,1,40,0,0
36299,-100,4,2,1,50,0,0
36876,-100,4,2,1,80,0,0
37309,-100,4,2,1,60,0,0
40770,-83.3333333333333,4,2,1,60,0,0
41491,-100,4,2,1,60,0,0
43222,-83.3333333333333,4,2,1,60,0,0
43655,-100,4,2,1,60,0,0
49568,-83.3333333333333,4,2,1,60,0,0
50722,-100,4,2,1,60,0,0
62260,-80,4,2,1,60,0,0
64568,-166.666666666667,4,2,1,60,0,0
66876,-100,4,2,1,80,0,1
69184,-80,4,2,1,80,0,1
69760,-100,4,2,1,80,0,1
74809,-80,4,2,1,80,0,1
76107,-100,4,2,1,80,0,1
80722,-133.333333333333,4,2,1,80,0,1
84184,-100,4,2,1,80,0,1
84760,-80,4,2,1,80,0,1
85337,-100,4,2,1,80,0,1
89664,-80,4,2,1,80,0,1
89953,-100,4,2,1,80,0,1
92260,-125,4,2,1,60,0,0
101491,-166.666666666667,4,2,1,60,0,0
108847,-125,4,2,1,60,0,0
110434,-100,4,2,1,60,0,0
111443,-66.6666666666667,4,2,1,80,0,0
115626,-100,4,2,1,60,0,0
119953,-100,4,2,1,60,0,0
123414,-83.3333333333333,4,2,1,60,0,0
124568,-100,4,2,1,60,0,0
136107,-83.3333333333333,4,2,1,60,0,0
139352,-58.333357638899,4,2,1,60,0,0
139857,-71.4285714285714,4,2,1,60,0,0
140578,-100,4,2,1,60,0,0
141010,-100,4,2,1,80,0,1
154424,-133.333333333333,4,2,1,80,0,1
158607,-66.6666666666667,4,2,1,80,0,1
159184,-100,4,2,1,80,0,1
163222,-66.6666666666667,4,2,1,80,0,1
163799,-100,4,2,1,80,0,1
166107,-100,4,2,1,70,0,0
175193,-80,4,2,1,70,0,0
175482,-100,4,2,1,70,0,0
209953,-83.3333333333333,4,2,1,70,0,0
210962,-71.4285714285714,4,2,1,70,0,0
212260,-166.666666666667,4,2,1,70,0,0
216010,-80,4,2,1,90,0,1
219039,-100,4,2,1,90,0,1
223655,-80,4,2,1,90,0,1
223943,-100,4,2,1,90,0,1
229568,-133.333333333333,4,2,1,90,0,1
233030,-100,4,2,1,90,0,1
236491,-66.6666666666667,4,2,1,90,0,1
238799,-100,4,2,1,90,0,1
241107,-100,4,2,1,80,0,0
249472,-133.333333333333,4,2,1,60,0,0

[Colours]
Combo1 : 63,177,115
Combo2 : 112,215,220
Combo3 : 18,124,255
Combo4 : 145,227,162

[HitObjects]
80,112,2261,6,0,P|57:170|112:196,1,127.50000243187,2|0,0:0|0:0,0:0:0:0:
252,120,2837,2,0,L|189:120,1,63.7500012159348
328,232,3270,6,0,P|412:224|440:112,1,191.250003647804,2|0,0:0|0:0,0:0:0:0:
312,108,3991,2,0,L|240:108,1,63.7500012159348,2|0,0:0|0:0,0:0:0:0:
76,272,4424,6,0,L|92:136,1,127.50000243187
184,108,4857,2,0,L|256:108,1,63.7500012159348
368,192,5145,2,0,L|305:192,1,63.7500012159348,0|2,0:0|0:0,0:0:0:0:
416,136,5578,1,0,0:0:0:0:
328,136,5722,6,0,L|192:136,1,127.50000243187,2|0,0:0|0:0,0:0:0:0:
40,136,6299,2,0,L|176:136,1,127.50000243187,2|0,0:0|0:0,0:0:0:0:
328,136,6876,5,2,0:0:0:0:
167,136,7164,2,0,L|148:216,1,63.7500012159348
328,280,7453,2,0,L|472:224,1,127.50000243187,0|0,0:0|0:0,0:0:0:0:
176,280,8030,6,0,P|112:252|104:192,1,127.50000243187,2|2,0:0|0:0,0:0:0:0:
184,136,8462,1,2,0:0:0:0:
360,304,8607,2,0,L|376:152,1,127.50000243187
456,124,9039,1,0,0:0:0:0:
176,120,9184,6,0,L|96:120,2,75,2|0|2,0:0|0:0|0:0,0:0:0:0:
400,64,9760,2,0,P|448:104|456:200,1,150,2|0,0:0|0:0,0:0:0:0:
384,264,10193,1,0,0:0:0:0:
180,200,10337,5,8,0:3:0:0:
140,200,10409,1,8,0:3:0:0:
100,200,10481,1,8,0:3:0:0:
140,200,10553,1,0,0:3:0:0:
180,200,10625,1,0,0:3:0:0:
408,248,10770,2,0,L|264:291,1,150,8|0,0:3|0:0,0:0:0:0:
56,152,11203,2,0,L|126:177,1,75,2|0,0:3|0:0,0:0:0:0:
332,120,11491,6,0,L|412:120,2,75,2|0|2,0:0|0:0|0:0,0:0:0:0:
80,192,12068,2,0,L|240:192,1,150,2|0,0:0|0:0,0:0:0:0:
304,192,12501,1,0,0:0:0:0:
184,40,12645,5,8,1:3:0:0:
146,41,12717,1,0,0:0:0:0:
115,60,12789,1,0,0:0:0:0:
97,93,12861,1,0,0:0:0:0:
238,166,12934,1,0,1:0:0:0:
274,170,13006,1,0,0:0:0:0:
304,192,13078,1,0,0:0:0:0:
319,226,13150,1,0,0:0:0:0:
96,256,13222,2,0,L|0:264,2,89.9999972534181,8|8|0,1:3|0:3|1:0,0:0:0:0:
332,308,13655,6,0,L|488:308,1,150,4|0,0:0|0:0,0:0:0:0:
328,168,14087,2,0,L|256:116,1,75,8|0,0:0|0:0,0:0:0:0:
392,104,14376,1,8,0:3:0:0:
240,104,14520,1,8,0:3:0:0:
360,156,14664,2,0,L|435:156,1,75,8|0,0:0|0:0,0:0:0:0:
136,200,14953,6,0,L|36:200,1,75,8|0,0:3|0:0,0:0:0:0:
148,116,15241,1,8,0:0:0:0:
40,116,15385,1,0,0:0:0:0:
160,32,15530,1,8,0:3:0:0:
16,32,15674,1,8,0:3:0:0:
136,200,15818,1,8,0:0:0:0:
368,172,15962,6,0,P|399:120|359:146,1,150,4|0,0:0|0:0,0:0:0:0:
212,240,16395,2,0,L|296:240,1,75,8|0,0:0|0:0,0:0:0:0:
432,272,16684,2,0,L|528:272,2,75,8|8|8,0:3|0:3|0:0,0:0:0:0:
136,80,17116,6,0,B|48:104|48:104|16:184,1,150,2|2,0:0|0:0,0:0:0:0:
120,208,17549,1,8,0:0:0:0:
376,80,17693,2,0,B|464:104|464:104|496:184,1,150,2|2,0:0|0:0,0:0:0:0:
392,208,18126,1,8,0:0:0:0:
168,232,18270,6,0,P|88:232|32:304,1,150,4|0,0:0|0:0,0:0:0:0:
176,336,18703,2,0,L|272:336,1,75,8|0,0:0|0:0,0:0:0:0:
124,232,18991,1,8,0:3:0:0:
268,232,19135,1,8,0:3:0:0:
144,224,19280,2,0,L|64:224,1,75,8|0,0:0|0:0,0:0:0:0:
392,272,19568,6,0,L|488:272,1,75,8|0,0:3|0:0,0:0:0:0:
312,160,19857,2,0,L|228:160,1,75,8|0,0:0|0:0,0:0:0:0:
84,72,20145,2,0,L|164:72,1,75,8|8,0:3|0:3,0:0:0:0:
84,72,20434,1,8,0:0:0:0:
400,324,20578,6,0,P|448:284|412:212,1,150,4|0,0:0|0:0,0:0:0:0:
384,200,20938,2,0,L|332:200,1,37.5,0|8,0:0|0:0,0:0:0:0:
188,104,21155,1,0,0:0:0:0:
224,104,21227,1,0,0:0:0:0:
260,104,21299,1,8,0:0:0:0:
104,216,21443,2,0,L|29:216,1,75,0|8,0:0|0:0,0:0:0:0:
288,288,21732,6,0,L|448:288,1,150,4|0,0:0|0:0,0:0:0:0:
462,273,22056,1,0,0:0:0:0:
476,248,22092,1,0,0:0:0:0:
476,219,22128,1,0,0:0:0:0:
458,196,22164,1,8,0:0:0:0:
248,64,22309,6,0,P|172:64|108:108,1,150,4|8,0:0|0:0,0:0:0:0:
91,143,22669,1,8,0:0:0:0:
94,187,22741,1,8,0:0:0:0:
115,226,22813,1,8,0:0:0:0:
328,240,22885,6,0,P|432:232|472:208,1,150,4|0,0:0|0:0,0:0:0:0:
256,68,23318,2,0,L|168:68,1,75,8|0,0:0|0:0,0:0:0:0:
324,140,23607,2,0,L|404:140,1,75,8|8,0:3|0:3,0:0:0:0:
192,200,23895,2,0,L|117:200,1,75,8|0,0:0|0:0,0:0:0:0:
256,320,24184,6,0,L|356:320,1,75,8|8,0:3|0:3,0:0:0:0:
117,200,24472,2,0,L|217:200,1,75,8|0,0:0|0:0,0:0:0:0:
328,116,24760,2,0,L|228:116,1,75,8|8,0:3|0:3,0:0:0:0:
456,40,25049,2,0,L|352:40,1,75,8|0,0:0|0:0,0:0:0:0:
236,192,25337,6,0,L|311:192,1,75,8|8,0:3|0:3,0:0:0:0:
100,220,25626,2,0,P|100:300|152:320,1,112.5,8|0,0:0|0:0,0:0:0:0:
387,298,25914,2,0,L|276:184,1,150,8|8,0:0|0:3,0:0:0:0:
124,40,26347,6,0,L|84:168,1,112.5,8|0,0:0|0:0,0:0:0:0:
336,80,26635,2,0,L|480:88,1,112.5,8|0,0:0|0:0,0:0:0:0:
182,231,26924,2,0,B|107:233|107:233|168:232,1,112.5,8|0,0:0|0:0,0:0:0:0:
352,192,27212,1,8,0:0:0:0:
408,192,27285,1,0,0:0:0:0:
452,204,27357,1,8,0:0:0:0:
476,236,27429,1,8,0:0:0:0:
468,276,27501,1,8,0:0:0:0:
436,300,27573,1,8,0:0:0:0:
284,300,27645,6,0,L|140:300,1,127.50000243187,2|0,0:0|0:0,0:0:0:0:
16,192,28222,2,0,L|143:192,1,127.50000243187,2|0,0:0|0:0,0:0:0:0:
368,120,28799,6,0,L|432:144,2,63.7500012159348,2|2|0,0:0|0:0|0:0,0:0:0:0:
216,100,29232,2,0,L|333:49,1,127.50000243187,2|0,0:0|0:0,0:0:0:0:
180,36,29664,1,2,0:0:0:0:
332,248,29953,6,0,P|388:264|476:176,2,191.250003647804,2|2|2,0:0|0:0|0:0,0:0:0:0:
180,184,30962,6,0,L|60:232,1,127.50000243187,2|0,0:0|0:0,0:0:0:0:
192,312,31395,2,0,L|264:280,1,63.7500012159348,2|0,0:0|0:0,0:0:0:0:
100,136,31684,1,2,0:0:0:0:
324,112,31972,2,0,L|244:96,1,63.7500012159348
472,136,32260,5,2,0:0:0:0:
256,192,32405,12,0,33414,0:0:0:0:
392,96,33991,6,0,L|244:96,1,127.50000243187,0|2,0:0|0:0,0:0:0:0:
348,276,34424,1,0,0:0:0:0:
128,284,34568,5,0,0:0:0:0:
48,220,34712,2,0,L|52:152,1,67.4999979400635,0|2,0:0|0:0,0:0:0:0:
128,72,35001,1,0,0:0:0:0:
272,144,35145,2,0,L|344:152,2,67.4999979400635,0|2|0,0:0|0:0|0:0,0:0:0:0:
416,56,35578,6,0,L|504:56,2,67.4999979400635,0|2|0,0:0|0:0|0:0,0:0:0:0:
272,244,36010,2,0,L|184:244,2,67.4999979400635,0|2|0,0:0|0:0|0:0,0:0:0:0:
432,212,36443,2,0,L|460:292,1,75,0|2,0:0|0:0,0:0:0:0:
368,348,36732,1,2,0:0:0:0:
108,292,36876,6,0,P|44:272|56:176,1,150,4|8,0:0|0:0,0:0:0:0:
104,104,37309,1,0,0:0:0:0:
308,128,37453,2,0,L|340:48,1,75,8|0,0:3|0:0,0:0:0:0:
492,128,37741,2,0,L|416:128,1,75,8|0,0:0|0:0,0:0:0:0:
176,260,38030,6,0,P|92:244|64:180,1,150,8|8,0:3|0:0,0:0:0:0:
164,104,38462,1,0,0:0:0:0:
368,104,38607,2,0,L|452:104,1,75,8|0,0:3|0:0,0:0:0:0:
88,104,38895,2,0,P|40:136|84:152,1,112.5,8|0,0:0|0:0,0:0:0:0:
200,296,39184,5,4,0:0:0:0:
320,228,39328,1,0,0:0:0:0:
192,168,39472,1,8,0:0:0:0:
320,228,39616,2,0,L|400:244,1,75,0|8,0:0|0:3,0:0:0:0:
240,296,39905,2,0,L|152:280,1,75,8|8,0:3|0:0,0:0:0:0:
372,60,40193,6,0,B|420:84|420:84|388:132|324:132,1,150,8|0,0:3|0:0,0:0:0:0:
204,128,40626,1,8,0:0:0:0:
448,224,40770,2,0,B|496:256|496:256|480:304|360:288,1,179.999994506836,4|0,0:3|0:0,0:0:0:0:
168,248,41203,2,0,L|60:248,1,89.9999972534181,8|0,0:0|0:0,0:0:0:0:
336,96,41491,6,0,L|432:104,1,75,4|0,0:0|0:0,0:0:0:0:
264,168,41780,1,10,0:0:0:0:
348,168,41924,1,0,0:0:0:0:
264,168,42068,1,0,0:0:0:0:
416,228,42212,1,8,2:3:0:0:
332,248,42357,1,8,2:0:0:0:
416,260,42501,1,0,2:0:0:0:
188,256,42645,6,0,L|100:256,1,75,2|0,2:0|2:0,0:0:0:0:
264,160,42934,2,0,L|344:160,1,75,8|0,2:0|0:0,0:0:0:0:
184,96,43222,2,0,L|76:96,2,89.9999972534181,8|0|8,0:3|0:0|0:0,0:0:0:0:
448,208,43655,6,0,L|280:252,1,150,4|8,0:0|0:0,0:0:0:0:
444,104,44087,2,0,L|356:128,1,75,8|0,0:0|0:0,0:0:0:0:
148,136,44376,2,0,L|68:112,2,75,8|8|0,0:0|0:0|0:0,0:0:0:0:
444,192,44809,5,10,0:0:0:0:
360,220,44953,1,10,0:0:0:0:
276,248,45097,1,0,0:0:0:0:
64,136,45241,1,10,0:0:0:0:
148,152,45385,1,10,0:0:0:0:
232,172,45530,1,0,0:0:0:0:
436,168,45674,1,10,0:0:0:0:
232,172,45818,1,14,0:0:0:0:
436,248,45962,1,0,0:0:0:0:
480,248,46035,1,0,0:0:0:0:
208,284,46107,6,0,L|104:284,1,75,8|8,0:3|0:3,0:0:0:0:
280,208,46395,2,0,L|260:292,1,75
104,116,46684,1,8,0:0:0:0:
216,116,46828,1,0,0:0:0:0:
56,116,46972,1,8,0:3:0:0:
308,204,47116,6,0,P|380:196|468:188,1,150,8|0,0:3|0:0,0:0:0:0:
344,100,47549,2,0,L|436:92,1,75,8|0,0:0|0:0,0:0:0:0:
172,132,47837,1,8,0:3:0:0:
48,184,47982,1,8,0:3:0:0:
172,172,48126,2,0,L|84:180,1,75,8|0,0:0|0:0,0:0:0:0:
300,308,48414,5,8,0:3:0:0:
424,304,48559,1,8,0:3:0:0:
300,172,48703,2,0,L|375:172,1,75
88,164,48991,2,0,P|40:224|88:284,1,150,8|8,0:0|0:3,0:0:0:0:
104,280,49352,1,8,0:3:0:0:
136,280,49424,1,8,0:3:0:0:
380,108,49568,6,0,L|496:140,2,119.999996337891,8|8|8,0:0|0:3|0:3,0:0:0:0:
204,152,50145,2,0,L|119:196,1,89.9999972534181,8|0,0:3|0:0,0:0:0:0:
368,128,50434,2,0,L|476:128,1,89.9999972534181,4|0,0:0|0:0,0:0:0:0:
172,100,50722,5,8,0:3:0:0:
48,100,50866,1,8,0:3:0:0:
172,208,51010,2,0,L|80:208,1,75
304,208,51299,2,0,L|379:208,1,75,8|0,0:0|0:0,0:0:0:0:
152,208,51587,1,8,0:3:0:0:
408,88,51732,6,0,P|444:80|436:168,1,150,8|0,0:3|0:0,0:0:0:0:
308,176,52164,2,0,L|396:168,1,75,8|0,0:0|0:0,0:0:0:0:
176,160,52453,1,8,0:3:0:0:
52,160,52597,1,8,0:3:0:0:
176,72,52741,2,0,L|88:72,1,75,8|0,0:0|0:0,0:0:0:0:
348,156,53030,5,8,0:3:0:0:
472,160,53174,1,8,0:3:0:0:
348,252,53318,2,0,L|428:252,1,75
216,240,53607,2,0,B|400:240,1,150,8|8,0:0|0:3,0:0:0:0:
404,240,53967,1,8,0:3:0:0:
444,240,54039,1,8,0:3:0:0:
232,148,54184,6,0,L|92:104,2,112.5,8|8|8,0:0|0:3|0:3,0:0:0:0:
28,272,54760,1,8,0:0:0:0:
16,224,54833,1,0,0:0:0:0:
48,184,54905,1,0,0:0:0:0:
96,184,54977,1,0,0:0:0:0:
272,256,55049,1,8,0:3:0:0:
320,272,55121,1,0,0:0:0:0:
336,320,55193,1,0,0:0:0:0:
312,360,55265,1,0,0:0:0:0:
152,352,55337,6,0,P|48:339|-16:339,1,150,4|0,0:0|0:0,0:0:0:0:
60,236,55770,1,0,0:0:0:0:
264,164,55914,2,0,L|168:164,1,75,8|0,0:0|0:0,0:0:0:0:
48,92,56203,2,0,P|76:92|124:96,1,75,8|0,0:3|0:3,0:0:0:0:
352,264,56491,6,0,P|315:271|282:288,1,75,0|8,0:0|0:3,0:0:0:0:
432,296,56780,2,0,L|496:368,1,75,0|8,0:3|0:3,0:0:0:0:
336,160,57068,2,0,P|264:168|200:96,1,150,8|0,0:0|0:0,0:0:0:0:
292,20,57501,1,0,0:0:0:0:
88,72,57645,6,0,P|35:102|108:122,1,150,4|0,0:0|0:0,0:0:0:0:
165,115,58078,1,0,0:0:0:0:
369,87,58222,2,0,L|392:168,1,75,8|0,0:0|0:0,0:0:0:0:
312,232,58510,1,8,0:3:0:0:
424,268,58655,1,8,0:3:0:0:
80,252,58799,6,0,P|32:292|16:324,1,75,0|8,0:0|0:0,0:0:0:0:
184,180,59087,2,0,P|140:140|108:124,1,75,0|8,0:0|0:3,0:0:0:0:
332,272,59376,1,8,0:0:0:0:
380,280,59448,1,0,0:0:0:0:
420,256,59520,1,0,0:0:0:0:
428,208,59592,1,0,0:0:0:0:
240,164,59664,1,8,0:3:0:0:
200,124,59736,1,0,0:0:0:0:
212,76,59809,1,0,0:0:0:0:
256,52,59881,1,0,0:0:0:0:
408,60,59953,6,0,L|488:60,2,75,8|0|8,0:3|0:0|0:0,0:0:0:0:
196,88,60385,2,0,L|104:88,2,75,0|8|8,0:0|0:3|0:3,0:0:0:0:
416,280,60818,5,8,0:0:0:0:
332,244,60962,1,8,0:3:0:0:
248,212,61107,1,0,0:0:0:0:
44,144,61251,1,0,0:0:0:0:
128,120,61395,1,8,0:0:0:0:
212,96,61539,1,0,0:0:0:0:
416,248,61684,2,0,L|448:328,1,75,8|8,0:3|0:3,0:0:0:0:
188,256,61972,2,0,L|161:326,1,75,8|0,0:0|0:0,0:0:0:0:
408,160,62260,5,8,0:3:0:0:
176,132,62405,2,0,L|80:172,1,93.75,8|0,0:3|0:0,0:0:0:0:
188,256,62693,1,8,0:0:0:0:
396,144,62837,2,0,B|464:160|464:160|328:160,1,187.5,8|8,0:3|0:0,0:0:0:0:
80,128,63270,6,0,L|48:232,1,93.75,8|0,0:0|0:0,0:0:0:0:
132,292,63559,1,8,0:0:0:0:
352,224,63703,2,0,L|252:224,1,93.75,8|0,0:0|0:0,0:0:0:0:
472,128,63991,2,0,L|378:128,1,93.75,8|0,0:0|0:0,0:0:0:0:
96,280,64280,1,8,0:0:0:0:
64,308,64352,1,8,0:0:0:0:
284,316,64424,1,8,0:0:0:0:
312,348,64496,1,8,0:0:0:0:
176,244,64568,5,2,0:0:0:0:
48,172,64712,2,0,L|148:172,1,89.9999972534181,0|2,0:0|0:0,0:0:0:0:
276,172,65145,2,0,L|184:172,1,89.9999972534181,0|2,0:0|0:0,0:0:0:0:
68,180,65578,1,0,0:0:0:0:
256,192,65722,12,0,66732,0:0:0:0:
371,128,67020,6,0,L|408:128,1,37.5
176,200,67164,2,0,P|96:192|40:256,1,150,4|8,0:1|0:3,0:0:0:0:
192,296,67597,1,0,0:0:0:0:
48,356,67741,1,8,0:0:0:0:
304,336,67885,6,0,B|360:328|432:368|448:288,1,150,8|0,0:3|0:0,0:0:0:0:
280,208,68318,2,0,L|192:208,1,75,8|0,0:0|0:0,0:0:0:0:
352,80,68607,2,0,P|408:80|448:144,1,112.5,8|0,0:3|0:0,0:0:0:0:
412,204,68895,2,0,P|364:204|324:236,1,75,8|0,0:0|0:0,0:0:0:0:
88,296,69184,6,0,L|188:296,1,93.75,4|0,0:0|0:0,0:0:0:0:
424,296,69472,2,0,L|320:296,1,93.75,8|0,0:0|0:0,0:0:0:0:
88,296,69760,2,0,L|4:296,2,75,8|8|8,0:3|0:3|0:0,0:0:0:0:
424,296,70193,6,0,P|472:248|416:248,1,150,8|0,0:3|0:0,0:0:0:0:
280,180,70626,2,0,L|355:180,1,75,8|0,0:0|0:0,0:0:0:0:
152,200,70914,1,8,0:3:0:0:
56,120,71059,2,0,L|140:120,1,75,8|8,0:3|0:0,0:0:0:0:
344,296,71347,6,0,L|176:272,1,150,4|0,0:0|0:0,0:0:0:0:
344,168,71780,2,0,L|424:168,1,75,8|0,0:0|0:0,0:0:0:0:
216,32,72068,2,0,L|304:32,1,75,8|8,0:3|0:3,0:0:0:0:
440,32,72357,1,8,0:0:0:0:
188,208,72501,6,0,L|16:204,1,150,8|0,0:3|0:0,0:0:0:0:
168,328,72934,2,0,L|244:328,1,75,8|0,0:0|0:0,0:0:0:0:
448,152,73222,2,0,L|311:167,1,112.5,8|0,0:3|0:0,0:0:0:0:
376,64,73510,2,0,L|450:57,1,75,8|0,0:0|0:0,0:0:0:0:
136,96,73799,5,8,0:3:0:0:
256,96,73943,1,0,0:3:0:0:
37,216,74087,1,8,0:0:0:0:
158,218,74232,1,8,0:3:0:0:
383,231,74376,1,4,0:0:0:0:
256,232,74520,1,0,0:0:0:0:
129,234,74664,1,8,0:0:0:0:
344,104,74809,6,0,P|424:120|496:24,1,187.5,4|8,0:0|0:0,0:0:0:0:
400,228,75241,1,8,0:0:0:0:
364,272,75313,1,0,0:0:0:0:
309,286,75385,1,0,0:0:0:0:
257,262,75458,1,0,0:0:0:0:
96,272,75530,5,8,0:3:0:0:
56,232,75602,1,8,0:3:0:0:
56,184,75674,1,8,0:3:0:0:
88,144,75746,1,8,0:3:0:0:
228,96,75818,1,8,0:3:0:0:
284,96,75890,1,8,0:3:0:0:
444,128,75962,1,8,0:3:0:0:
396,128,76035,1,8,0:3:0:0:
141,192,76107,6,0,L|45:192,1,75,4|0,0:0|0:0,0:0:0:0:
268,264,76395,2,0,L|367:262,1,75,8|0,0:0|0:0,0:0:0:0:
184,320,76684,1,8,0:3:0:0:
324,236,76828,1,8,0:3:0:0:
180,160,76972,1,8,0:0:0:0:
392,112,77116,6,0,P|432:152|512:240,1,150,8|0,0:3|0:0,0:0:0:0:
340,272,77549,2,0,L|252:272,1,75,8|0,0:0|0:0,0:0:0:0:
412,168,77837,2,0,L|504:168,1,75,8|0,0:3|0:0,0:0:0:0:
136,312,78126,2,0,L|24:232,1,112.5,8|0,0:0|0:0,0:0:0:0:
300,144,78414,6,0,L|396:160,1,75,4|0,0:0|0:0,0:0:0:0:
448,228,78703,2,0,L|352:248,1,75,8|0,0:0|0:0,0:0:0:0:
216,128,78991,1,8,0:3:0:0:
360,128,79135,1,8,0:3:0:0:
216,128,79280,1,8,0:0:0:0:
424,192,79424,6,0,P|452:128|380:116,1,150,4|0,0:0|0:0,0:0:0:0:
156,116,79857,2,0,L|229:101,1,75,8|0,0:0|0:0,0:0:0:0:
432,232,80145,1,8,0:3:0:0:
288,188,80289,1,8,0:3:0:0:
432,136,80434,1,8,0:0:0:0:
176,256,80722,6,0,P|143:297|174:339,1,112.500004291535,4|0,0:0|0:0,0:0:0:0:
320,200,81155,2,0,L|211:228,1,112.500004291535,8|0,0:3|0:0,0:0:0:0:
64,144,81587,2,0,L|132:144,1,56.2500021457673,8|0,0:3|0:0,0:0:0:0:
412,104,81876,5,8,0:0:0:0:
304,80,82092,1,8,0:3:0:0:
196,56,82309,1,8,0:3:0:0:
404,176,82453,2,0,P|428:192|476:216,1,56.2500021457673,8|0,0:3|0:0,0:0:0:0:
316,264,82741,2,0,P|276:288|260:304,1,56.2500021457673,8|0,0:0|0:0,0:0:0:0:
64,248,83030,6,0,L|184:280,1,112.500004291535,8|0,0:3|0:0,0:0:0:0:
327,197,83462,2,0,P|275:179|232:216,1,112.500004291535,8|0,0:3|0:0,0:0:0:0:
384,248,83895,2,0,L|428:204,1,56.2500021457673,8|0,0:3|0:0,0:0:0:0:
184,88,84184,6,0,P|141:85|48:88,2,112.5,8|8|8,0:0|0:3|0:3,0:0:0:0:
428,184,84760,1,8,0:0:0:0:
380,200,84833,1,0,0:0:0:0:
332,216,84905,1,0,0:0:0:0:
284,232,84977,1,8,0:3:0:0:
132,256,85049,1,8,0:3:0:0:
92,224,85121,1,8,0:3:0:0:
76,176,85193,1,8,0:3:0:0:
92,128,85265,1,8,0:3:0:0:
280,112,85337,5,4,0:0:0:0:
364,144,85482,1,0,0:0:0:0:
448,176,85626,1,8,0:0:0:0:
224,232,85770,1,0,0:0:0:0:
140,256,85914,1,8,0:3:0:0:
56,280,86059,1,8,0:3:0:0:
336,296,86203,5,8,0:0:0:0:
424,264,86347,1,8,0:3:0:0:
336,232,86491,1,0,0:0:0:0:
128,152,86635,1,8,0:3:0:0:
32,104,86780,1,8,0:0:0:0:
128,72,86924,1,0,0:0:0:0:
368,104,87068,1,8,0:3:0:0:
464,104,87212,1,8,0:3:0:0:
368,104,87357,1,8,0:0:0:0:
164,224,87501,1,8,0:0:0:0:
432,300,87645,5,8,0:3:0:0:
348,300,87790,1,8,0:3:0:0:
264,300,87934,1,8,0:0:0:0:
44,164,88078,1,8,0:3:0:0:
128,164,88223,1,8,0:3:0:0:
212,164,88367,1,0,0:3:0:0:
440,88,88510,5,8,0:0:0:0:
348,128,88655,1,8,0:3:0:0:
440,192,88799,1,0,0:0:0:0:
120,84,88943,1,8,0:0:0:0:
216,92,89087,1,8,0:0:0:0:
120,192,89232,1,0,0:0:0:0:
384,272,89376,2,0,L|480:256,1,75,8|0,0:0|0:0,0:0:0:0:
336,88,89664,1,8,0:0:0:0:
288,88,89736,1,8,0:0:0:0:
144,88,89809,1,8,0:0:0:0:
96,88,89881,1,8,0:0:0:0:
424,88,89953,1,12,0:0:0:0:
112,200,91107,5,4,0:1:0:0:
256,192,92260,12,0,94568,0:0:0:0:
244,288,101491,5,8,0:3:0:0:
420,212,101924,2,0,L|308:124,1,134.999995880127,8|8,0:3|0:0,0:0:0:0:
136,240,102645,2,0,L|76:240,2,44.999998626709,0|4|0,0:3|0:3|0:0,0:0:0:0:
300,288,103078,2,0,P|270:288|210:288,1,89.9999972534181,8|0,0:3|0:0,0:0:0:0:
376,288,103510,1,8,0:0:0:0:
148,160,103799,6,0,P|84:160|8:160,2,134.999995880127,8|8|8,0:3|0:3|0:0,0:0:0:0:
400,184,105097,2,0,L|248:216,1,134.999995880127,4|2,0:3|0:0,0:0:0:0:
84,248,105818,2,0,L|20:248,1,44.999998626709,8|0,0:0|0:0,0:0:0:0:
192,312,106107,6,0,L|328:328,1,134.999995880127,8|8,0:3|0:3,0:0:0:0:
84,176,106972,2,0,L|228:192,1,134.999995880127,8|2,0:0|0:0,0:0:0:0:
436,68,107837,2,0,L|328:68,1,89.9999972534181,0|8,0:0|0:0,0:0:0:0:
276,68,108270,1,0,0:0:0:0:
128,68,108414,6,0,L|173:68,1,44.999998626709,8|8,0:3|0:3,0:0:0:0:
344,104,108847,2,0,L|416:104,2,60,8|2|8,0:0|0:0|0:3,0:0:0:0:
216,144,109280,2,0,L|152:144,2,60,2|8|0,0:0|0:3|0:0,0:0:0:0:
352,240,109712,5,2,0:0:0:0:
420,240,109857,1,0,0:0:0:0:
352,240,110001,1,8,0:0:0:0:
208,240,110145,1,2,0:0:0:0:
128,240,110289,1,8,0:3:0:0:
280,336,110434,6,0,P|328:344|440:336,1,150,8|8,0:0|0:3,0:0:0:0:
344,224,110866,1,0,0:0:0:0:
121,160,111010,2,0,L|65:159,1,37.5,8|8,0:0|0:0,0:0:0:0:
46,159,111155,2,0,L|96:159,1,37.5,8|8,0:0|0:3,0:0:0:0:
121,160,111299,1,8,0:3:0:0:
374,225,111443,2,0,B|312:228|312:228|144:220,1,225.000008583069,12|8,0:3|0:3,0:0:0:0:
96,152,113174,1,8,0:3:0:0:
136,152,113246,1,0,0:0:0:0:
324,220,113318,6,0,P|392:244|468:128,1,225.000008583069,10|8,0:0|0:3,0:0:0:0:
188,220,113751,2,0,P|120:244|44:128,1,225.000008583069,8|8,0:3|0:3,0:0:0:0:
345,56,114184,2,0,L|256:125,1,112.500004291535,0|8,0:0|0:3,0:0:0:0:
167,55,114472,2,0,L|255:124,1,112.500004291535,8|8,0:0|0:3,0:0:0:0:
120,272,114760,1,8,0:3:0:0:
396,232,114977,1,8,0:3:0:0:
120,184,115193,1,8,0:3:0:0:
380,104,115626,6,0,L|280:104,1,75,8|0,0:0|0:0,0:0:0:0:
148,108,115914,2,0,L|232:108,1,75,8|8,0:3|0:3,0:0:0:0:
380,296,116203,2,0,L|276:296,1,75,8|8,0:0|0:3,0:0:0:0:
148,244,116491,6,0,L|64:244,3,75,0|8|8|0,0:0|0:3|0:0|0:3,0:0:0:0:
336,176,117068,2,0,L|411:176,1,75,8|8,0:3|0:3,0:0:0:0:
264,96,117357,1,8,0:0:0:0:
25,51,117501,6,0,P|73:131|133:119,1,150,4|8,0:0|0:0,0:0:0:0:
264,84,117934,2,0,L|184:84,1,75,8|8,0:0|0:3,0:0:0:0:
392,208,118222,2,0,L|312:208,2,75,8|8|8,0:0|0:0|0:3,0:0:0:0:
164,208,118655,6,0,L|76:208,1,75,8|10,0:0|0:0,0:0:0:0:
184,332,118943,1,8,0:3:0:0:
416,88,119087,2,0,L|472:168,1,75,8|10,0:0|0:0,0:0:0:0:
420,148,119304,2,0,L|364:148,1,37.5,8|10,0:0|0:0,0:0:0:0:
248,148,119520,1,8,0:0:0:0:
384,224,119664,1,8,0:0:0:0:
156,144,119809,1,10,0:0:0:0:
448,280,119953,6,0,L|372:344,1,75,8|8,0:3|0:3,0:0:0:0:
240,208,120241,2,0,L|260:292,1,75
408,116,120530,1,8,0:0:0:0:
320,116,120674,1,0,0:0:0:0:
456,116,120818,1,8,0:3:0:0:
204,204,120962,6,0,P|132:196|44:188,1,150,8|0,0:3|0:0,0:0:0:0:
168,100,121395,2,0,L|76:92,1,75,8|0,0:0|0:0,0:0:0:0:
340,132,121683,1,8,0:3:0:0:
468,184,121828,1,8,0:3:0:0:
340,172,121972,2,0,L|428:180,1,75,8|0,0:0|0:0,0:0:0:0:
208,308,122260,5,8,0:3:0:0:
88,304,122405,1,8,0:3:0:0:
228,172,122549,2,0,L|153:172,1,75
424,164,122837,2,0,P|472:224|424:284,1,150,8|8,0:0|0:3,0:0:0:0:
408,280,123198,1,8,0:3:0:0:
376,280,123270,1,8,0:3:0:0:
144,128,123414,6,0,L|256:72,2,119.999996337891,8|8|8,0:0|0:3|0:3,0:0:0:0:
320,144,123991,2,0,L|368:232,1,89.9999972534181,8|0,0:3|0:0,0:0:0:0:
144,128,124280,2,0,L|36:128,1,89.9999972534181,4|0,0:0|0:0,0:0:0:0:
360,100,124568,5,8,0:3:0:0:
480,100,124712,1,8,0:3:0:0:
360,208,124856,2,0,L|452:208,1,75
208,208,125145,2,0,L|133:208,1,75,8|0,0:0|0:0,0:0:0:0:
360,208,125433,1,8,0:3:0:0:
104,88,125578,6,0,P|68:80|76:168,1,150,8|0,0:3|0:0,0:0:0:0:
152,176,126010,2,0,L|64:168,1,75,8|0,0:0|0:0,0:0:0:0:
336,160,126299,1,8,0:3:0:0:
460,160,126443,1,8,0:3:0:0:
336,72,126587,2,0,L|424:72,1,75,8|0,0:0|0:0,0:0:0:0:
160,156,126876,5,8,0:3:0:0:
36,160,127020,1,8,0:3:0:0:
160,252,127164,2,0,L|80:252,1,75
388,256,127453,2,0,B|328:234|328:234|244:254,1,150,8|8,0:0|0:3,0:0:0:0:
208,256,127813,1,8,0:3:0:0:
172,256,127885,1,8,0:3:0:0:
416,168,128030,6,0,L|308:108,2,112.5,8|8|8,0:0|0:3|0:3,0:0:0:0:
208,176,128607,1,8,0:0:0:0:
150,172,128679,1,0,0:3:0:0:
147,115,128751,1,8,0:3:0:0:
203,105,128823,1,8,0:3:0:0:
360,120,128895,1,8,0:3:0:0:
404,144,128967,1,8,0:3:0:0:
424,192,129039,1,8,0:3:0:0:
408,240,129111,1,8,0:3:0:0:
252,328,129184,6,0,P|140:312|92:336,1,150,4|0,0:0|0:0,0:0:0:0:
24,364,129616,1,0,0:0:0:0:
228,240,129760,2,0,L|260:172,1,75,8|0,0:0|0:0,0:0:0:0:
100,256,130049,2,0,L|192:256,1,75,8|8,0:3|0:3,0:0:0:0:
40,96,130337,5,0,0:0:0:0:
196,160,130482,2,0,P|252:168|320:100,1,150,8|0,0:0|0:0,0:0:0:0:
240,64,130914,2,0,L|160:56,1,75,8|0,0:0|0:0,0:0:0:0:
317,109,131203,2,0,L|405:93,1,75,8|0,0:3|0:0,0:0:0:0:
152,192,131491,6,0,L|52:192,1,75,8|8,0:3|0:0,0:0:0:0:
165,56,131780,2,0,L|82:55,1,75,0|8,0:0|0:3,0:0:0:0:
349,278,132068,1,8,0:0:0:0:
389,218,132212,1,0,0:0:0:0:
363,151,132356,1,8,0:3:0:0:
293,134,132500,1,8,0:3:0:0:
80,264,132645,6,0,P|36:304|12:328,1,75,0|8,0:0|0:0,0:0:0:0:
140,128,132934,2,0,L|72:192,1,75,0|8,0:0|0:3,0:0:0:0:
292,128,133222,1,8,0:0:0:0:
327,122,133294,1,0,0:0:0:0:
353,147,133366,1,8,0:3:0:0:
349,183,133438,1,8,0:3:0:0:
216,244,133510,1,8,0:3:0:0:
178,242,133582,1,0,0:0:0:0:
352,284,133655,1,8,0:3:0:0:
389,284,133727,1,0,0:0:0:0:
144,240,133799,6,0,L|44:240,2,75,8|0|8,0:3|0:0|0:0,0:0:0:0:
348,208,134232,1,8,0:3:0:0:
264,160,134376,1,8,0:3:0:0:
180,112,134520,1,8,0:3:0:0:
384,296,134664,6,0,L|472:296,2,75,8|8|0,0:0|0:3|0:0,0:0:0:0:
164,232,135097,1,8,0:3:0:0:
248,192,135241,1,8,0:0:0:0:
332,144,135385,1,0,0:0:0:0:
112,88,135530,2,0,L|16:96,1,75,8|8,0:3|0:3,0:0:0:0:
60,212,135818,2,0,L|144:216,1,75,8|0,0:0|0:0,0:0:0:0:
384,168,136107,5,8,0:3:0:0:
468,108,136251,1,8,0:3:0:0:
376,64,136395,1,0,0:0:0:0:
132,224,136539,1,8,0:0:0:0:
376,268,136684,2,0,L|328:180,1,89.9999972534181,8|0,0:0|0:0,0:0:0:0:
192,224,136972,1,8,0:0:0:0:
408,124,137116,6,0,P|460:160|380:236,1,179.999994506836,8|8,0:0|0:0,0:0:0:0:
168,344,137549,2,0,L|240:272,1,89.9999972534181,8|0,0:0|0:0,0:0:0:0:
392,224,137837,2,0,L|312:152,1,89.9999972534181,8|8,0:0|0:3,0:0:0:0:
176,64,138126,1,8,0:0:0:0:
136,88,138198,1,8,0:0:0:0:
368,96,138270,1,8,0:0:0:0:
408,120,138342,1,8,0:0:0:0:
212,44,138414,1,4,0:0:0:0:
448,104,139352,5,8,0:0:0:0:
385,88,139424,1,8,0:0:0:0:
321,87,139496,1,8,0:0:0:0:
361,111,139568,1,8,0:0:0:0:
417,143,139640,1,8,0:0:0:0:
423,148,139712,1,8,0:0:0:0:
360,161,139784,1,8,0:0:0:0:
144,160,139857,6,0,P|72:176|40:280,1,157.499995193482,2|0,0:0|0:0,0:0:0:0:
176,304,140145,2,0,L|288:216,2,104.999996795654,8|0|0,0:3|0:0|0:0,0:0:0:0:
392,40,140578,2,0,P|460:72|460:152,1,150,8|0,0:0|0:0,0:0:0:0:
420,204,140938,1,0,0:0:0:0:
188,120,141010,2,0,P|72:132|12:136,1,150,4|8,0:1|0:3,0:0:0:0:
196,236,141443,2,0,L|269:222,1,75,8|0,0:3|0:0,0:0:0:0:
60,352,141732,6,0,L|208:323,1,150,8|8,0:3|0:3,0:0:0:0:
364,268,142164,2,0,L|276:256,1,75,8|0,0:0|0:0,0:0:0:0:
88,112,142453,2,0,P|160:64|208:80,1,112.5,8|0,0:3|0:0,0:0:0:0:
336,136,142741,2,0,L|240:120,1,75,8|0,0:0|0:0,0:0:0:0:
52,224,143030,5,4,0:0:0:0:
140,240,143174,1,8,0:3:0:0:
348,304,143318,1,8,0:0:0:0:
260,324,143462,1,0,0:0:0:0:
416,212,143607,2,0,L|492:212,2,75,8|8|8,0:3|0:3|0:0,0:0:0:0:
168,104,144039,6,0,P|104:112|52:192,1,150,8|8,0:3|0:3,0:0:0:0:
208,224,144472,2,0,L|288:216,1,75,8|0,0:0|0:0,0:0:0:0:
76,320,144760,2,0,L|150:317,2,75,8|8|8,0:3|0:3|0:0,0:0:0:0:
412,328,145193,6,0,P|460:320|420:256,1,150,4|8,0:0|0:3,0:0:0:0:
308,144,145626,2,0,L|396:144,1,75,8|0,0:0|0:0,0:0:0:0:
232,204,145914,2,0,L|188:272,1,75,8|8,0:3|0:3,0:0:0:0:
336,304,146203,1,8,0:0:0:0:
80,112,146347,6,0,B|16:120|16:120|128:144,1,150,8|8,0:3|0:3,0:0:0:0:
248,164,146780,2,0,L|322:156,1,75,8|0,0:0|0:0,0:0:0:0:
24,296,147068,2,0,P|64:328|128:320,1,112.5,8|0,0:3|0:0,0:0:0:0:
267,256,147357,2,0,L|355:272,1,75,8|0,0:0|0:0,0:0:0:0:
136,96,147645,5,8,0:3:0:0:
256,96,147789,1,0,0:3:0:0:
37,216,147933,1,8,0:0:0:0:
158,218,148078,1,8,0:3:0:0:
383,231,148222,1,4,0:0:0:0:
256,232,148366,1,0,0:0:0:0:
129,234,148510,1,8,0:0:0:0:
383,231,148655,6,0,P|426:219|360:176,1,150,4|8,0:0|0:0,0:0:0:0:
177,184,149087,2,0,L|120:184,1,37.5,8|0,0:0|0:0,0:0:0:0:
139,184,149232,2,0,L|183:184,1,37.5,8|0,0:3|0:0,0:0:0:0:
416,240,149376,5,8,0:3:0:0:
448,216,149448,1,8,0:3:0:0:
456,176,149520,1,8,0:3:0:0:
432,144,149592,1,8,0:3:0:0:
296,76,149664,1,8,0:3:0:0:
244,76,149736,1,8,0:3:0:0:
104,80,149809,1,8,0:3:0:0:
52,80,149881,1,8,0:3:0:0:
304,248,149953,6,0,L|400:240,1,75,4|0,0:0|0:0,0:0:0:0:
160,296,150241,2,0,L|80:288,1,75,8|0,0:0|0:0,0:0:0:0:
236,168,150530,2,0,L|316:152,1,75,8|8,0:3|0:3,0:0:0:0:
384,144,150818,1,8,0:0:0:0:
88,218,150962,6,0,P|36:236|88:240,1,150,8|8,0:3|0:3,0:0:0:0:
236,316,151395,1,8,0:0:0:0:
160,252,151539,1,0,0:0:0:0:
320,272,151684,2,0,L|400:272,1,75,8|8,0:3|0:3,0:0:0:0:
240,224,151972,2,0,L|108:220,1,112.5,8|0,0:0|0:0,0:0:0:0:
396,136,152260,5,4,0:0:0:0:
488,140,152405,1,0,0:0:0:0:
223,172,152549,1,8,0:0:0:0:
132,172,152693,1,0,0:0:0:0:
336,72,152837,2,0,L|424:68,2,75,8|8|8,0:3|0:3|0:0,0:0:0:0:
128,272,153270,6,0,L|296:264,1,150,8|8,0:3|0:3,0:0:0:0:
120,160,153703,2,0,L|16:160,1,75,8|0,0:0|0:0,0:0:0:0:
208,248,153991,2,0,L|296:248,1,75,8|8,0:3|0:3,0:0:0:0:
45,160,154280,1,8,0:0:0:0:
256,280,154568,6,0,P|320:288|436:288,2,168.750006437302,8|8|8,0:3|0:3|0:3,0:0:0:0:
176,260,155578,1,0,0:0:0:0:
384,116,155722,6,0,L|484:116,2,84.3750032186509,8|8|8,0:0|0:3|0:3,0:0:0:0:
248,168,156299,2,0,L|320:160,1,56.2500021457673,8|0,0:0|0:0,0:0:0:0:
168,100,156587,2,0,L|104:108,1,56.2500021457673,8|0,0:0|0:0,0:0:0:0:
344,79,156876,6,0,L|512:152,2,168.750006437302,8|8|8,0:3|0:3|0:3,0:0:0:0:
432,32,157885,1,0,0:0:0:0:
112,232,158030,6,0,L|24:264,2,84.3750032186509,8|8|8,0:0|0:3|0:3,0:0:0:0:
332,132,158607,1,8,0:0:0:0:
392,160,158679,1,0,0:0:0:0:
416,208,158751,1,8,0:3:0:0:
400,260,158823,1,8,0:3:0:0:
160,224,158895,1,8,0:3:0:0:
120,184,158967,1,0,0:0:0:0:
120,128,159039,1,8,0:0:0:0:
160,88,159111,1,8,0:0:0:0:
356,200,159184,6,0,L|448:200,2,75,4|0|8,0:0|0:0|0:0,0:0:0:0:
144,232,159616,2,0,L|56:232,2,75,0|8|8,0:0|0:3|0:3,0:0:0:0:
440,320,160049,5,8,0:0:0:0:
356,264,160193,1,8,0:3:0:0:
272,208,160338,1,0,0:0:0:0:
28,132,160482,1,8,0:3:0:0:
112,108,160626,1,8,0:0:0:0:
196,88,160770,1,0,0:0:0:0:
400,216,160914,1,8,0:3:0:0:
492,216,161059,1,8,0:3:0:0:
400,216,161203,1,8,0:0:0:0:
180,216,161347,1,8,0:0:0:0:
404,336,161491,5,8,0:3:0:0:
320,336,161635,1,8,0:3:0:0:
236,336,161780,1,8,0:0:0:0:
456,192,161924,1,8,0:3:0:0:
372,192,162068,1,8,0:3:0:0:
456,192,162213,1,0,0:0:0:0:
108,336,162357,5,8,0:0:0:0:
192,336,162501,1,8,0:3:0:0:
276,336,162646,1,0,0:0:0:0:
56,192,162790,1,8,0:0:0:0:
140,192,162934,1,8,0:0:0:0:
56,192,163079,1,0,0:0:0:0:
256,112,163222,2,0,L|384:112,1,112.500004291535,8|0,0:0|0:0,0:0:0:0:
152,320,163510,2,0,L|84:320,1,56.2500021457673,8|8,0:0|0:0,0:0:0:0:
360,320,163655,2,0,L|428:320,1,56.2500021457673,8|8,0:0|0:0,0:0:0:0:
256,256,163799,5,8,0:0:0:0:
29,128,164087,2,0,L|104:128,1,75,0|8,0:0|0:3,0:0:0:0:
144,128,164304,1,8,0:3:0:0:
344,216,164376,2,0,L|440:216,1,75,8|0,0:0|0:0,0:0:0:0:
317,120,164664,2,0,L|392:120,1,75
184,216,164953,5,4,0:0:0:0:
144,216,165025,1,0,0:0:0:0:
224,216,165097,1,0,0:0:0:0:
264,216,165169,1,0,0:0:0:0:
184,216,165241,1,8,0:3:0:0:
96,296,165385,1,8,0:3:0:0:
208,320,165530,1,8,0:0:0:0:
72,296,165674,1,8,0:3:0:0:
32,296,165746,1,8,0:3:0:0:
72,296,165818,1,8,0:0:0:0:
340,212,165962,1,8,0:3:0:0:
72,96,166107,6,0,L|168:96,1,75,8|8,0:3|0:3,0:0:0:0:
348,96,166395,1,8,0:0:0:0:
100,200,166684,2,0,L|180:200,1,75,8|8,0:3|0:3,0:0:0:0:
100,200,166972,1,8,0:0:0:0:
304,200,167116,1,8,0:3:0:0:
100,272,167405,6,0,L|9:272,1,75,8|8,0:3|0:3,0:0:0:0:
228,196,167693,1,8,0:0:0:0:
416,88,167982,2,0,L|496:88,1,75,8|8,0:3|0:0,0:0:0:0:
216,144,168270,6,0,P|152:160|88:96,1,150,8|8,0:3|0:3,0:0:0:0:
244,52,168703,2,0,L|304:104,1,75,8|0,0:0|0:0,0:0:0:0:
144,224,168991,2,0,L|72:256,2,75,8|8|8,0:0|0:3|0:0,0:0:0:0:
352,216,169424,6,0,P|416:240|400:328,1,150,8|8,0:3|0:3,0:0:0:0:
264,344,169857,2,0,L|352:352,1,75,8|0,0:0|0:0,0:0:0:0:
80,144,170145,1,8,0:0:0:0:
180,136,170289,2,0,P|224:80|164:68,1,150,2|0,0:3|0:0,0:0:0:0:
376,96,170722,6,0,L|404:24,1,75,8|8,0:3|0:3,0:0:0:0:
260,92,171010,1,8,0:0:0:0:
74,200,171299,2,0,L|149:200,1,75,8|8,0:0|0:3,0:0:0:0:
226,200,171587,1,8,0:0:0:0:
74,200,171731,1,8,0:3:0:0:
308,200,171876,6,0,L|364:200,2,37.5,8|0|8,0:3|0:0|0:3,0:0:0:0:
74,200,172164,2,0,L|156:200,1,75,8|8,0:0|0:0,0:0:0:0:
364,64,172597,2,0,L|468:64,1,75,8|8,0:3|0:0,0:0:0:0:
176,144,172885,6,0,P|112:160|48:96,1,150,8|8,0:3|0:3,0:0:0:0:
204,28,173318,2,0,L|272:84,1,75,8|0,0:0|0:0,0:0:0:0:
104,224,173606,2,0,L|32:256,2,75,8|8|0,0:0|0:0|0:0,0:0:0:0:
312,320,174039,6,0,P|376:352|448:304,1,150,8|2,0:3|0:0,0:0:0:0:
464,280,174400,1,2,0:0:0:0:
452,232,174472,2,0,L|392:232,1,37.5,10|2,0:0|0:0,0:0:0:0:
236,181,174616,2,0,L|164:180,1,37.5,8|2,0:3|0:0,0:0:0:0:
161,180,174760,6,0,L|208:180,1,37.5,8|2,0:3|0:0,0:0:0:0:
352,92,174905,2,0,L|379:128,1,37.5,8|2,0:3|0:0,0:0:0:0:
160,276,175049,2,0,L|108:276,1,37.5,10|2,0:0|0:0,0:0:0:0:
320,184,175193,6,0,P|388:228|312:248,1,187.5,4|0,0:0|0:0,0:0:0:0:
172,296,175626,1,8,0:0:0:0:
392,96,175770,2,0,L|240:112,1,150,2|8,0:0|0:3,0:0:0:0:
85,79,176203,2,0,L|160:72,1,75,8|8,0:0|0:3,0:0:0:0:
416,56,176491,5,2,0:0:0:0:
312,124,176635,1,8,0:3:0:0:
440,204,176780,1,8,0:0:0:0:
336,276,176924,1,2,0:0:0:0:
128,332,177068,2,0,L|206:344,2,75,8|8|8,0:3|0:3|0:0,0:0:0:0:
352,176,177501,6,0,L|202:185,1,150,6|8,0:0|0:3,0:0:0:0:
48,116,177934,2,0,L|122:101,1,75,8|0,0:0|0:0,0:0:0:0:
324,124,178222,2,0,L|428:116,1,75,2|8,0:0|0:3,0:0:0:0:
436,115,178438,2,0,L|384:119,1,37.5,0|8,0:0|0:0,0:0:0:0:
60,304,178655,6,0,P|164:288|196:320,1,150,4|0,0:0|0:0,0:0:0:0:
432,200,179087,2,0,P|368:216|320:216,1,112.5,10|0,0:0|0:0,0:0:0:0:
168,160,179376,2,0,L|80:168,2,75,2|8|8,0:0|0:3|0:0,0:0:0:0:
384,288,179809,6,0,P|440:296|504:224,1,150,6|8,0:0|0:3,0:0:0:0:
416,112,180241,1,8,0:0:0:0:
204,144,180385,2,0,L|268:200,1,75,2|0,0:0|0:0,0:0:0:0:
416,112,180674,2,0,L|352:168,1,75,8|8,0:3|0:0,0:0:0:0:
68,68,180962,6,0,L|203:132,1,150,6|8,0:0|0:3,0:0:0:0:
52,244,181395,2,0,P|36:288|72:344,1,112.5,10|0,0:0|0:0,0:0:0:0:
176,344,181684,2,0,L|272:340,1,75,8|8,0:3|0:3,0:0:0:0:
160,176,181972,1,8,0:0:0:0:
376,72,182116,6,0,P|288:72|248:128,1,150,4|8,0:0|0:3,0:0:0:0:
280,152,182477,1,0,0:0:0:0:
416,224,182549,2,0,L|488:264,1,75,8|8,0:0|0:3,0:0:0:0:
328,284,182837,2,0,L|264:324,1,75,8|8,0:0|0:3,0:0:0:0:
416,224,183126,1,0,0:0:0:0:
180,200,183270,6,0,P|132:156|188:160,1,150,4|0,0:1|0:0,0:0:0:0:
328,96,183703,2,0,L|380:96,1,37.5,10|0,0:0|0:0,0:0:0:0:
403,96,183847,2,0,L|346:96,1,37.5,8|0,0:3|0:0,0:0:0:0:
120,256,183991,6,0,L|60:256,1,37.5,2|0,0:0|0:0,0:0:0:0:
260,264,184135,2,0,L|288:312,1,37.5,8|0,0:3|0:0,0:0:0:0:
96,344,184280,2,0,L|36:344,1,37.5,2|0,0:0|0:0,0:0:0:0:
316,192,184424,2,0,L|372:192,1,37.5
200,156,184568,5,4,0:0:0:0:
256,192,184712,12,0,186876,0:0:0:0:
152,104,193799,5,2,0:0:0:0:
344,104,194087,2,0,L|419:104,1,75
344,104,194376,1,0,0:0:0:0:
240,104,194664,1,0,0:0:0:0:
344,104,194809,1,0,0:0:0:0:
208,216,195097,5,0,0:0:0:0:
104,216,195241,1,0,0:0:0:0:
248,112,195530,2,0,L|232:32,1,75
344,176,195818,2,0,L|368:96,1,75,0|0,0:0|0:0,0:0:0:0:
480,248,196107,6,0,L|320:264,1,150,2|0,0:0|0:0,0:0:0:0:
200,240,196684,1,0,0:0:0:0:
49,161,197260,5,2,0:0:0:0:
153,177,197405,1,0,0:0:0:0:
304,296,197693,1,0,0:0:0:0:
200,292,197837,2,0,L|112:216,2,112.5
348,120,198414,6,0,L|188:140,1,150
368,252,198991,2,0,P|456:252|480:236,2,112.5,2|0|0,0:0|0:0|0:0,0:0:0:0:
200,296,199568,6,0,L|368:336,1,150
280,224,200001,1,0,0:0:0:0:
360,176,200145,2,0,L|512:208,1,150,0|0,0:0|0:0,0:0:0:0:
440,112,200578,1,0,0:0:0:0:
296,44,200722,6,0,L|136:44,1,150,2|0,0:0|0:0,0:0:0:0:
72,44,201155,1,0,0:0:0:0:
220,208,201299,2,0,L|132:200,1,75,0|2,0:0|0:0,0:0:0:0:
24,144,201587,2,0,L|112:136,1,75,0|2,0:0|0:0,0:0:0:0:
220,208,201876,6,0,L|140:240,1,75,0|2,0:0|0:0,0:0:0:0:
24,144,202164,2,0,L|112:168,1,75,0|2,0:0|0:0,0:0:0:0:
220,208,202453,2,0,L|172:288,1,75,0|2,0:0|0:0,0:0:0:0:
24,144,202741,2,0,L|56:224,1,75,0|2,0:0|0:0,0:0:0:0:
348,328,203030,6,0,P|420:312|404:240,1,150,4|0,0:0|0:0,0:0:0:0:
272,228,203462,1,8,0:3:0:0:
480,132,203607,2,0,P|443:141|411:159,1,75,8|0,0:0|0:3,0:0:0:0:
264,96,203895,2,0,P|325:107|357:107,2,75,8|8|0,0:3|0:3|0:0,0:0:0:0:
472,52,204328,5,8,0:0:0:0:
392,208,204473,2,0,L|472:208,1,75,8|0,0:3|0:0,0:0:0:0:
216,160,204761,2,0,P|124:124|140:72,1,150,8|8,0:0|0:3,0:0:0:0:
196,16,205194,1,0,0:0:0:0:
408,68,205337,5,8,0:3:0:0:
196,96,205482,1,8,0:0:0:0:
284,96,205626,2,0,L|376:96,1,75,0|8,0:3|0:3,0:0:0:0:
156,180,205914,2,0,L|76:180,1,75,8|0,0:0|0:0,0:0:0:0:
228,244,206203,1,8,0:3:0:0:
144,284,206347,6,0,L|48:284,1,75,8|0,0:3|0:0,0:0:0:0:
336,248,206635,2,0,P|388:252|428:252,2,75,8|8|8,0:0|0:3|0:3,0:0:0:0:
129,260,207069,1,8,0:0:0:0:
81,268,207141,1,0,0:0:0:0:
41,244,207213,1,8,0:3:0:0:
33,196,207285,1,8,0:3:0:0:
224,208,207357,1,8,0:3:0:0:
272,216,207429,1,0,0:0:0:0:
312,192,207501,1,8,0:0:0:0:
320,144,207573,1,0,0:0:0:0:
120,136,207646,6,0,L|24:136,2,75,8|0|8,0:3|0:0|0:0,0:0:0:0:
336,168,208078,2,0,L|424:168,2,75,8|8|8,0:0|0:3|0:3,0:0:0:0:
80,280,208511,5,8,0:0:0:0:
160,248,208655,1,8,0:3:0:0:
240,216,208800,1,0,0:0:0:0:
444,148,208944,1,8,0:3:0:0:
356,112,209088,1,8,0:0:0:0:
268,88,209232,1,0,0:0:0:0:
64,216,209377,2,0,P|112:248|152:256,1,75,8|8,0:3|0:3,0:0:0:0:
332,200,209664,2,0,L|256:256,1,75,8|8,0:0|0:0,0:0:0:0:
24,128,209953,6,0,L|176:8,1,179.999994506836,8|8,0:3|0:3,0:0:0:0:
392,192,210385,1,8,0:0:0:0:
292,116,210530,2,0,L|404:116,1,89.9999972534181,8|0,0:0|0:0,0:0:0:0:
168,184,210819,1,8,0:0:0:0:
432,128,210963,6,0,P|488:128|424:200,1,209.999993591309,8|8,0:0|0:0,0:0:0:0:
172,232,211395,2,0,L|60:232,1,104.999996795654,8|0,0:0|0:0,0:0:0:0:
312,96,211684,2,0,L|416:96,1,104.999996795654,8|0,0:0|0:0,0:0:0:0:
208,288,211972,1,8,0:0:0:0:
156,288,212045,1,8,0:0:0:0:
368,288,212117,1,8,0:0:0:0:
420,292,212189,1,8,0:0:0:0:
221,140,212261,5,4,0:0:0:0:
200,156,216010,6,0,P|264:196|384:156,1,187.5,4|8,0:1|0:3,0:0:0:0:
288,68,216443,1,8,0:0:0:0:
80,96,216587,2,0,L|196:96,1,93.75,8|0,0:3|0:0,0:0:0:0:
400,112,216876,6,0,B|228:232,1,187.5,12|0,0:0|0:0,0:0:0:0:
136,276,217309,1,8,0:0:0:0:
340,192,217453,2,0,L|516:176,2,140.625,8|8|8,0:3|0:3|0:3,0:0:0:0:
352,304,219039,6,0,P|416:288|408:208,1,150,4|8,0:1|0:3,0:0:0:0:
384,184,219400,1,0,0:0:0:0:
208,184,219472,2,0,L|128:184,1,75,8|8,0:0|0:3,0:0:0:0:
340,208,219760,1,0,0:0:0:0:
476,152,219905,1,8,0:3:0:0:
340,80,220049,1,8,0:0:0:0:
136,296,220193,6,0,L|304:272,1,150,4|8,0:0|0:3,0:0:0:0:
132,168,220626,2,0,L|57:168,1,75,8|0,0:0|0:0,0:0:0:0:
264,40,220914,2,0,L|189:40,1,75,8|8,0:3|0:3,0:0:0:0:
60,40,221203,1,8,0:0:0:0:
288,208,221347,6,0,L|448:168,1,150,8|0,0:3|0:0,0:0:0:0:
280,320,221780,2,0,L|207:306,1,75,8|0,0:0|0:0,0:0:0:0:
64,152,222068,2,0,L|201:167,1,112.5,8|0,0:3|0:0,0:0:0:0:
136,64,222356,2,0,L|62:57,1,75,8|0,0:0|0:0,0:0:0:0:
376,96,222645,5,8,0:3:0:0:
256,96,222789,1,0,0:3:0:0:
475,216,222933,1,8,0:0:0:0:
354,218,223078,1,8,0:3:0:0:
129,231,223222,1,4,0:0:0:0:
256,232,223366,1,0,0:0:0:0:
383,234,223510,1,8,0:0:0:0:
168,104,223655,6,0,P|88:120|16:24,1,187.5,4|0,0:0|0:0,0:0:0:0:
120,224,224087,1,8,0:0:0:0:
164,220,224159,1,0,0:0:0:0:
208,220,224231,1,0,0:0:0:0:
252,220,224304,1,0,0:0:0:0:
416,272,224376,5,8,0:3:0:0:
456,232,224448,1,8,0:3:0:0:
456,184,224520,1,8,0:3:0:0:
424,144,224592,1,8,0:3:0:0:
288,88,224664,1,8,0:3:0:0:
236,88,224736,1,8,0:3:0:0:
96,144,224808,1,8,0:3:0:0:
44,144,224881,1,8,0:3:0:0:
280,192,224953,6,0,L|368:184,1,75,4|0,0:0|0:0,0:0:0:0:
152,304,225241,2,0,L|64:296,1,75,8|0,0:0|0:0,0:0:0:0:
284,32,225530,2,0,L|288:116,1,75,8|8,0:3|0:3,0:0:0:0:
240,160,225746,2,0,L|196:160,1,37.5,0|8,0:0|0:0,0:0:0:0:
408,296,225962,6,0,P|368:276|268:312,1,150,8|0,0:3|0:0,0:0:0:0:
120,336,226395,2,0,P|184:352|208:344,1,75,8|0,0:0|0:0,0:0:0:0:
104,256,226684,1,8,0:3:0:0:
224,272,226828,1,0,0:0:0:0:
104,176,226972,1,8,0:0:0:0:
236,192,227116,1,0,0:0:0:0:
24,88,227260,6,0,P|96:104|128:104,1,75,4|8,0:0|0:3,0:0:0:0:
136,92,227477,1,0,0:0:0:0:
304,88,227549,2,0,L|400:80,1,75,8|8,0:0|0:3,0:0:0:0:
176,232,227837,2,0,L|80:240,1,75,8|8,0:0|0:3,0:0:0:0:
24,216,228054,2,0,L|72:208,1,37.5,0|10,0:0|0:0,0:0:0:0:
408,224,228270,6,0,P|464:248|400:264,1,150,6|8,0:0|0:3,0:0:0:0:
264,256,228703,2,0,L|352:256,1,75,8|0,0:0|0:0,0:0:0:0:
136,72,228991,5,8,0:0:0:0:
96,80,229063,1,8,0:0:0:0:
64,112,229135,1,8,0:0:0:0:
56,160,229208,1,8,0:0:0:0:
200,160,229280,1,8,0:0:0:0:
240,176,229352,1,8,0:0:0:0:
264,216,229424,1,8,0:0:0:0:
264,264,229496,1,8,0:0:0:0:
64,320,229568,6,0,L|200:344,1,112.500004291535,4|0,0:0|0:0,0:0:0:0:
304,196,230001,2,0,L|195:224,1,112.500004291535,8|0,0:3|0:0,0:0:0:0:
56,148,230433,2,0,L|128:132,1,56.2500021457673,8|0,0:3|0:0,0:0:0:0:
328,64,230722,6,0,P|352:108|316:132,1,84.3750032186509,8|8,0:0|0:3,0:3:0:0:
216,176,231155,1,8,0:3:0:0:
463,205,231299,2,0,P|439:191|416:176,1,56.2500021457673,8|8,0:0|0:3,0:0:0:0:
289,294,231587,2,0,P|311:276|336:264,1,56.2500021457673,8|0,0:0|0:0,0:0:0:0:
64,248,231876,6,0,L|184:280,1,112.500004291535,8|0,0:3|0:0,0:0:0:0:
327,197,232308,2,0,P|275:179|224:200,1,112.500004291535,8|0,0:3|0:0,0:0:0:0:
384,248,232741,2,0,L|456:248,1,56.2500021457673,8|8,0:3|0:3,0:0:0:0:
224,76,233030,6,0,L|88:76,2,112.5,8|8|8,0:0|0:3|0:3,0:0:0:0:
440,184,233606,5,8,0:0:0:0:
392,200,233679,1,0,0:0:0:0:
344,216,233751,1,8,0:3:0:0:
296,232,233823,1,8,0:3:0:0:
104,128,233895,1,8,0:3:0:0:
88,176,233967,1,0,0:0:0:0:
104,224,234039,1,8,0:0:0:0:
144,256,234111,1,8,0:0:0:0:
336,128,234184,6,0,L|424:144,1,75,4|0,0:0|0:0,0:0:0:0:
488,156,234472,1,8,0:0:0:0:
192,216,234616,2,0,L|104:240,1,75,0|8,0:0|0:3,0:0:0:0:
40,256,234905,1,8,0:3:0:0:
352,312,235049,5,8,0:0:0:0:
440,268,235193,1,8,0:3:0:0:
352,208,235337,1,0,0:0:0:0:
136,96,235482,1,8,0:3:0:0:
48,128,235626,1,8,0:0:0:0:
136,160,235770,1,0,0:0:0:0:
368,264,235914,1,8,0:3:0:0:
456,264,236058,1,8,0:3:0:0:
368,264,236202,1,8,0:0:0:0:
152,272,236347,1,8,0:0:0:0:
392,292,236491,6,0,L|276:240,1,112.500004291535,8|8,0:0|0:3,0:0:0:0:
392,140,236780,1,8,0:3:0:0:
120,292,236924,2,0,L|240:236,1,112.500004291535,8|8,0:0|0:3,0:0:0:0:
119,121,237213,1,8,0:3:0:0:
488,168,237357,5,8,0:0:0:0:
372,204,237501,1,8,0:0:0:0:
256,240,237645,1,8,0:3:0:0:
44,280,237789,1,8,0:0:0:0:
256,304,237934,1,8,0:0:0:0:
468,328,238078,1,8,0:3:0:0:
224,72,238222,2,0,L|116:104,1,112.500004291535,8|8,0:0|0:3,0:0:0:0:
384,208,238510,1,8,0:0:0:0:
432,208,238583,1,8,0:0:0:0:
112,208,238655,1,8,0:0:0:0:
64,208,238727,1,8,0:0:0:0:
256,200,238799,5,4,0:0:0:0:
168,128,239953,1,4,0:1:0:0:
432,248,241107,6,0,P|304:232|272:264,1,150,4|8,0:0|0:0,0:0:0:0:
216,296,241539,1,0,0:0:0:0:
368,128,241684,2,0,L|456:136,2,75,8|8|8,0:3|0:3|0:0,0:0:0:0:
144,192,242116,6,0,P|96:192|48:96,1,150,8|8,0:3|0:3,0:0:0:0:
192,40,242549,2,0,L|144:100,1,75,8|0,0:0|0:0,0:0:0:0:
292,96,242837,2,0,L|360:140,1,75,8|8,0:3|0:3,0:0:0:0:
428,180,243126,1,8,0:0:0:0:
208,272,243270,6,0,P|120:264|64:320,1,150,8|8,0:3|0:3,0:0:0:0:
236,132,243703,2,0,L|324:140,1,75,8|0,0:0|0:0,0:0:0:0:
156,168,243991,2,0,L|68:152,1,75,8|8,0:3|0:3,0:0:0:0:
52,144,244208,1,8,0:3:0:0:
20,136,244280,1,8,0:0:0:0:
296,88,244424,6,0,P|368:104|384:176,1,150,8|8,0:3|0:3,0:0:0:0:
310,322,244857,1,8,0:0:0:0:
222,258,245001,1,8,0:3:0:0:
206,146,245145,1,0,0:0:0:0:
262,50,245289,1,8,0:3:0:0:
374,34,245434,1,8,0:0:0:0:
150,58,245578,6,0,B|70:74|70:74|30:154,1,150,4|8,0:0|0:3,0:0:0:0:
176,208,246010,2,0,L|80:224,1,75,8|0,0:0|0:0,0:0:0:0:
256,288,246299,2,0,L|352:272,2,75,8|8|8,0:3|0:3|0:0,0:0:0:0:
464,176,246732,6,0,L|304:200,1,150,8|8,0:3|0:3,0:0:0:0:
164,132,247164,2,0,P|148:88|136:56,1,75,8|0,0:0|0:0,0:0:0:0:
288,224,247453,2,0,P|264:268|248:296,1,75,8|8,0:3|0:3,0:0:0:0:
48,232,247741,2,0,L|192:216,1,112.5,8|0,0:0|0:0,0:0:0:0:
296,208,248030,5,4,0:0:0:0:
432,264,248174,2,0,L|496:264,2,37.5,8|0|8,0:3|0:0|0:0,0:0:0:0:
216,336,248462,2,0,L|152:336,2,37.5,8|8|8,0:0|0:0|0:0,0:0:0:0:
336,168,248751,1,8,0:0:0:0:
120,200,248895,1,8,0:3:0:0:
384,272,249039,6,0,P|440:256|540:224,1,150,4|0,0:0|0:0,0:0:0:0:
424,80,249472,1,0,0:0:0:0:
328,152,249760,2,0,L|264:168,1,56.2500021457673,2|0,0:0|0:0,0:0:0:0:
104,228,250193,6,0,P|168:236|264:284,1,168.750006437302
92,336,250914,2,0,L|12:344,1,56.2500021457673,0|2,0:0|0:0,0:0:0:0:
224,96,251347,6,0,P|328:96|384:64,1,168.750006437302
212,208,252068,2,0,L|156:200,2,56.2500021457673,0|0|2,0:0|0:0|0:0,0:0:0:0:
388,240,252501,6,0,P|342:271|288:265,1,112.500004291535
400,136,252933,2,0,L|328:128,1,56.2500021457673,2|0,0:0|0:0,0:0:0:0:
128,312,253222,2,0,L|208:304,1,56.2500021457673,0|2,0:0|0:0,0:0:0:0:
452,332,253655,1,2,0:0:0:0:
256,192,253799,12,0,256684,0:0:0:0:
