osu file format v14

[General]
AudioFilename: audio.mp3
AudioLeadIn: 0
PreviewTime: 28150
Countdown: 0
SampleSet: Soft
StackLeniency: 0.4
Mode: 0
LetterboxInBreaks: 0
WidescreenStoryboard: 0

[Editor]
Bookmarks: 13655,55337,119953,184568,193799,230001
DistanceSpacing: 1.4
BeatDivisor: 4
GridSize: 4
TimelineZoom: 2.699999

[Metadata]
Title:Canon
TitleUnicode:カノン
Artist:Mamoru Miyano
ArtistUnicode:宮野真守
Creator:F D Flourite
Version:Light Insane
Source:うたの☆プリンスさまっ♪ マジLOVE2000%
Tags:Otome Ichinose Tokiya Uta no Prince sama Regraz Ascendance utapri
BeatmapID:1085669
BeatmapSetID:452107

[Difficulty]
HPDrainRate:5
CircleSize:4
OverallDifficulty:7
ApproachRate:8.7
SliderMultiplier:1.35
SliderTickRate:1

[Events]
//Background and Video events
0,0,"20160901235741.jpg",0,0
//Break Periods
2,94768,101279
2,168470,174548
2,187076,193154
2,212460,215365
//Storyboard Layer 0 (Background)
//Storyboard Layer 1 (Fail)
//Storyboard Layer 2 (Pass)
//Storyboard Layer 3 (Foreground)
//Storyboard Sound Samples

[TimingPoints]
2261,288.461538461538,4,2,1,60,1,0
2261,-133.333333333333,4,2,1,60,0,0
9184,-133.333333333333,4,2,1,65,0,0
10337,-100,4,2,1,70,0,0
11203,-90.9090909090909,4,2,1,60,0,0
11491,-100,4,2,1,60,0,0
13222,-83.3333333333333,4,2,1,60,0,0
13655,-90.9090909090909,4,2,1,80,0,0
17116,-83.3333333333333,4,2,1,82,0,0
18270,-90.9090909090909,4,2,1,80,0,0
23030,-100,4,2,1,80,0,0
27645,-133.333333333333,4,2,1,30,0,0
34568,-111.111111111111,4,2,1,40,0,0
36299,-100,4,2,1,50,0,0
36876,-90.9090909090909,4,2,1,80,0,0
37309,-100,4,2,1,60,0,0
49568,-90.9090909090909,4,2,1,60,0,0
50001,-100,4,2,1,60,0,0
62260,-83.3333333333333,4,2,1,60,0,0
63126,-71.4285714285714,4,2,1,60,0,0
64568,-200,4,2,1,60,0,0
66876,-100,4,2,1,80,0,1
74809,-80,4,2,1,80,0,1
75241,-100,4,2,1,80,0,1
80722,-133.333333333333,4,2,1,80,0,1
85337,-100,4,2,1,80,0,1
87645,-90.9090909090909,4,2,1,80,0,1
92260,-125,4,2,1,60,0,0
101491,-166.666666666667,4,2,1,60,0,0
110722,-100,4,2,1,60,0,0
111443,-88.8888888888889,4,2,1,80,0,0
115626,-100,4,2,1,60,0,0
119953,-100,4,2,1,60,0,0
123991,-83.3333333333333,4,2,1,60,0,0
124568,-100,4,2,1,60,0,0
133799,-100,4,2,1,70,0,0
136107,-83.3333333333333,4,2,1,70,0,0
137116,-71.4285714285714,4,2,1,70,0,0
139352,-83.3333333333333,4,2,1,50,0,0
139857,-100,4,2,1,70,0,0
141010,-100,4,2,1,80,0,1
148655,-80,4,2,1,80,0,1
148943,-100,4,2,1,80,0,1
154568,-133.333333333333,4,2,1,80,0,1
158607,-100,4,2,1,80,0,1
159184,-100,4,2,1,85,0,1
163510,-83.3333333333333,4,2,1,85,0,1
163943,-100,4,2,1,85,0,1
166107,-100,4,2,1,80,0,0
170289,-133.333333333333,4,2,1,80,0,0
170722,-100,4,2,1,80,0,0
174328,-100,4,2,1,50,0,0
175193,-100,4,2,1,70,0,0
193799,-133.333333333333,4,2,1,70,0,0
200722,-117.647058823529,4,2,1,70,0,0
203030,-100,4,2,1,70,0,0
209953,-83.3333333333333,4,2,1,80,0,0
210962,-83.3333333333333,4,2,1,80,0,0
216010,-83.3333333333333,4,2,1,90,0,1
219039,-83.3333333333333,4,2,1,90,0,1
220193,-100,4,2,1,80,0,1
223655,-80,4,2,1,80,0,1
224087,-100,4,2,1,80,0,1
228991,-100,4,2,1,60,0,1
229568,-133.333333333333,4,2,1,80,0,1
233607,-100,4,2,1,80,0,1
234184,-100,4,2,1,80,0,1
236491,-90.9090909090909,4,2,1,80,0,1
241107,-100,4,2,1,80,0,0
249472,-133.333333333333,4,2,1,60,0,0
253943,-133.333333333333,4,2,1,40,0,0
254953,-133.333333333333,4,2,1,20,0,0
256107,-133.333333333333,4,2,1,5,0,0

[Colours]
Combo1 : 63,177,115
Combo2 : 112,215,220
Combo3 : 18,124,255
Combo4 : 145,227,162

[HitObjects]
98,80,2261,6,0,P|148:76|203:113,1,101.250003862381,2|0,0:0|0:0,0:0:0:0:
199,220,2837,2,0,L|190:293,1,50.6250019311906
302,324,3270,2,0,P|377:317|403:241,1,151.875005793572,2|0,0:0|0:0,0:0:0:0:
430,134,3991,2,0,L|483:131,2,50.6250019311906,2|0|0,0:0|0:0|0:0,0:0:0:0:
351,152,4424,6,0,L|365:51,1,101.250003862381
294,13,4857,1,2,0:0:0:0:
203,94,5145,1,0,0:0:0:0:
272,134,5289,1,2,0:0:0:0:
178,210,5578,1,0,0:0:0:0:
104,240,5722,6,0,L|-12:234,1,101.250003862381,2|0,0:0|0:0,0:0:0:0:
75,337,6299,2,0,L|176:342,1,101.250003862381,2|0,0:0|0:0,0:0:0:0:
264,258,6876,5,2,0:0:0:0:
371,315,7164,2,0,B|480:304,2,101.250003862381
264,258,8030,2,0,P|216:274|259:86,1,405.000015449524,2|2,0:0|0:0,0:0:0:0:
95,155,10337,6,0,L|131:151,4,33.75,8|8|8|0|0,0:3|0:3|0:3|0:3|0:3,0:0:0:0:
28,212,10770,2,0,P|12:260|64:324,1,135,8|0,0:3|0:0,0:0:0:0:
148,319,11203,2,0,L|236:311,1,74.2500022659302,2|0,0:3|0:0,0:0:0:0:
313,303,11491,5,2,0:0:0:0:
412,284,12645,2,0,L|424:240,3,33.75,8|0|0|0,1:3|0:0|0:0|0:0,0:0:0:0:
400,212,12934,2,0,L|412:168,3,33.75,0|0|0|0,1:0|0:0|0:0|0:0,0:0:0:0:
459,128,13222,2,0,P|415:108|361:126,1,80.9999975280763,8|8,1:3|0:3,0:0:0:0:
298,136,13510,1,0,1:0:0:0:
196,225,13655,6,0,L|210:377,1,148.50000453186,4|0,0:0|0:0,0:0:0:0:
120,378,14087,2,0,L|42:373,1,74.2500022659302,8|0,0:0|0:0,0:0:0:0:
9,291,14376,2,0,P|9:229|32:201,1,74.2500022659302,8|8,0:3|0:3,0:0:0:0:
92,177,14664,2,0,L|170:182,1,74.2500022659302,8|0,0:0|0:0,0:0:0:0:
199,296,14953,6,0,P|240:301|288:283,1,74.2500022659302,8|0,0:3|0:0,0:0:0:0:
355,263,15241,2,0,P|391:259|427:268,1,74.2500022659302,8|0,0:0|0:0,0:0:0:0:
284,204,15530,2,0,P|279:170|290:117,1,74.2500022659302,8|8,0:3|0:3,0:0:0:0:
371,109,15818,1,8,0:0:0:0:
271,293,15962,6,0,P|206:340|131:313,1,148.50000453186,4|0,0:0|0:0,0:0:0:0:
110,227,16395,2,0,L|209:239,1,74.2500022659302,8|0,0:0|0:0,0:0:0:0:
284,130,16684,2,0,L|185:142,2,74.2500022659302,8|8|8,0:3|0:3|0:0,0:0:0:0:
450,96,17116,6,0,P|480:168|435:231,1,161.999995056153,2|2,0:0|0:0,0:0:0:0:
348,276,17549,1,8,0:0:0:0:
261,319,17693,2,0,B|201:314|201:314|167:328|167:328|69:320,1,161.999995056153,2|2,0:0|0:0,0:0:0:0:
56,236,18126,1,8,0:0:0:0:
123,76,18270,6,0,P|183:36|255:46,1,148.50000453186,4|0,0:0|0:0,0:0:0:0:
342,70,18703,2,0,L|439:65,1,74.2500022659302,8|0,0:0|0:0,0:0:0:0:
486,143,18991,2,0,L|411:146,1,74.2500022659302,8|8,0:3|0:3,0:0:0:0:
351,232,19280,2,0,L|448:227,1,74.2500022659302,8|0,0:0|0:0,0:0:0:0:
291,307,19568,6,0,P|284:351|284:382,1,74.2500022659302,8|0,0:3|0:0,0:0:0:0:
198,297,19857,2,0,P|163:268|136:253,1,74.2500022659302,8|0,0:0|0:0,0:0:0:0:
253,221,20145,2,0,P|294:205|321:189,1,74.2500022659302,8|8,0:3|0:3,0:0:0:0:
406,217,20434,1,8,0:0:0:0:
291,307,20578,6,0,P|192:311|160:346,1,148.50000453186,4|0,0:0|0:0,0:0:0:0:
72,344,21010,2,0,L|55:249,1,74.2500022659302,8|0,0:0|0:0,0:0:0:0:
125,211,21299,2,0,L|134:137,2,74.2500022659302,8|0|8,0:0|0:0|0:0,0:0:0:0:
28,48,21732,6,0,B|83:56|83:56|114:45|114:45|197:56,1,148.50000453186,4|0,0:0|0:0,0:0:0:0:
256,20,22164,1,8,0:0:0:0:
356,114,22309,2,0,P|421:118|476:59,2,148.50000453186,4|8|4,0:0|0:0|0:0,0:0:0:0:
193,181,23174,5,0,0:0:0:0:
266,228,23318,2,0,L|408:219,1,135,8|8,0:0|0:3,0:0:0:0:
463,157,23751,1,8,0:3:0:0:
503,234,23895,2,0,L|512:306,1,67.5,8|0,0:0|0:0,0:0:0:0:
379,203,24184,6,0,P|365:147|374:121,1,67.5,8|0,0:3|0:0,0:0:0:0:
429,78,24472,2,0,P|473:71|512:91,1,67.5,8|0,0:0|0:0,0:0:0:0:
344,54,24760,2,0,P|300:61|261:41,1,67.5,8|8,0:3|0:3,0:0:0:0:
192,38,25049,2,0,L|105:44,1,67.5,8|0,0:0|0:0,0:0:0:0:
39,64,25337,6,0,L|46:141,1,67.5,8|0,0:3|0:0,0:0:0:0:
19,215,25626,2,0,P|65:251|123:230,1,101.25,8|0,0:0|0:0,0:0:0:0:
139,219,25914,2,0,B|243:208|243:208|212:237,1,135,8|8,0:0|0:3,0:0:0:0:
323,250,26347,6,0,P|336:202|306:143,1,101.25,8|0,0:0|0:0,0:0:0:0:
288,123,26635,2,0,B|263:115|263:115|241:122|241:122|217:115|217:115|186:127,1,101.25,8|0,0:0|0:0,0:0:0:0:
148,133,26924,2,0,P|122:75|179:29,1,135,8|8,0:0|0:0,0:0:0:0:
255,29,27357,2,0,L|301:38,3,33.75,8|8|8|8,0:0|0:0|0:0|0:0,0:0:0:0:
319,45,27645,6,0,L|432:40,1,101.250003862381,2|0,0:0|0:0,0:0:0:0:
485,154,28222,2,0,P|493:221|462:263,1,101.250003862381,2|0,0:0|0:0,0:0:0:0:
358,303,28799,6,0,L|363:359,2,50.6250019311906,2|2|0,0:0|0:0|0:0,0:0:0:0:
375,231,29232,2,0,L|262:226,1,101.250003862381,2|0,0:0|0:0,0:0:0:0:
211,265,29664,1,2,0:0:0:0:
96,199,29953,6,0,P|67:135|104:66,2,151.875005793572,2|2|2,0:0|0:0|0:0,0:0:0:0:
157,233,30962,2,0,P|194:242|266:227,1,101.250003862381,2|0,0:0|0:0,0:0:0:0:
312,190,31395,2,0,P|316:148|308:122,1,50.6250019311906,2|0,0:0|0:0,0:0:0:0:
308,69,31684,1,2,0:0:0:0:
436,127,31972,6,0,L|497:124,2,50.6250019311906,0|0|2,0:0|0:0|0:0,0:0:0:0:
256,192,32333,12,0,33414,0:0:0:0:
105,199,33991,6,0,P|159:242|208:228,1,101.250003862381,0|2,0:0|0:0,0:0:0:0:
248,200,34424,1,0,0:0:0:0:
309,237,34568,6,0,L|384:232,1,60.7499981460572
418,302,34857,2,0,L|384:369,1,60.7499981460572,2|0,0:0|0:0,0:0:0:0:
307,363,35145,6,0,L|265:300,2,60.7499981460572,0|2|0,0:0|0:0|0:0,0:0:0:0:
396,361,35577,2,0,L|471:356,2,60.7499981460572,0|2|0,0:0|0:0|0:0,0:0:0:0:
301,362,36010,2,0,L|259:299,2,60.7499981460572,0|2|0,0:0|0:0|0:0,0:0:0:0:
350,281,36443,2,0,P|356:236|344:196,1,67.5,0|2,0:0|0:0,0:0:0:0:
319,133,36732,1,2,0:0:0:0:
219,206,36876,6,0,P|146:210|94:261,1,148.50000453186,4|8,0:0|0:0,0:0:0:0:
40,330,37309,1,0,0:0:0:0:
8,248,37453,2,0,L|2:165,1,67.5,8|0,0:3|0:0,0:0:0:0:
81,140,37741,2,0,L|85:72,1,67.5,8|0,0:0|0:0,0:0:0:0:
191,95,38030,6,0,P|240:106|309:48,1,135,8|8,0:3|0:0,0:0:0:0:
386,27,38462,1,0,0:0:0:0:
442,95,38607,2,0,L|518:87,2,67.5,8|0|8,0:3|0:0|0:0,0:0:0:0:
360,126,39039,1,0,0:0:0:0:
435,245,39184,6,0,B|457:300|457:300|440:389,1,135,4|8,0:0|0:0,0:0:0:0:
362,339,39616,2,0,B|312:344|312:344|285:338|285:338|199:346,1,135,0|8,0:0|0:3,0:0:0:0:
143,366,40049,2,0,P|143:317|168:284,1,67.5,8|0,0:0|0:0,0:0:0:0:
226,224,40337,6,0,L|310:220,1,67.5,8|0,0:3|0:0,0:0:0:0:
355,157,40626,1,8,0:0:0:0:
294,94,40770,2,0,B|234:120|234:120|142:107,1,135,4|0,0:3|0:0,0:0:0:0:
88,65,41203,2,0,L|75:146,1,67.5,8|0,0:0|0:0,0:0:0:0:
26,223,41491,6,0,P|67:237|114:228,1,67.5,4|0,0:0|0:0,0:0:0:0:
178,230,41780,2,0,L|266:223,2,67.5,10|0|0,0:0|0:0|0:0,0:0:0:0:
280,146,42212,2,0,L|229:73,2,67.5,2|8|0,2:0|2:0|2:0,0:0:0:0:
156,96,42645,2,0,L|118:175,2,67.5,2|0|8,2:0|2:0|2:0,0:0:0:0:
376,282,43222,6,0,P|408:233|405:202,1,67.5,8|0,0:3|0:0,0:0:0:0:
369,147,43510,1,8,0:0:0:0:
279,230,43655,6,0,L|291:373,1,135,4|8,0:0|0:0,0:0:0:0:
207,337,44087,2,0,L|135:328,1,67.5,8|0,0:0|0:0,0:0:0:0:
366,304,44376,2,0,L|438:295,2,67.5,8|8|0,0:0|0:0|0:0,0:0:0:0:
197,315,44809,2,0,L|125:306,2,67.5,10|10|0,0:0|0:0|0:0,0:0:0:0:
376,282,45241,2,0,L|448:273,2,67.5,10|10|0,0:0|0:0|0:0,0:0:0:0:
197,219,45674,2,0,P|219:172|257:153,1,67.5,10|14,0:0|0:0,0:0:0:0:
464,292,46107,6,0,B|480:212|480:212|460:140,1,135,8|0,0:3|0:0,0:0:0:0:
400,104,46539,1,0,0:0:0:0:
312,112,46684,2,0,P|249:120|203:60,1,135,8|8,0:0|0:3,0:0:0:0:
121,43,47116,6,0,B|55:46|55:46|15:133,1,135,8|0,0:3|0:0,0:0:0:0:
77,180,47549,2,0,P|86:235|83:255,1,67.5,8|0,0:0|0:0,0:0:0:0:
34,318,47837,1,8,0:3:0:0:
172,255,47982,1,8,0:3:0:0:
231,319,48126,2,0,L|305:311,1,67.5,8|0,0:0|0:0,0:0:0:0:
362,251,48414,5,8,0:3:0:0:
457,326,48559,2,0,P|485:286|467:191,1,135,8|0,0:3|0:0,0:0:0:0:
459,182,48919,1,0,0:0:0:0:
443,159,48991,2,0,L|458:81,1,67.5,8|0,0:0|0:0,0:0:0:0:
361,55,49280,2,0,L|366:97,2,33.75,8|8|8,0:3|0:3|0:3,0:0:0:0:
268,88,49568,6,0,P|210:84|173:59,2,99.0000030212403,8|8|8,0:0|0:3|0:3,0:0:0:0:
339,175,50145,2,0,P|357:231|346:264,1,67.5,8|0,0:3|0:0,0:0:0:0:
219,275,50434,2,0,P|258:231|292:224,1,67.5,4|0,0:0|0:0,0:0:0:0:
366,329,50722,6,0,P|308:316|285:290,1,67.5,8|8,0:3|0:3,0:0:0:0:
230,361,51010,2,0,L|148:364,1,67.5,0|0,0:0|0:0,0:0:0:0:
74,368,51299,1,8,0:0:0:0:
13,304,51443,2,0,B|4:221,1,67.5,0|8,0:0|0:3,0:0:0:0:
100,156,51732,6,0,P|122:112|94:25,1,135,8|0,0:3|0:0,0:0:0:0:
39,94,52164,1,8,0:0:0:0:
291,182,52453,1,8,0:3:0:0:
411,138,52597,1,8,0:3:0:0:
463,208,52741,2,0,L|470:287,1,67.5,8|0,0:0|0:0,0:0:0:0:
416,343,53030,5,8,0:3:0:0:
298,309,53174,2,0,B|244:310|244:310|219:324|219:324|140:326,1,135,8|0,0:3|0:0,0:0:0:0:
147,332,53535,1,0,0:0:0:0:
127,339,53607,2,0,L|112:260,1,67.5,8|0,0:0|0:0,0:0:0:0:
194,236,53895,2,0,L|203:194,2,33.75,8|8|8,0:3|0:3|0:3,0:0:0:0:
118,189,54184,6,0,P|48:192|26:233,2,101.25,8|8|8,0:0|0:3|0:3,0:0:0:0:
174,121,54760,2,0,L|226:129,3,33.75,8|0|0|0,0:0|0:0|0:0|0:0,0:0:0:0:
251,120,55049,2,0,L|303:128,3,33.75,8|0|0|0,0:3|0:0|0:0|0:0,0:0:0:0:
323,105,55337,6,0,B|345:169|345:169|326:259,1,135,4|0,0:0|0:0,0:0:0:0:
266,294,55770,1,8,0:3:0:0:
338,343,55914,2,0,L|424:334,1,67.5,8|0,0:0|0:0,0:0:0:0:
484,259,56203,2,0,L|398:250,1,67.5,8|0,0:3|0:0,0:0:0:0:
331,234,56491,5,0,0:0:0:0:
391,170,56635,2,0,P|413:120|386:48,1,135,8|8,0:3|0:3,0:0:0:0:
299,32,57068,2,0,L|304:111,1,67.5,8|0,0:0|0:0,0:0:0:0:
217,76,57357,2,0,L|222:155,1,67.5,0|0,0:0|0:0,0:0:0:0:
58,177,57645,6,0,P|159:222|193:198,1,135,4|0,0:0|0:0,0:0:0:0:
221,143,58078,1,0,0:0:0:0:
299,181,58222,2,0,L|377:183,1,67.5,8|0,0:0|0:0,0:0:0:0:
391,266,58510,2,0,L|323:264,1,67.5,8|8,0:3|0:3,0:0:0:0:
264,329,58799,5,0,0:0:0:0:
343,365,58943,2,0,B|401:378|401:378|501:357,1,135,8|8,0:0|0:3,0:0:0:0:
477,274,59376,2,0,L|484:235,3,33.75,8|0|0|0,0:0|0:0|0:0|0:0,0:0:0:0:
489,208,59664,2,0,L|485:129,1,67.5,8|0,0:3|0:0,0:0:0:0:
396,59,59953,5,8,0:3:0:0:
291,119,60097,2,0,P|220:132|167:73,1,135,8|8,0:3|0:0,0:0:0:0:
58,62,60530,2,0,B|35:132|35:132|57:220,1,135,8|8,0:3|0:0,0:0:0:0:
139,292,60962,6,0,B|208:271|190:322|291:291,1,135,8|0,0:3|0:0,0:0:0:0:
397,347,61395,2,0,P|448:323|399:274,1,135,8|8,0:0|0:3,0:0:0:0:
329,210,61828,1,8,0:3:0:0:
139,292,62116,1,0,0:0:0:0:
46,228,62260,6,0,B|26:158|26:158|52:65,1,161.999995056153,8|8,0:3|0:0,0:0:0:0:
141,37,62693,1,8,0:3:0:0:
224,86,62837,2,0,B|299:108|299:108|383:81,1,161.999995056153,8|8,0:3|0:0,0:0:0:0:
451,172,63270,6,0,B|356:200|356:200|377:269|340:313,1,188.999994232178,8|8,0:3|0:0,0:0:0:0:
247,246,63703,2,0,B|185:238|185:238|144:301|57:275,1,188.999994232178,8|0,0:0|0:0,0:0:0:0:
106,191,64135,1,8,0:3:0:0:
84,99,64280,2,0,L|72:41,4,47.2499985580445,8|8|8|8|2,0:0|0:0|0:0|0:0|0:0,0:0:0:0:
256,192,64712,12,0,66732,0:0:0:0:
41,292,67164,6,0,P|79:247|163:273,1,135,4|8,0:1|0:3,0:0:0:0:
214,315,67597,2,0,L|303:308,1,67.5,0|8,0:0|0:0,0:0:0:0:
396,350,67885,6,0,B|424:286|424:286|394:211,1,135,8|0,0:3|0:0,0:0:0:0:
348,153,68318,2,0,L|363:77,1,67.5,8|0,0:0|0:0,0:0:0:0:
418,20,68607,2,0,P|311:43|285:20,1,135,8|8,0:3|0:0,0:0:0:0:
211,26,69039,1,0,0:0:0:0:
112,100,69184,6,0,L|190:109,1,67.5,4|0,0:0|0:0,0:0:0:0:
299,121,69472,2,0,L|252:184,1,67.5,8|0,0:0|0:0,0:0:0:0:
182,268,69760,2,0,L|150:195,2,67.5,8|8|8,0:3|0:3|0:0,0:0:0:0:
147,357,70193,6,0,B|198:361|198:361|224:350|224:350|297:354,1,135,8|0,0:3|0:0,0:0:0:0:
368,368,70626,1,8,0:0:0:0:
485,201,70914,2,0,L|471:124,1,67.5,8|8,0:3|0:3,0:0:0:0:
390,104,71203,1,8,0:0:0:0:
305,172,71347,6,0,B|237:197|234:143|155:178,1,135,4|0,0:0|0:0,0:0:0:0:
93,209,71780,2,0,P|83:157|97:128,1,67.5,8|0,0:0|0:0,0:0:0:0:
145,78,72068,2,0,P|150:42|137:-2,2,67.5,8|8|8,0:3|0:3|0:0,0:0:0:0:
267,81,72501,6,0,B|334:92|334:92|392:57,1,135,8|0,0:3|0:0,0:0:0:0:
472,23,72934,2,0,L|465:118,1,67.5,8|0,0:0|0:0,0:0:0:0:
498,207,73222,2,0,P|435:250|373:223,1,135,8|8,0:3|0:0,0:0:0:0:
304,197,73655,1,0,0:0:0:0:
223,230,73799,6,0,L|140:222,2,67.5,8|0|8,0:3|0:3|0:0,0:0:0:0:
299,326,74232,2,0,L|366:319,2,67.5,8|4|0,0:3|0:0|0:0,0:0:0:0:
179,342,74664,1,8,0:0:0:0:
73,186,74809,6,0,P|139:133|228:175,1,168.75,4|8,0:0|0:0,0:0:0:0:
288,111,75241,2,0,L|338:95,3,33.75,8|0|0|0,0:0|0:0|0:0|0:0,0:0:0:0:
363,107,75530,2,0,L|407:93,3,33.75,8|8|8|8,0:3|0:3|0:3|0:3,0:0:0:0:
441,106,75818,2,0,L|485:92,3,33.75,8|8|8|8,0:3|0:3|0:3|0:3,0:0:0:0:
483,172,76107,6,0,L|473:259,1,67.5,4|0,0:0|0:0,0:0:0:0:
361,344,76395,2,0,L|344:259,1,67.5,8|0,0:0|0:0,0:0:0:0:
291,173,76684,2,0,L|387:180,2,67.5,8|8|8,0:3|0:3|0:0,0:0:0:0:
189,226,77116,6,0,P|117:228|79:171,1,135,8|0,0:3|0:0,0:0:0:0:
116,101,77549,2,0,L|195:112,1,67.5,8|0,0:0|0:0,0:0:0:0:
255,61,77837,1,8,0:3:0:0:
338,90,77982,1,0,0:0:0:0:
422,66,78126,2,0,P|458:121|442:177,1,101.25,8|0,0:0|0:0,0:0:0:0:
432,191,78414,6,0,L|342:184,1,67.5,4|0,0:0|0:0,0:0:0:0:
441,294,78703,2,0,L|513:284,1,67.5,8|0,0:0|0:0,0:0:0:0:
337,280,78991,1,8,0:3:0:0:
231,312,79135,2,0,L|244:231,1,67.5,8|8,0:3|0:0,0:0:0:0:
288,133,79424,6,0,L|126:145,1,135,4|0,0:0|0:0,0:0:0:0:
78,96,79857,2,0,P|63:148|80:187,1,67.5,8|0,0:0|0:0,0:0:0:0:
168,113,80145,2,0,P|169:79|155:49,1,67.5,8|8,0:3|0:3,0:0:0:0:
78,96,80434,1,8,0:0:0:0:
33,263,80722,6,0,L|144:275,1,101.250003862381,4|0,0:0|0:0,0:0:0:0:
173,333,81155,2,0,P|240:318|257:289,1,101.250003862381,8|0,0:3|0:0,0:0:0:0:
233,226,81587,1,8,0:3:0:0:
353,234,81876,2,0,P|415:228|439:210,2,75.9375028967858,8|0|8,0:0|0:3|0:3,0:0:0:0:
297,189,82453,2,0,P|292:150|297:127,1,50.6250019311906,8|0,0:3|0:0,0:0:0:0:
343,88,82741,1,8,0:0:0:0:
205,132,83030,6,0,P|145:129|104:166,1,101.250003862381,8|0,0:3|0:0,0:0:0:0:
91,219,83462,2,0,B|78:265|78:265|93:340,1,101.250003862381,8|0,0:3|0:0,0:0:0:0:
157,333,83895,1,8,0:3:0:0:
297,355,84184,6,0,P|343:362|380:338,2,75.9375028967858,8|0|8,0:0|0:0|0:3,0:0:0:0:
326,290,84760,2,0,L|325:242,3,25.3125009655953,8|0|0|8,0:0|0:0|0:0|0:3,0:0:0:0:
354,249,85049,2,0,L|395:240,3,25.3125009655953,8|8|8|8,0:3|0:3|0:3|0:3,0:0:0:0:
405,210,85337,6,0,L|390:133,1,67.5,4|0,0:0|0:0,0:0:0:0:
302,49,85626,1,8,0:0:0:0:
302,49,85770,2,0,L|290:116,1,67.5,0|8,0:0|0:3,0:0:0:0:
199,209,86059,1,8,0:3:0:0:
199,209,86203,6,0,L|187:143,1,67.5,8|8,0:0|0:3,0:0:0:0:
96,39,86491,1,0,0:0:0:0:
96,39,86635,2,0,L|84:106,1,67.5,8|8,0:3|0:0,0:0:0:0:
46,217,86924,1,0,0:0:0:0:
46,217,87068,2,0,L|126:214,2,67.5,8|8|8,0:3|0:3|0:0,0:0:0:0:
199,209,87501,1,0,0:0:0:0:
265,326,87645,6,0,P|345:344|386:271,1,148.50000453186,8|8,0:3|0:0,0:0:0:0:
392,209,88078,1,8,0:3:0:0:
504,172,88222,2,0,L|357:186,1,148.50000453186,8|8,0:3|0:0,0:0:0:0:
268,68,88655,6,0,L|439:84,1,148.50000453186,8|8,0:3|0:0,0:0:0:0:
283,229,89087,2,0,P|269:180|281:147,1,74.2500022659302,8|0,0:0|0:0,0:0:0:0:
392,209,89376,2,0,P|397:245|383:279,1,74.2500022659302,8|0,0:0|0:0,0:0:0:0:
297,334,89664,1,8,0:0:0:0:
297,334,89736,1,8,0:0:0:0:
297,334,89808,1,8,0:0:0:0:
189,256,89952,5,12,0:0:0:0:
392,209,91107,5,4,0:1:0:0:
256,192,92260,12,0,94568,0:0:0:0:
64,140,101924,6,0,B|118:124|118:124|187:151,1,121.499996292114,8|8,0:3|0:0,0:0:0:0:
267,263,102645,2,0,L|260:311,2,40.4999987640381,0|4|0,0:3|0:3|0:0,0:0:0:0:
309,203,103078,2,0,P|348:184|397:193,1,80.9999975280763,8|0,0:3|0:0,0:0:0:0:
452,213,103510,1,8,0:0:0:0:
483,70,103799,6,0,P|415:75|374:33,2,121.499996292114,8|8|8,0:3|0:3|0:0,0:0:0:0:
381,264,105097,2,0,L|369:352,1,80.9999975280763,4|0,0:3|0:0,0:0:0:0:
301,370,105530,1,2,0:0:0:0:
164,319,105818,2,0,L|108:324,1,40.4999987640381,8|0,0:0|0:0,0:0:0:0:
54,298,106107,6,0,B|52:253|52:253|65:219|65:219|63:174,1,121.499996292114,8|8,0:3|0:3,0:0:0:0:
272,115,106972,2,0,B|273:155|273:155|260:189|260:189|262:234,1,121.499996292114,8|2,0:0|0:0,0:0:0:0:
461,325,107837,2,0,L|508:319,2,40.4999987640381,0|0|8,0:0|0:0|0:0,0:0:0:0:
328,318,108414,6,0,L|334:263,1,40.4999987640381,8|8,0:3|0:3,0:0:0:0:
404,150,108847,2,0,P|355:128|312:136,1,80.9999975280763,8|8,0:0|0:3,0:0:0:0:
263,163,109280,2,0,L|177:168,1,80.9999975280763,2|0,0:0|0:0,0:0:0:0:
123,211,109712,2,0,P|110:149|123:124,1,80.9999975280763,2|8,0:0|0:0,0:0:0:0:
164,79,110145,2,0,P|205:63|247:78,2,80.9999975280763,2|8|8,0:0|0:0|0:3,0:0:0:0:
244,302,111010,6,0,L|280:291,2,33.75,8|8|8,0:0|0:0|0:0,0:0:0:0:
264,195,111299,1,8,0:0:0:0:
264,195,111443,2,0,P|224:151|209:218,1,151.875005793572,12|8,0:3|0:3,0:0:0:0:
64,116,113318,6,0,L|232:128,1,151.875005793572,10|8,0:0|0:3,0:0:0:0:
368,200,113751,2,0,B|400:128|400:128|364:56,1,151.875005793572,8|8,0:3|0:3,0:0:0:0:
256,28,114184,6,0,L|180:20,1,75.9375028967858,0|8,0:0|0:3,0:0:0:0:
215,126,114472,2,0,L|319:118,1,75.9375028967858,8|8,0:0|0:3,0:0:0:0:
108,104,114760,2,0,B|80:168|132:156|100:236,2,113.906254345179,8|8|8,0:3|0:3|0:3,0:0:0:0:
306,278,115626,6,0,L|289:369,1,67.5,8|0,0:0|0:0,0:0:0:0:
211,375,115914,1,8,0:3:0:0:
211,375,116059,1,8,0:3:0:0:
131,338,116203,2,0,L|53:331,1,67.5,8|8,0:0|0:3,0:0:0:0:
89,248,116491,6,0,L|179:239,1,67.5,0|8,0:0|0:3,0:0:0:0:
242,221,116780,2,0,P|252:171|234:135,1,67.5,8|0,0:0|0:3,0:0:0:0:
165,98,117068,1,8,0:3:0:0:
246,130,117212,1,8,0:3:0:0:
323,87,117357,1,8,0:0:0:0:
407,164,117501,6,0,B|442:208|442:208|426:305,1,135,4|8,0:0|0:0,0:0:0:0:
341,293,117934,2,0,L|254:300,1,67.5,8|8,0:0|0:3,0:0:0:0:
207,196,118222,1,8,0:0:0:0:
207,196,118366,2,0,L|274:201,1,67.5,8|8,0:0|0:3,0:0:0:0:
341,100,118655,1,8,0:0:0:0:
341,100,118799,6,0,L|273:105,1,67.5,10|8,0:0|0:3,0:0:0:0:
146,65,119087,1,8,0:0:0:0:
85,128,119232,2,0,L|75:180,2,33.75,10|8|10,0:0|0:0|0:0,0:0:0:0:
146,65,119520,1,8,0:0:0:0:
207,196,119664,2,0,P|216:246|203:288,1,67.5,8|10,0:0|0:0,0:0:0:0:
118,266,119953,5,8,0:3:0:0:
198,357,120097,2,0,B|265:362|265:362|334:310,1,135,8|0,0:3|0:0,0:0:0:0:
385,262,120530,2,0,L|377:181,1,67.5,8|0,0:0|0:0,0:0:0:0:
444,137,120818,1,8,0:3:0:0:
327,110,120962,6,0,B|248:101|266:140|184:129,1,135,8|0,0:3|0:0,0:0:0:0:
112,99,121395,2,0,L|126:188,1,67.5,8|0,0:0|0:0,0:0:0:0:
194,216,121684,1,8,0:3:0:0:
99,289,121828,1,8,0:3:0:0:
173,333,121972,2,0,L|252:326,1,67.5,8|0,0:0|0:0,0:0:0:0:
316,284,122260,5,8,0:3:0:0:
411,360,122405,2,0,B|442:314|442:314|418:219,1,135,8|0,0:3|0:0,0:0:0:0:
415,211,122765,1,0,0:0:0:0:
408,185,122837,2,0,L|505:192,1,67.5,8|0,0:0|0:0,0:0:0:0:
473,101,123126,2,0,L|515:95,2,33.75,8|8|8,0:3|0:3|0:3,0:0:0:0:
399,53,123414,6,0,P|355:35|288:67,2,90,8|8|8,0:0|0:3|0:3,0:0:0:0:
341,144,123991,2,0,L|322:238,1,80.9999975280763,8|0,0:3|0:0,0:0:0:0:
221,271,124280,2,0,L|199:172,1,80.9999975280763,8|0,0:0|0:0,0:0:0:0:
369,295,124568,6,0,P|341:306|294:300,1,67.5,8|8,0:3|0:3,0:0:0:0:
221,271,124857,2,0,L|212:344,1,67.5,0|0,0:0|0:0,0:0:0:0:
125,330,125145,2,0,P|64:335|38:349,2,67.5,8|0|8,0:0|0:0|0:3,0:0:0:0:
149,211,125578,6,0,B|209:175|209:175|287:198,1,135,8|0,0:3|0:0,0:0:0:0:
348,234,126010,2,0,L|434:226,1,67.5,8|0,0:0|0:0,0:0:0:0:
498,255,126299,1,8,0:3:0:0:
458,148,126443,1,8,0:3:0:0:
373,125,126587,2,0,P|364:84|374:48,1,67.5,8|0,0:0|0:0,0:0:0:0:
450,26,126876,5,8,0:3:0:0:
458,148,127020,1,8,0:3:0:0:
289,43,127309,1,0,0:0:0:0:
227,105,127453,2,0,L|146:101,1,67.5,8|0,0:0|0:0,0:0:0:0:
72,95,127741,2,0,L|66:56,2,33.75,8|8|8,0:3|0:3|0:3,0:0:0:0:
130,174,128030,6,0,P|68:194|10:171,2,101.25,8|8|8,0:0|0:3|0:3,0:0:0:0:
243,216,128607,2,0,L|293:207,3,33.75,8|0|8|8,0:0|0:3|0:3|0:3,0:0:0:0:
304,190,128895,2,0,L|359:180,3,33.75,8|0|8|8,0:3|0:3|0:3|0:3,0:0:0:0:
404,146,129184,6,0,P|378:208|404:277,1,135,4|0,0:0|0:0,0:0:0:0:
470,319,129616,1,8,0:3:0:0:
389,353,129760,2,0,L|322:359,1,67.5,8|0,0:0|0:0,0:0:0:0:
244,270,130049,2,0,L|324:275,1,67.5,8|8,0:3|0:3,0:0:0:0:
234,364,130337,5,0,0:0:0:0:
165,308,130482,2,0,P|162:240|222:186,1,135,8|0,0:0|0:0,0:0:0:0:
289,171,130914,2,0,B|359:151|362:197|446:175,1,135,8|8,0:0|0:3,0:0:0:0:
300,52,131491,6,0,L|215:57,1,67.5,8|8,0:3|0:0,0:0:0:0:
159,105,131780,2,0,P|145:46|155:15,1,67.5,0|8,0:0|0:3,0:0:0:0:
58,31,132068,2,0,P|44:75|16:103,1,67.5,8|0,0:0|0:0,0:0:0:0:
55,175,132357,2,0,P|87:175|129:186,1,67.5,8|8,0:3|0:3,0:0:0:0:
201,219,132645,5,0,0:0:0:0:
278,260,132789,2,0,B|330:275|330:275|433:258,1,135,8|8,0:0|0:3,0:0:0:0:
468,196,133222,2,0,L|462:156,3,33.75,8|0|8|8,0:0|0:0|0:3|0:3,0:0:0:0:
457,119,133510,2,0,L|467:48,1,67.5,8|8,0:3|0:0,0:0:0:0:
348,21,133799,5,8,0:3:0:0:
251,94,133943,2,0,L|276:249,1,135,0|8,0:0|0:3,0:0:0:0:
349,322,134376,2,0,P|306:282|213:303,1,135,8|8,0:3|0:0,0:0:0:0:
104,328,134809,6,0,B|73:343|73:343|95:236,1,135,8|8,0:3|0:3,0:0:0:0:
125,113,135241,2,0,B|146:18|146:18|165:57,1,135,8|8,0:0|0:3,0:0:0:0:
206,143,135674,1,8,0:3:0:0:
402,190,135962,1,0,0:0:0:0:
332,258,136107,6,0,P|276:288|192:216,1,161.999995056153,8|8,0:3|0:3,0:0:0:0:
206,143,136539,1,8,0:0:0:0:
288,88,136684,2,0,L|108:116,1,161.999995056153,8|8,0:3|0:0,0:0:0:0:
52,196,137116,6,0,B|28:180|20:152|20:152|0:288,1,188.999994232178,8|8,0:0|0:0,0:0:0:0:
98,343,137549,2,0,L|197:335,1,94.4999971160889,8|0,0:0|0:0,0:0:0:0:
258,243,137837,2,0,L|159:235,1,94.4999971160889,8|8,0:0|0:3,0:0:0:0:
280,334,138126,1,8,0:0:0:0:
280,334,138198,1,8,0:0:0:0:
280,334,138270,1,8,0:0:0:0:
348,200,138414,5,4,0:0:0:0:
348,200,139352,2,0,L|400:195,2,40.4999987640381,8|8|8,0:0|0:0|0:0,0:0:0:0:
317,177,139568,6,0,L|260:167,3,40.4999987640381,8|8|8|8,0:0|0:0|0:0|0:0,0:0:0:0:
217,128,139857,2,0,P|204:181|220:213,1,67.5,2|0,0:0|0:0,0:0:0:0:
257,263,140145,2,0,L|241:342,2,67.5,8|0|0,0:3|0:0|0:0,0:0:0:0:
342,283,140578,2,0,P|430:279|459:225,1,135,8|0,0:0|0:0,0:0:0:0:
472,126,141010,6,0,B|419:132|419:132|387:123|387:123|323:127,1,135,4|8,0:1|0:3,0:0:0:0:
257,91,141443,1,8,0:3:0:0:
257,91,141587,1,8,0:0:0:0:
146,141,141732,6,0,B|131:205|131:205|148:274,1,135,8|8,0:3|0:3,0:0:0:0:
207,336,142164,2,0,L|300:332,1,67.5,8|0,0:0|0:0,0:0:0:0:
125,356,142453,2,0,P|70:360|17:274,1,135,8|8,0:3|0:0,0:0:0:0:
35,219,142885,1,0,0:0:0:0:
121,203,143030,6,0,L|200:205,1,67.5,4|8,0:0|0:3,0:0:0:0:
263,249,143318,2,0,L|348:251,1,67.5,8|0,0:0|0:0,0:0:0:0:
415,273,143607,2,0,P|439:322|434:358,2,67.5,8|8|8,0:3|0:3|0:0,0:0:0:0:
372,158,144039,6,0,P|395:113|471:158,1,135,8|8,0:3|0:3,0:0:0:0:
490,216,144472,1,8,0:0:0:0:
263,249,144760,2,0,L|185:248,1,67.5,8|8,0:3|0:3,0:0:0:0:
119,292,145049,1,8,0:0:0:0:
19,225,145193,6,0,B|2:172|2:172|25:84,1,135,4|8,0:0|0:3,0:0:0:0:
110,101,145626,2,0,L|185:95,1,67.5,8|0,0:0|0:0,0:0:0:0:
263,112,145914,2,0,P|260:62|239:35,1,67.5,8|8,0:3|0:3,0:0:0:0:
177,96,146203,1,8,0:0:0:0:
205,178,146347,6,0,P|269:200|341:151,1,135,8|8,0:3|0:3,0:0:0:0:
400,123,146780,2,0,P|448:118|487:142,1,67.5,8|0,0:0|0:0,0:0:0:0:
498,205,147068,2,0,B|513:256|513:256|488:322,2,101.25,8|8|8,0:3|0:3|0:0,0:0:0:0:
420,247,147645,6,0,L|397:318,1,67.5,8|0,0:3|0:3,0:0:0:0:
299,219,147934,2,0,L|314:291,1,67.5,8|8,0:0|0:3,0:0:0:0:
180,255,148222,2,0,L|229:310,1,67.5,4|0,0:0|0:0,0:0:0:0:
94,345,148510,1,8,0:0:0:0:
17,212,148655,6,0,B|79:206|79:206|115:184|115:184|201:176,1,168.75,4|8,0:0|0:0,0:0:0:0:
251,128,149087,2,0,P|265:169|263:186,3,33.75,8|0|0|0,0:0|0:0|0:0|0:0,0:0:0:0:
263,203,149376,2,0,P|251:230|234:250,3,33.75,8|8|8|8,0:3|0:3|0:3|0:3,0:0:0:0:
220,267,149664,2,0,L|276:262,3,33.75,8|8|0|0,0:3|0:3|0:0|0:0,0:0:0:0:
284,294,149953,6,0,L|362:286,1,67.5,4|0,0:0|0:0,0:0:0:0:
430,325,150241,2,0,L|452:245,1,67.5,8|0,0:0|0:0,0:0:0:0:
484,179,150530,2,0,L|419:148,1,67.5,8|8,0:3|0:3,0:0:0:0:
340,123,150818,1,8,0:0:0:0:
270,176,150962,6,0,P|215:202|141:160,1,135,8|8,0:3|0:3,0:0:0:0:
103,99,151395,2,0,P|67:140|65:179,1,67.5,8|0,0:0|0:0,0:0:0:0:
64,239,151684,2,0,P|90:290|116:300,1,67.5,8|8,0:3|0:3,0:0:0:0:
184,295,151972,2,0,B|236:290|236:290|294:315,1,101.25,8|0,0:0|0:0,0:0:0:0:
319,331,152260,6,0,L|343:264,1,67.5,4|0,0:0|0:0,0:0:0:0:
442,252,152549,2,0,L|418:185,1,67.5,8|0,0:0|0:0,0:0:0:0:
319,173,152837,2,0,L|343:106,2,67.5,8|8|8,0:3|0:3|0:0,0:0:0:0:
272,65,153270,6,0,P|369:30|410:63,1,135,8|8,0:3|0:3,0:0:0:0:
476,52,153703,2,0,L|475:144,1,67.5,8|0,0:0|0:0,0:0:0:0:
419,188,153991,2,0,L|419:274,1,67.5,8|8,0:3|0:3,0:0:0:0:
476,322,154280,1,8,0:0:0:0:
248,263,154568,6,0,P|268:313|235:367,1,101.250003862381,8|0,0:3|0:0,0:0:0:0:
181,367,155001,2,0,L|75:358,1,101.250003862381,8|0,0:3|0:0,0:0:0:0:
28,309,155434,2,0,L|21:255,1,50.6250019311906,8|0,0:3|0:0,0:0:0:0:
57,198,155722,6,0,B|70:163|70:163|58:109,2,75.9375028967858,8|8|8,0:0|0:3|0:3,0:0:0:0:
93,259,156299,2,0,L|167:259,1,50.6250019311906,8|0,0:0|0:0,0:0:0:0:
204,223,156587,2,0,L|268:222,1,50.6250019311906,8|0,0:0|0:0,0:0:0:0:
323,241,156876,6,0,P|363:275|347:337,1,101.250003862381,8|0,0:3|0:0,0:0:0:0:
313,373,157309,2,0,L|428:365,1,101.250003862381,8|0,0:3|0:0,0:0:0:0:
484,361,157741,2,0,P|501:323|496:304,1,50.6250019311906,8|0,0:3|0:0,0:0:0:0:
484,245,158030,6,0,B|474:208|474:208|483:168,2,75.9375028967858,8|8|8,0:0|0:3|0:3,0:0:0:0:
403,281,158607,2,0,L|356:284,3,33.75,8|0|8|8,0:0|0:0|0:3|0:3,0:0:0:0:
325,289,158895,2,0,L|332:246,3,33.75,8|0|8|8,0:3|0:0|0:0|0:0,0:0:0:0:
337,211,159184,6,0,L|254:216,1,67.5,4|0,0:0|0:0,0:0:0:0:
150,260,159472,1,8,0:0:0:0:
150,260,159616,2,0,L|187:185,1,67.5,0|8,0:0|0:3,0:0:0:0:
201,73,159905,1,8,0:3:0:0:
201,73,160049,2,0,L|246:142,1,67.5,8|8,0:0|0:3,0:0:0:0:
366,125,160337,1,0,0:0:0:0:
366,125,160482,6,0,P|323:81|296:78,1,67.5,8|8,0:3|0:0,0:0:0:0:
361,212,160770,1,0,0:0:0:0:
361,212,160915,2,0,P|420:196|436:174,1,67.5,8|8,0:3|0:3,0:0:0:0:
288,164,161203,2,0,P|271:223|282:248,1,67.5,8|0,0:0|0:0,0:0:0:0:
366,323,161491,6,0,B|310:326|310:326|285:341|285:341|225:344,1,135,8|8,0:3|0:0,0:0:0:0:
113,348,161924,1,8,0:3:0:0:
51,243,162068,2,0,P|39:202|124:139,1,135,8|8,0:3|0:0,0:0:0:0:
216,145,162501,6,0,B|268:115|299:186|366:143,1,135,8|8,0:3|0:0,0:0:0:0:
343,17,162934,2,0,P|323:53|325:87,1,67.5,8|8,0:0|0:3,0:0:0:0:
404,207,163222,2,0,P|421:178|425:145,1,67.5,8|0,0:0|0:0,0:0:0:0:
420,62,163510,6,0,L|465:58,4,40.4999987640381,8|8|8|8|8,0:0|0:0|0:0|0:0|0:0,0:0:0:0:
111,125,164953,6,0,P|75:197|103:254,1,135,4|8,0:0|0:3,0:0:0:0:
171,283,165385,1,8,0:3:0:0:
249,242,165530,2,0,B|313:226|313:226|388:262,1,135,8|8,0:0|0:0,0:0:0:0:
452,296,165962,1,8,0:3:0:0:
452,296,166107,1,8,0:3:0:0:
256,192,166179,12,0,168270,0:0:0:0:
58,88,175193,6,0,P|124:68|198:112,1,135,4|0,0:0|0:0,0:0:0:0:
253,144,175626,1,8,0:0:0:0:
253,144,175770,2,0,L|234:286,1,135,2|8,0:0|0:3,0:0:0:0:
195,356,176203,2,0,L|284:349,1,67.5,8|8,0:0|0:3,0:0:0:0:
348,364,176491,6,0,P|336:306|346:284,1,67.5,2|8,0:0|0:3,0:0:0:0:
422,323,176780,2,0,P|430:264|447:247,1,67.5,8|2,0:0|0:0,0:0:0:0:
511,218,177068,2,0,P|466:178|442:176,1,67.5,8|8,0:3|0:3,0:0:0:0:
373,166,177357,1,8,0:0:0:0:
261,211,177501,6,0,P|211:226|145:155,1,135,6|8,0:0|0:3,0:0:0:0:
192,102,177934,2,0,L|270:90,1,67.5,8|0,0:0|0:0,0:0:0:0:
116,57,178222,2,0,L|34:46,2,67.5,2|8|8,0:0|0:3|0:0,0:0:0:0:
59,166,178655,6,0,P|41:215|110:280,1,135,4|0,0:0|0:0,0:0:0:0:
173,291,179087,2,0,P|223:277|292:312,1,101.25,10|0,0:0|0:0,0:0:0:0:
307,312,179376,2,0,B|337:328|337:328|392:321,1,67.5,2|8,0:0|0:3,0:0:0:0:
457,316,179664,1,8,0:0:0:0:
484,197,179809,6,0,L|344:211,1,135,6|8,0:0|0:3,0:0:0:0:
269,176,180241,1,8,0:0:0:0:
189,139,180385,2,0,P|181:95|196:57,1,67.5,2|0,0:0|0:0,0:0:0:0:
302,32,180674,2,0,P|307:64|299:97,1,67.5,8|8,0:3|0:0,0:0:0:0:
194,221,180962,6,0,B|141:227|141:227|117:247|117:247|45:255,1,135,6|8,0:0|0:3,0:0:0:0:
27,173,181395,2,0,L|39:95,1,67.5,10|0,0:0|0:3,0:0:0:0:
106,51,181684,2,0,L|135:132,1,67.5,8|8,0:3|0:3,0:0:0:0:
213,136,181972,1,8,0:0:0:0:
326,93,182116,6,0,P|395:87|448:144,1,135,4|8,0:0|0:3,0:0:0:0:
439,148,182477,1,0,0:0:0:0:
436,167,182549,2,0,L|427:244,1,67.5,8|8,0:0|0:3,0:0:0:0:
345,263,182837,2,0,L|353:191,1,67.5,8|8,0:0|0:3,0:0:0:0:
269,225,183126,2,0,L|261:292,1,67.5,8|4,0:0|0:1,0:0:0:0:
256,192,183414,12,4,184568,0:1:0:0:
256,192,184640,12,0,186876,0:0:0:0:
129,128,193799,5,2,0:0:0:0:
264,167,194087,2,0,L|326:161,2,50.6250019311906,0|0|2,0:0|0:0|0:0,0:0:0:0:
141,239,194664,1,0,0:0:0:0:
198,280,194809,6,0,P|234:293|294:275,1,101.250003862381
350,235,195241,1,2,0:0:0:0:
399,101,195530,2,0,L|406:41,1,50.6250019311906,0|0,0:0|0:0,0:0:0:0:
475,50,195818,2,0,L|468:108,1,50.6250019311906,0|0,0:0|0:0,0:0:0:0:
505,161,196107,5,2,0:0:0:0:
222,184,196684,1,2,0:0:0:0:
471,318,197260,2,0,L|409:324,1,50.6250019311906,0|2,0:0|0:0,0:0:0:0:
279,338,197693,1,0,0:0:0:0:
279,338,197837,2,0,P|261:288|272:257,2,75.9375028967858
333,292,198414,6,0,B|352:244|352:244|334:178,1,101.250003862381,0|2,0:0|0:0,0:0:0:0:
203,153,198991,2,0,L|119:148,2,75.9375028967858,2|0|0,0:0|0:0|0:0,0:0:0:0:
266,121,199568,6,0,P|314:95|379:101,1,101.250003862381,2|0,0:0|0:0,0:0:0:0:
430,104,200001,1,2,0:0:0:0:
493,136,200145,2,0,B|485:175|485:175|490:194|490:194|479:248,1,101.250003862381,0|0,0:0|0:0,0:0:0:0:
469,305,200578,1,0,0:0:0:0:
256,192,200722,12,0,202453,0:0:0:0:
119,245,203030,6,0,P|185:257|239:198,1,135,4|0,0:0|0:0,0:0:0:0:
206,132,203462,1,8,0:3:0:0:
127,90,203607,2,0,L|48:100,1,67.5,8|0,0:0|0:0,0:0:0:0:
206,132,203895,2,0,L|272:123,1,67.5,8|8,0:3|0:3,0:0:0:0:
375,53,204184,5,0,0:0:0:0:
443,108,204328,1,8,0:0:0:0:
384,173,204472,2,0,L|377:242,1,67.5,8|0,0:3|0:0,0:0:0:0:
429,310,204760,2,0,B|376:290|376:290|288:310,1,135,8|8,0:0|0:3,0:0:0:0:
213,326,205193,1,0,0:0:0:0:
85,228,205337,6,0,P|126:205|210:255,1,135,8|0,0:3|0:0,0:0:0:0:
279,195,205770,1,0,0:0:0:0:
222,127,205914,2,0,P|212:91|232:45,1,67.5,8|0,0:0|0:0,0:0:0:0:
301,30,206203,2,0,L|377:33,1,67.5,8|8,0:3|0:3,0:0:0:0:
460,115,206491,6,0,B|470:148|470:148|455:194,1,67.5,0|8,0:0|0:0,0:0:0:0:
374,157,206780,2,0,B|364:190|364:190|379:236,1,67.5,8|8,0:3|0:3,0:0:0:0:
396,306,207068,2,0,L|353:309,3,33.75,8|0|8|8,0:0|0:0|0:3|0:3,0:0:0:0:
324,332,207357,2,0,L|283:329,3,33.75,8|0|8|0,0:3|0:0|0:0|0:0,0:0:0:0:
246,335,207645,6,0,P|232:293|247:253,1,67.5,8|0,0:3|0:0,0:0:0:0:
145,185,207934,1,8,0:0:0:0:
145,185,208078,2,0,P|149:218|136:249,1,67.5,8|8,0:0|0:3,0:0:0:0:
50,299,208366,1,8,0:3:0:0:
50,299,208510,2,0,P|36:268|40:235,1,67.5,8|8,0:0|0:3,0:0:0:0:
75,117,208799,5,0,0:0:0:0:
75,117,208943,2,0,P|111:90|144:88,1,67.5,8|8,0:3|0:0,0:0:0:0:
237,151,209232,1,0,0:0:0:0:
237,151,209376,2,0,P|279:166|324:157,1,67.5,8|8,0:3|0:3,0:0:0:0:
325,46,209664,2,0,P|283:31|238:40,1,67.5,8|8,0:0|0:0,0:0:0:0:
397,131,209953,6,0,B|421:179|421:179|378:304,1,161.999995056153,8|8,0:3|0:3,0:0:0:0:
285,313,210385,1,8,0:0:0:0:
191,264,210530,2,0,B|109:240|106:305|26:277,1,161.999995056153,8|8,0:3|0:0,0:0:0:0:
51,175,210962,6,0,P|48:124|156:137,1,161.999995056153,8|8,0:0|0:0,0:0:0:0:
233,153,211395,2,0,P|300:148|328:113,1,80.9999975280763,8|0,0:0|0:0,0:0:0:0:
284,1,211684,2,0,P|254:61|271:103,1,80.9999975280763,8|8,0:0|0:3,0:0:0:0:
390,121,211972,1,8,0:0:0:0:
385,101,212044,1,8,0:0:0:0:
374,84,212116,1,8,0:0:0:0:
360,70,212188,1,8,0:0:0:0:
342,61,212260,5,4,0:0:0:0:
34,148,216010,6,0,B|142:132|142:132|195:172,1,161.999995056153,4|8,0:1|0:3,0:0:0:0:
262,234,216443,2,0,L|347:220,1,80.9999975280763,8|8,0:0|0:3,0:0:0:0:
441,256,216732,1,0,0:0:0:0:
399,134,216876,6,0,P|425:58|475:152,1,242.999992584229,12|8,0:0|0:0,0:0:0:0:
341,220,217453,2,0,B|328:262|328:262|342:344,2,121.499996292114,8|8|8,0:3|0:3|0:3,0:0:0:0:
174,215,219039,6,0,P|119:191|152:107,1,161.999995056153,4|8,0:1|0:3,0:0:0:0:
172,99,219400,1,0,0:0:0:0:
201,96,219472,2,0,L|285:100,1,80.9999975280763,8|8,0:0|0:3,0:0:0:0:
364,165,219760,2,0,P|381:202|372:255,2,80.9999975280763,0|8|8,0:0|0:3|0:0,0:0:0:0:
290,264,220193,6,0,P|333:320|410:324,1,135,4|8,0:0|0:3,0:0:0:0:
473,292,220626,2,0,L|489:220,1,67.5,8|0,0:0|0:0,0:0:0:0:
449,147,220914,2,0,L|435:71,1,67.5,8|8,0:3|0:3,0:0:0:0:
358,39,221203,1,8,0:0:0:0:
245,81,221347,6,0,B|178:92|178:92|120:57,1,135,8|0,0:3|0:0,0:0:0:0:
40,23,221780,2,0,L|47:118,1,67.5,8|0,0:0|0:0,0:0:0:0:
14,207,222068,2,0,P|77:250|139:223,1,135,8|8,0:3|0:0,0:0:0:0:
208,197,222501,1,0,0:0:0:0:
289,230,222645,6,0,L|372:222,2,67.5,8|0|8,0:3|0:3|0:0,0:0:0:0:
213,326,223078,2,0,L|146:319,2,67.5,8|4|0,0:3|0:0|0:0,0:0:0:0:
333,342,223511,1,8,0:0:0:0:
439,186,223655,6,0,P|373:133|284:175,1,168.75,4|0,0:0|0:0,0:0:0:0:
224,111,224088,2,0,L|174:95,3,33.75,8|0|0|0,0:0|0:0|0:0|0:0,0:0:0:0:
149,107,224376,2,0,L|105:93,3,33.75,8|8|8|8,0:3|0:3|0:3|0:3,0:0:0:0:
70,106,224664,2,0,L|26:92,3,33.75,8|8|8|8,0:3|0:3|0:3|0:3,0:0:0:0:
32,170,224953,6,0,L|42:257,1,67.5,4|0,0:0|0:0,0:0:0:0:
151,344,225241,2,0,L|168:259,1,67.5,8|0,0:0|0:0,0:0:0:0:
221,173,225530,2,0,L|125:180,2,67.5,8|8|8,0:3|0:3|0:0,0:0:0:0:
323,226,225963,6,0,P|395:228|433:171,1,135,8|0,0:3|0:0,0:0:0:0:
396,101,226395,2,0,L|317:112,1,67.5,8|0,0:0|0:0,0:0:0:0:
257,61,226684,1,8,0:3:0:0:
174,90,226828,1,0,0:0:0:0:
90,66,226972,2,0,P|54:121|70:177,1,101.25,8|0,0:0|0:0,0:0:0:0:
75,193,227260,5,4,0:0:0:0:
131,285,227405,1,8,0:3:0:0:
212,214,227549,1,8,0:0:0:0:
274,302,227693,1,8,0:3:0:0:
355,231,227837,1,8,0:0:0:0:
413,322,227982,1,8,0:3:0:0:
413,321,228054,1,0,0:0:0:0:
413,321,228126,1,10,0:0:0:0:
483,153,228270,6,0,B|421:129|421:129|348:147,1,135,6|8,0:0|0:3,0:0:0:0:
266,155,228703,2,0,L|272:75,1,67.5,8|0,0:0|0:0,0:0:0:0:
189,56,228991,2,0,L|186:89,3,33.75,8|8|8|8,0:0|0:0|0:0|0:0,0:0:0:0:
183,133,229280,2,0,L|180:166,3,33.75,8|8|8|8,0:0|0:0|0:0|0:0,0:0:0:0:
168,197,229568,6,0,B|155:248|155:248|173:302,1,101.250003862381,4|0,0:0|0:0,0:0:0:0:
240,305,230001,2,0,B|279:300|279:300|301:306|301:306|354:299,1,101.250003862381,8|0,0:3|0:0,0:0:0:0:
407,323,230434,2,0,P|411:294|399:264,1,50.6250019311906,8|0,0:3|0:0,0:0:0:0:
382,206,230722,6,0,L|358:118,2,75.9375028967858,8|8|8,0:0|0:3|0:3,0:0:0:0:
451,219,231299,2,0,L|509:212,1,50.6250019311906,8|8,0:0|0:3,0:0:0:0:
505,142,231587,2,0,L|454:148,1,50.6250019311906,8|0,0:0|0:0,0:0:0:0:
420,85,231876,6,0,P|383:59|311:77,1,101.250003862381,8|0,0:3|0:0,0:0:0:0:
264,92,232309,2,0,L|149:100,1,101.250003862381,8|0,0:3|0:0,0:0:0:0:
93,104,232741,2,0,P|76:142|81:161,1,50.6250019311906,8|8,0:3|0:3,0:0:0:0:
93,220,233030,6,0,B|103:257|103:257|94:297,2,75.9375028967858,8|8|8,0:0|0:3|0:3,0:0:0:0:
174,184,233607,2,0,L|221:181,3,33.75,8|0|8|8,0:0|0:0|0:3|0:3,0:0:0:0:
252,176,233895,2,0,L|245:219,3,33.75,8|0|8|8,0:3|0:0|0:0|0:0,0:0:0:0:
232,251,234184,6,0,L|319:245,1,67.5,4|0,0:0|0:0,0:0:0:0:
420,275,234472,1,8,0:0:0:0:
420,275,234616,2,0,P|426:228|414:199,1,67.5,8|8,0:0|0:3,0:0:0:0:
448,94,234905,1,8,0:3:0:0:
448,94,235049,2,0,P|401:88|372:100,1,67.5,8|8,0:0|0:3,0:0:0:0:
262,117,235337,5,0,0:0:0:0:
262,117,235482,2,0,L|256:30,1,67.5,8|8,0:3|0:0,0:0:0:0:
152,113,235770,1,0,0:0:0:0:
152,113,235914,2,0,L|142:202,1,67.5,8|8,0:3|0:3,0:0:0:0:
249,267,236203,2,0,L|244:199,1,67.5,8|8,0:0|0:0,0:0:0:0:
195,330,236491,6,0,P|275:348|331:284,1,148.50000453186,8|8,0:0|0:3,0:0:0:0:
358,214,236924,1,8,0:0:0:0:
470,177,237068,2,0,L|323:191,1,148.50000453186,8|8,0:3|0:0,0:0:0:0:
234,73,237501,6,0,L|405:89,1,148.50000453186,8|8,0:0|0:0,0:0:0:0:
249,234,237933,2,0,P|235:185|247:152,1,74.2500022659302,8|8,0:0|0:3,0:0:0:0:
358,214,238222,2,0,P|363:250|349:284,1,74.2500022659302,8|8,0:0|0:3,0:0:0:0:
263,339,238510,1,8,0:0:0:0:
263,339,238582,1,8,0:0:0:0:
263,339,238654,1,8,0:0:0:0:
459,279,238798,5,4,0:0:0:0:
64,163,239953,5,4,0:1:0:0:
423,60,241107,6,0,B|439:129|439:129|421:201,1,135,4|8,0:0|0:0,0:0:0:0:
338,213,241539,2,0,L|267:209,1,67.5,0|8,0:0|0:3,0:0:0:0:
191,248,241828,2,0,P|176:306|187:334,1,67.5,8|8,0:3|0:0,0:0:0:0:
293,348,242116,6,0,L|437:335,1,135,8|8,0:3|0:3,0:0:0:0:
487,270,242549,2,0,L|469:196,1,67.5,8|0,0:0|0:0,0:0:0:0:
383,196,242837,2,0,L|365:122,1,67.5,8|8,0:3|0:3,0:0:0:0:
408,52,243126,1,8,0:0:0:0:
291,86,243270,6,0,P|227:98|154:38,1,135,8|8,0:3|0:3,0:0:0:0:
96,14,243703,2,0,B|81:48|81:48|90:103,1,67.5,8|0,0:0|0:0,0:0:0:0:
141,145,243991,2,0,B|145:174|145:174|130:208,1,67.5,8|8,0:3|0:3,0:0:0:0:
130,208,244208,1,8,0:3:0:0:
130,208,244280,1,8,0:0:0:0:
51,302,244424,6,0,P|112:324|170:293,1,135,8|8,0:3|0:3,0:0:0:0:
235,233,244857,1,8,0:0:0:0:
318,259,245001,2,0,L|397:253,1,67.5,8|0,0:3|0:0,0:0:0:0:
468,280,245289,1,8,0:3:0:0:
501,198,245434,1,8,0:0:0:0:
397,113,245578,6,0,B|319:87|343:149|251:121,1,135,4|8,0:0|0:3,0:0:0:0:
222,50,246010,2,0,P|270:37|307:53,1,67.5,8|0,0:0|0:0,0:0:0:0:
267,125,246299,2,0,P|219:138|182:122,2,67.5,8|8|8,0:3|0:3|0:0,0:0:0:0:
126,75,246732,6,0,P|103:128|151:208,1,135,8|8,0:3|0:3,0:0:0:0:
197,252,247164,2,0,L|183:320,1,67.5,8|0,0:0|0:0,0:0:0:0:
271,310,247453,2,0,L|284:243,1,67.5,8|8,0:3|0:3,0:0:0:0:
371,234,247741,1,8,0:0:0:0:
283,81,248030,5,4,0:0:0:0:
203,116,248174,2,0,L|155:121,2,33.75,8|0|8,0:3|0:0|0:0,0:0:0:0:
277,162,248462,2,0,L|325:167,2,33.75,8|8|8,0:0|0:0|0:0,0:0:0:0:
202,209,248751,1,8,0:0:0:0:
202,209,248895,1,8,0:3:0:0:
312,298,249039,6,0,B|365:292|365:292|397:301|397:301|435:297|435:297|490:312|522:238|494:163|410:182|387:200,1,337.5,4|2,0:0|0:0,0:0:0:0:
366,108,250337,6,0,L|428:112,2,50.6250019311906,0|0|0,0:0|0:0|0:0,0:0:0:0:
294,108,250770,2,0,L|232:112,2,50.6250019311906,2|0|2,0:0|0:0|0:0,0:0:0:0:
137,71,251491,6,0,L|123:138,1,50.6250019311906,2|0,0:0|0:0,0:0:0:0:
63,153,251780,2,0,L|72:220,1,50.6250019311906,0|2,0:0|0:0,0:0:0:0:
23,255,252068,2,0,L|55:315,2,50.6250019311906,0|0|2,0:0|0:0|0:0,0:0:0:0:
160,291,252645,6,0,P|209:300|257:271,1,101.250003862381,0|2,0:0|0:0,0:0:0:0:
281,137,253222,2,0,L|292:191,3,50.6250019311906,0|2|0|2,0:0|0:0|0:0|0:0,0:0:0:0:
256,192,253727,12,0,256684,0:0:0:0:
