osu file format v14

[General]
AudioFilename: audio.mp3
AudioLeadIn: 0
PreviewTime: 154624
Countdown: 0
SampleSet: Soft
StackLeniency: 0.7
Mode: 0
LetterboxInBreaks: 1
WidescreenStoryboard: 1

[Editor]
Bookmarks: 39424,65024,90624,116224,141824,167424,180224,212224,253824,279424,305024,330624
DistanceSpacing: 1.1
BeatDivisor: 8
GridSize: 4
TimelineZoom: 2.699999

[Metadata]
Title:The Sampling Paradise (Extended)
TitleUnicode:The Sampling Paradise (Extended)
Artist:Mamonis
ArtistUnicode:Mamonis
Creator:RLC
Version:LET'S GET SCRATCHIN'
Source:beatmania IIDX 19 Lincle
Tags:kors k reflec beat limelight hard trance
BeatmapID:1255922
BeatmapSetID:472639

[Difficulty]
HPDrainRate:7.5
CircleSize:4
OverallDifficulty:8
ApproachRate:9.4
SliderMultiplier:2.8
SliderTickRate:1

[Events]
//Background and Video events
0,0,"bg.jpg",0,0
//Break Periods
2,144624,147684
2,150624,154084
//Storyboard Layer 0 (Background)
//Storyboard Layer 1 (Fail)
//Storyboard Layer 2 (Pass)
//Storyboard Layer 3 (Foreground)
//Storyboard Sound Samples

[TimingPoints]
1024,400,4,2,2,60,1,0
1024,-133.333333333333,4,2,2,60,0,0
6224,-200,4,2,2,60,0,0
6624,-133.333333333333,4,2,2,60,0,0
7024,-200,4,2,2,60,0,0
7424,-133.333333333333,4,2,2,60,0,0
13024,-100,4,2,2,60,0,0
13824,-133.333333333333,4,2,2,60,0,0
25024,-133.333333333333,4,1,2,60,0,0
26624,-133.333333333333,4,2,2,60,0,0
37124,-83.3333333333333,4,2,2,60,0,0
37424,-133.333333333333,4,2,2,60,0,0
39024,-100,4,2,1,60,0,0
39424,-133.333333333333,4,2,2,60,0,0
45824,-100,4,2,2,60,0,0
50624,-200,4,2,2,60,0,0
51424,-66.6666666666667,4,2,2,60,0,0
52224,-133.333333333333,4,2,1,60,0,0
57024,-66.6666666666667,4,2,1,60,0,0
57424,-100,4,2,1,60,0,0
57724,-133.333333333333,4,2,1,60,0,0
58624,-133.333333333333,4,2,1,48,0,0
62624,-100,4,2,1,60,0,0
63424,-133.333333333333,4,2,1,60,0,0
69024,-66.6666666666667,4,2,1,60,0,0
69424,-100,4,2,1,60,0,0
69824,-66.6666666666667,4,2,1,60,0,0
70224,-100,4,2,1,60,0,0
70524,-133.333333333333,4,2,1,60,0,0
71024,-66.6666666666667,4,2,1,60,0,0
71424,-100,4,2,1,60,0,0
72224,-133.333333333333,4,2,1,60,0,0
76224,-133.333333333333,4,2,1,60,0,0
77424,-80,4,2,1,60,0,0
77824,-100,4,2,2,60,0,0
79424,-133.333333333333,4,2,2,60,0,0
80624,-100,4,2,2,60,0,0
81024,-100,4,2,2,60,0,0
82624,-133.333333333333,4,2,2,60,0,0
83824,-100,4,2,2,60,0,0
85824,-133.333333333333,4,2,2,60,0,0
87024,-100,4,2,2,60,0,0
89024,-133.333333333333,4,2,2,60,0,0
90224,-100,4,2,2,60,0,0
100624,-133.333333333333,4,2,2,60,0,0
101824,-100,4,2,2,60,0,0
109824,-133.333333333333,4,2,2,60,0,0
113024,-100,4,2,2,60,0,0
116224,-100,4,2,2,48,0,0
134024,-100,4,2,2,48,0,0
135424,-133.333333333333,4,2,2,48,0,0
137824,-100,4,2,2,48,0,0
141024,-100,4,1,2,40,0,0
141824,-100,4,2,2,60,0,0
154624,-200,4,2,2,30,0,0
156224,-200,4,2,2,45,0,0
158524,-200,4,2,2,60,0,0
159424,-133.333333333333,4,2,2,60,0,0
160124,-100,4,2,2,60,0,0
161024,-200,4,2,2,60,0,0
162824,-133.333333333333,4,2,2,60,0,0
163324,-100,4,2,2,60,0,0
165824,-133.333333333333,4,2,2,60,0,0
166724,-100,4,2,2,60,0,0
167424,-100,4,1,2,60,0,1
168224,-133.333333333333,4,2,2,60,0,0
169024,-100,4,1,2,60,0,1
169824,-133.333333333333,4,2,2,60,0,0
170624,-100,4,1,2,60,0,1
171324,-133.333333333333,4,2,2,60,0,0
172224,-100,4,1,2,60,0,1
173024,-100,4,2,2,60,0,0
177024,-100,4,1,2,40,0,0
177824,-100,4,1,2,60,0,0
179224,-133.333333333333,4,2,2,60,0,0
180224,-100,4,1,2,60,0,1
207024,-133.333333333333,4,2,0,60,0,0
207424,-100,4,1,2,60,0,1
208324,-66.6666666666667,4,1,2,60,0,1
208624,-100,4,2,2,60,0,0
209024,-133.333333333333,4,2,2,60,0,0
209824,-133.333333333333,4,2,2,60,0,0
212424,-200,4,3,1,30,0,0
215424,-200,4,3,1,40,0,0
218624,-133.333333333333,4,3,1,50,0,0
221124,-133.333333333333,4,2,1,50,0,0
225024,-133.333333333333,4,2,2,60,0,0
225424,-100,4,2,2,60,0,0
225824,-200,4,2,2,60,0,0
226224,-80,4,2,2,60,0,0
226424,-100,4,2,2,60,0,0
227024,-133.333333333333,4,2,2,60,0,0
227724,-80,4,2,2,60,0,0
228024,-100,4,2,2,60,0,0
229824,-80,4,2,2,60,0,0
230824,-133.333333333333,4,2,2,60,0,0
231824,-80,4,2,2,60,0,0
232424,-71.4285714285714,4,2,2,60,0,0
232624,-66.6666666666667,4,2,2,60,0,0
233024,-80,4,2,2,60,0,0
233424,-133.333333333333,4,2,2,60,0,0
235424,-133.333333333333,4,2,2,60,0,0
235824,-66.6666666666667,4,2,2,60,0,0
236224,1600,4,2,2,60,1,0
236224,-83.3333333333333,4,2,2,60,0,0
237024,400,4,2,2,60,1,0
237024,-100,4,3,1,60,0,0
237824,400,4,2,2,60,1,0
238624,-133.333333333333,4,2,2,60,0,0
239024,-80,4,2,2,60,0,0
239424,-133.333333333333,4,2,2,60,0,0
239824,-100,4,2,2,60,0,0
240024,-133.333333333333,4,2,2,60,0,0
240524,-80,4,2,2,60,0,0
240824,-100,4,2,2,60,0,0
242624,-66.6666666666667,4,2,2,60,0,0
243124,-133.333333333333,4,2,2,60,0,0
243424,-100,4,2,2,60,0,0
245424,-133.333333333333,4,2,2,60,0,0
245824,-80,4,2,2,60,0,0
246524,-133.333333333333,4,2,2,60,0,0
247424,-100,4,2,2,60,0,0
248824,-80,4,2,2,60,0,0
249024,800,4,2,2,60,1,0
249024,-50,4,2,2,60,0,0
249924,-66.6666666666667,4,2,2,60,0,0
250624,400,4,2,2,60,1,0
250624,-133.333333333333,4,2,2,60,0,0
252224,-100,4,2,2,60,0,0
253424,-66.6666666666667,4,2,0,60,0,0
253824,-133.333333333333,4,2,1,60,0,0
258624,-66.6666666666667,4,2,1,60,0,0
259024,-100,4,2,1,60,0,0
259324,-133.333333333333,4,2,1,60,0,0
259824,-100,4,2,1,60,0,0
260224,-133.333333333333,4,2,1,60,0,0
263424,-200,4,2,1,60,0,0
263824,-133.333333333333,4,2,1,60,0,0
264224,-100,4,2,1,60,0,0
265024,-133.333333333333,4,2,1,60,0,0
266624,-133.333333333333,4,2,1,60,0,0
274624,-100,4,2,1,60,0,0
276224,-133.333333333333,4,2,1,60,0,0
278424,-133.333333333333,4,2,1,60,0,0
279024,-66.6666666666667,4,2,1,60,0,0
279424,-100,4,1,1,60,0,1
305024,-66.6666666666667,4,2,1,60,0,0

[Colours]
Combo1 : 255,168,36
Combo2 : 94,255,94
Combo3 : 166,77,255
Combo4 : 51,255,255

[HitObjects]
413,81,1024,5,4,1:0:0:0:
403,95,1124,2,0,L|395:159,2,52.5000020027161
485,212,1424,2,0,P|417:193|356:272,1,157.500006008148,8|0,1:0|0:0,0:0:0:0:
351,284,1824,1,0,1:0:0:0:
155,264,2024,5,0,0:0:0:0:
156,248,2124,1,0,0:0:0:0:
160,233,2224,2,0,P|176:202|193:187,1,52.5000020027161,8|0,1:0|0:0,0:0:0:0:
177,110,2424,2,0,P|211:108|233:115,1,52.5000020027161
303,156,2624,5,0,1:0:0:0:
303,156,2724,2,0,B|320:107|320:107|286:39,1,105.000004005432
101,86,3024,2,0,B|84:135|84:135|118:203,1,105.000004005432,8|0,1:0|0:0,0:0:0:0:
206,126,3324,1,0,0:0:0:0:
206,126,3424,1,0,1:0:0:0:
268,286,3624,6,0,L|216:294,1,52.5000020027161
69,255,3824,2,0,B|125:263|125:263|161:290|161:290|230:295,1,157.500006008148,8|0,1:0|0:0,0:0:0:0:
89,335,4224,5,0,1:0:0:0:
69,340,4324,2,0,L|11:350,2,52.5000020027161
210,196,4624,2,0,P|183:144|79:165,1,157.500006008148,8|0,1:0|0:0,0:0:0:0:
74,178,5024,1,0,1:0:0:0:
306,42,5224,5,0,0:0:0:0:
291,48,5324,1,0,0:0:0:0:
275,51,5424,2,0,P|230:51|216:49,1,52.5000020027161,8|0,1:0|0:0,0:0:0:0:
210,196,5624,2,0,P|255:196|269:198,1,52.5000020027161
416,122,5824,1,0,1:0:0:0:
432,137,5924,2,0,L|317:127,1,105.000004005432
312,120,6224,6,0,L|329:232,1,105,8|0,1:0|0:0,0:0:0:0:
394,278,6624,1,0,1:0:0:0:
499,213,6824,1,0,0:0:0:0:
312,120,7024,6,0,L|329:232,1,105,8|0,1:0|0:0,0:0:0:0:
105,274,7424,5,4,1:0:0:0:
105,274,7524,2,0,L|44:268,2,52.5000020027161
186,158,7824,2,0,P|249:170|283:209,1,105.000004005432,8|0,1:0|0:0,0:0:0:0:
243,326,8124,1,0,0:0:0:0:
232,338,8224,2,0,P|163:336|101:251,1,157.500006008148,0|0,1:0|0:0,0:0:0:0:
168,146,8624,1,8,1:0:0:0:
168,146,8824,2,0,L|91:156,1,52.5000020027161
20,180,9024,5,0,1:0:0:0:
15,164,9124,1,0,0:0:0:0:
275,121,9324,1,0,0:0:0:0:
272,137,9424,1,8,1:0:0:0:
119,33,9624,1,0,0:0:0:0:
152,241,9824,1,0,1:0:0:0:
128,137,10024,5,0,0:0:0:0:
128,137,10124,1,0,0:0:0:0:
128,137,10224,2,0,L|284:154,1,157.500006008148,8|0,1:0|0:0,0:0:0:0:
435,207,10624,5,0,1:0:0:0:
384,146,10724,2,0,B|332:133|332:133|275:160,1,105.000004005432
69,133,11024,2,0,L|178:144,1,105.000004005432,8|0,1:0|0:0,0:0:0:0:
227,217,11324,1,0,0:0:0:0:
212,217,11424,2,0,B|187:145|187:145|232:70,1,157.500006008148,0|0,1:0|0:0,0:0:0:0:
334,158,11824,1,8,1:0:0:0:
228,75,12024,2,0,L|221:142,1,52.5000020027161
212,217,12224,6,0,B|202:264|199:297|104:308|116:382|173:416|248:401|265:339|213:310|195:267|216:238,1,315.000012016297,4|0,1:0|0:0,0:0:0:0:
260,103,13024,5,0,0:0:0:0:
248,105,13124,1,0,0:0:0:0:
222,65,13224,5,0,0:0:0:0:
213,72,13324,1,0,0:0:0:0:
169,50,13424,5,0,0:0:0:0:
165,61,13524,1,0,0:0:0:0:
118,63,13624,5,0,0:0:0:0:
119,75,13724,1,0,0:0:0:0:
168,143,13824,5,4,1:0:0:0:
268,128,14024,1,2,0:0:0:0:
283,126,14124,1,0,0:0:0:0:
297,125,14224,2,0,L|236:133,1,52.5000020027161,8|0,1:0|0:0,0:0:0:0:
96,157,14424,1,2,0:0:0:0:
80,159,14524,2,0,L|19:167,1,52.5000020027161,0|0,0:2|1:0,0:0:0:0:
297,125,14824,2,0,L|349:118,2,52.5000020027161,0|0|8,0:0|0:0|1:0,0:0:0:0:
258,293,15224,1,0,0:0:0:0:
280,289,15324,2,0,L|398:271,1,105.000004005432,2|2,0:0|0:0,0:0:0:0:
405,271,15624,6,0,L|425:376,1,105.000004005432,0|8,0:0|1:0,1:0:0:0:
378,140,16024,1,0,0:0:0:0:
378,140,16124,1,2,0:0:0:0:
378,140,16224,1,0,1:0:0:0:
505,190,16424,2,0,L|443:204,1,52.5000020027161
322,230,16624,1,8,1:0:0:0:
322,230,16824,6,0,B|295:236|295:236|267:224,1,52.5000020027161,0|2,0:0|0:0,0:0:0:0:
207,163,17024,2,0,B|180:157|180:157|152:169,1,52.5000020027161,0|2,1:0|0:0,0:0:0:0:
74,201,17224,5,0,0:0:0:0:
206,280,17424,2,0,P|164:304|101:298,1,105.000004005432,8|0,1:0|0:0,0:0:0:0:
91,292,17724,1,2,0:0:0:0:
74,280,17824,1,0,1:0:0:0:
181,118,18024,1,0,0:0:0:0:
43,137,18224,1,8,1:0:0:0:
384,216,18424,5,0,0:0:0:0:
405,219,18524,2,0,L|470:227,1,52.5000020027161,2|0,0:0|1:0,0:0:0:0:
268,255,18724,1,2,0:0:0:0:
252,264,18824,6,0,B|231:217|231:217|253:154,2,105.000004005432,0|8|0,0:0|1:0|0:0,1:0:0:0:
310,86,19324,2,0,P|265:68|192:80,1,105.000004005432,2|0,0:0|0:0,0:0:0:0:
124,71,19624,2,0,P|130:108|145:132,1,52.5000020027161,2|0,0:2|0:0,0:0:0:0:
274,223,19824,2,0,P|238:209|210:210,1,52.5000020027161,8|0,1:0|0:0,0:0:0:0:
76,272,20024,2,0,P|105:248|118:223,1,52.5000020027161,2|0,0:2|0:0,0:0:0:0:
360,168,20224,5,4,1:0:0:0:
344,271,20424,1,2,0:0:0:0:
342,286,20524,1,0,0:0:0:0:
340,301,20624,2,0,L|350:238,1,52.5000020027161,8|0,1:0|0:0,0:0:0:0:
375,96,20824,1,0,0:0:0:0:
378,80,20924,2,0,L|388:17,1,52.5000020027161,2|0,0:0|1:0,0:0:0:0:
340,301,21224,2,0,L|331:352,2,52.5000020027161,0|0|8,0:0|0:0|1:0,0:0:0:0:
114,130,21624,1,0,0:0:0:0:
102,139,21724,2,0,L|212:147,1,105.000004005432,2|2,0:0|0:0,0:0:0:0:
225,155,22024,6,0,L|213:30,1,105.000004005432,0|8,0:0|1:0,1:0:0:0:
295,331,22424,1,0,0:0:0:0:
295,331,22524,1,2,0:0:0:0:
295,331,22624,1,0,1:0:0:0:
101,242,22824,2,0,L|162:228,1,52.5000020027161
365,116,23024,1,8,1:0:0:0:
365,116,23224,6,0,P|363:151|351:180,1,52.5000020027161,0|2,0:0|0:0,0:0:0:0:
282,245,23424,2,0,P|247:243|218:231,1,52.5000020027161,0|2,1:0|0:0,0:0:0:0:
159,164,23624,1,0,0:0:0:0:
250,34,23824,2,0,L|266:146,1,105.000004005432,8|0,1:0|0:0,0:0:0:0:
268,158,24124,1,2,0:0:0:0:
271,178,24224,1,0,1:0:0:0:
144,61,24424,1,0,0:0:0:0:
159,164,24624,1,8,1:0:0:0:
144,61,24824,1,0,0:0:0:0:
359,72,25024,5,0,1:0:0:0:
335,249,25224,1,0,1:0:0:0:
390,188,25324,2,0,B|343:162|343:162|290:184,1,105.000004005432,0|0,1:0|1:0,0:0:0:0:
228,247,25624,1,0,1:0:0:0:
228,247,25724,1,0,1:0:0:0:
213,167,25824,2,0,L|209:118,6,26.2500010013581
131,176,26224,2,0,L|121:289,1,105.000004005432
116,301,26524,1,2,0:2:0:0:
108,320,26624,5,4,1:0:0:0:
164,332,26724,1,0,0:2:0:0:
220,342,26824,2,0,L|284:327,1,52.5000020027161,2|0,0:2|0:2,0:0:0:0:
331,239,27024,2,0,L|217:230,1,105.000004005432,8|2,1:0|0:2,0:0:0:0:
417,224,27324,2,0,P|413:257|404:293,1,52.5000020027161,0|0,0:2|1:0,0:0:0:0:
153,265,27524,2,0,B|137:217|137:217|171:159,1,105.000004005432,2|2,0:2|0:2,0:0:0:0:
338,115,27824,5,8,1:0:0:0:
338,115,28024,2,0,L|332:183,1,52.5000020027161,2|0,0:2|0:0,0:0:0:0:
263,282,28224,2,0,L|269:214,1,52.5000020027161,0|0,1:0|0:0,0:0:0:0:
250,116,28424,6,0,L|252:80,4,26.2500010013581,2|0|0|0|8,0:2|0:0|0:0|0:0|1:0,0:0:0:0:
16,126,28824,1,2,0:2:0:0:
37,96,28924,1,0,0:0:0:0:
58,66,29024,1,0,1:0:0:0:
88,85,29124,1,0,0:2:0:0:
118,104,29224,1,2,0:2:0:0:
102,327,29424,2,0,L|89:216,1,105.000004005432,8|2,1:0|0:0,0:0:0:0:
149,173,29724,1,0,0:2:0:0:
157,167,29824,6,0,B|166:193|166:193|162:236,1,52.5000020027161,0|0,1:2|0:2,0:2:0:0:
236,339,30024,2,0,B|227:313|227:313|231:270,1,52.5000020027161,2|0,0:2|0:2,0:2:0:0:
295,196,30224,2,0,L|411:176,1,105.000004005432,8|2,1:0|0:0,0:0:0:0:
432,186,30524,2,0,L|373:196,1,52.5000020027161,0|0,0:2|1:0,0:0:0:0:
295,196,30724,2,0,B|278:146|278:146|303:92,1,105.000004005432,2|2,0:0|0:0,0:0:0:0:
326,90,31024,5,8,1:0:0:0:
92,31,31224,2,0,L|98:83,1,52.5000020027161,2|0,0:0|0:0,0:0:0:0:
189,231,31423,2,0,L|196:179,1,52.5000020027161,0|0,1:0|0:0,0:0:0:0:
197,46,31624,6,0,L|229:49,4,26.2500010013581,2|0|0|0|8,0:0|0:0|0:0|0:0|1:0,0:0:0:0:
152,323,32024,1,2,0:0:0:0:
193,292,32124,1,0,0:0:0:0:
232,259,32224,1,0,1:0:0:0:
208,213,32324,1,0,0:0:0:0:
180,169,32424,1,2,0:0:0:0:
57,237,32624,2,0,L|69:357,1,105.000004005432,8|2,1:0|0:0,0:0:0:0:
67,341,32924,1,0,0:0:0:0:
67,341,33024,5,0,1:0:0:0:
275,276,33224,2,0,B|326:263|326:263|373:285,1,105.000004005432,2|8,0:0|1:0,0:0:0:0:
299,121,33624,1,2,0:0:0:0:
299,121,33724,2,0,L|288:192,1,52.5000020027161,0|0,0:0|1:0,0:0:0:0:
275,276,33924,2,0,B|224:289|224:289|177:267,1,105.000004005432,2|2,0:0|0:0,0:0:0:0:
83,213,34224,5,8,1:0:0:0:
83,213,34424,2,0,L|56:149,1,52.5000020027161,2|0,0:2|0:0,0:0:0:0:
225,180,34624,2,0,L|226:116,1,52.5000020027161,0|0,1:0|0:0,0:0:0:0:
133,95,34824,6,0,L|130:64,4,26.2500010013581,2|0|0|0|8,0:0|0:0|0:0|0:0|1:0,0:0:0:0:
430,149,35224,1,2,0:0:0:0:
403,116,35324,1,0,0:0:0:0:
376,83,35424,1,0,1:0:0:0:
343,109,35524,1,0,0:0:0:0:
311,136,35624,1,2,0:0:0:0:
409,241,35824,2,0,L|296:223,1,105.000004005432,8|2,1:0|0:0,0:0:0:0:
286,233,36124,1,0,0:0:0:0:
267,243,36224,5,0,1:0:0:0:
250,187,36324,1,0,0:0:0:0:
236,130,36424,2,0,L|247:76,1,52.5000020027161,2|0,0:0|0:0,0:0:0:0:
175,261,36624,2,0,L|191:372,1,105.000004005432,8|2,1:0|0:0,0:0:0:0:
46,183,36924,2,0,L|111:173,1,52.5000020027161,0|0,0:0|1:0,0:0:0:0:
175,261,37124,6,0,B|216:239|216:239|72:264,1,167.999994873047,4|2,0:3|0:0,0:0:0:0:
12,275,37424,1,4,1:3:0:0:
387,154,37624,6,0,L|378:118,1,26.2500010013581,0|0,1:0|1:0,0:0:0:0:
375,106,37724,2,0,L|366:70,1,26.2500010013581,0|0,1:0|1:0,0:0:0:0:
365,67,37824,5,4,1:0:0:0:
287,81,38024,1,2,0:2:0:0:
287,81,38124,1,2,0:2:0:0:
203,94,38324,1,0,1:0:0:0:
203,94,38424,1,0,1:0:0:0:
120,108,38624,5,2,0:2:0:0:
376,160,38824,1,0,1:0:0:0:
85,101,39024,6,0,L|134:110,1,35,8|0,1:0|0:0,0:0:0:0:
410,166,39224,2,0,L|361:157,1,35,8|0,1:0|0:0,0:0:0:0:
195,232,39424,5,4,1:0:0:0:
195,232,39524,1,0,0:0:0:0:
195,232,39624,1,2,0:2:0:0:
195,232,39724,1,2,0:2:0:0:
195,232,39824,2,0,L|183:118,1,105.000004005432,8|2,1:0|0:2,0:0:0:0:
198,258,40124,2,0,L|204:317,2,52.5000020027161,0|0|0,0:0|1:0|0:0,0:0:0:0:
181,93,40424,1,2,0:2:0:0:
181,93,40524,1,2,0:2:0:0:
138,115,40624,2,0,L|92:141,1,52.5000020027161,8|0,1:0|0:0,0:0:0:0:
227,108,40824,2,0,L|276:126,1,52.5000020027161,2|0,0:2|0:0,0:0:0:0:
466,249,41024,5,0,1:0:0:0:
466,249,41124,1,0,0:0:0:0:
466,249,41224,1,2,0:2:0:0:
466,249,41324,1,2,0:2:0:0:
466,249,41424,2,0,L|345:267,1,105.000004005432,8|2,1:0|0:2,0:0:0:0:
215,289,41724,1,0,0:0:0:0:
296,319,41824,2,0,B|311:343|311:343|309:374,1,52.5000020027161,0|0,1:0|0:0,0:0:0:0:
282,238,42024,2,0,B|287:210|287:210|275:181,1,52.5000020027161,2|2,0:2|0:2,0:0:0:0:
215,289,42224,1,8,1:0:0:0:
37,148,42424,5,2,0:2:0:0:
37,148,42524,1,0,0:0:0:0:
37,148,42624,2,0,B|66:156|66:156|93:140,1,52.5000020027161,0|0,1:0|0:0,0:0:0:0:
169,127,42824,2,0,B|198:135|198:135|225:119,1,52.5000020027161,2|2,0:2|0:2,0:0:0:0:
303,103,43024,1,8,1:0:0:0:
159,235,43224,5,2,0:2:0:0:
156,249,43324,2,0,L|139:317,1,52.5000020027161,0|0,0:0|1:0,0:0:0:0:
353,235,43524,1,0,0:0:0:0:
356,249,43624,2,0,L|373:317,1,52.5000020027161,2|2,0:2|0:2,0:0:0:0:
256,360,43824,2,0,L|256:248,1,105.000004005432,8|2,1:0|0:2,0:0:0:0:
256,232,44124,1,0,0:0:0:0:
308,161,44224,6,0,B|340:158|340:158|363:174,1,52.5000020027161,0|0,1:0|0:0,0:0:0:0:
471,132,44424,2,0,B|439:135|439:135|416:119,1,52.5000020027161,2|2,0:2|0:2,0:0:0:0:
333,56,44624,1,8,1:0:0:0:
401,250,44824,5,2,0:2:0:0:
394,279,44924,2,0,L|378:345,1,52.5000020027161,0|0,0:0|1:0,0:0:0:0:
111,250,45124,1,0,0:0:0:0:
118,279,45224,2,0,L|134:345,1,52.5000020027161,2|2,0:2|0:2,0:0:0:0:
256,288,45424,1,8,0:1:0:0:
256,288,45624,1,2,0:2:0:0:
104,168,45824,6,0,B|139:176|139:176|175:157,1,70,4|0,1:0|0:0,0:0:0:0:
267,45,46024,2,0,B|302:37|302:37|338:56,1,70,2|2,0:2|0:2,0:0:0:0:
428,148,46224,2,0,L|276:134,1,140,8|2,1:0|0:2,0:0:0:0:
288,135,46524,1,0,0:0:0:0:
288,167,46624,6,0,B|279:202|279:202|296:247,1,70,0|0,1:0|0:0,0:0:0:0:
373,294,46824,2,0,L|378:218,1,70,2|2,0:2|0:2,0:0:0:0:
460,282,47024,2,0,B|469:317|469:317|452:362,1,70,8|0,1:0|0:0,0:0:0:0:
290,317,47224,1,2,0:2:0:0:
290,317,47324,1,2,0:2:0:0:
290,317,47424,6,0,P|249:324|219:341,1,70,0|0,1:0|0:0,0:0:0:0:
100,232,47624,2,0,P|141:239|171:256,1,70,2|2,0:2|0:2,0:0:0:0:
304,110,47824,2,0,P|247:112|175:155,1,140,8|2,1:0|0:2,0:0:0:0:
240,202,48124,1,0,0:0:0:0:
157,165,48224,6,0,L|141:85,1,70,0|0,1:0|0:0,0:0:0:0:
326,123,48424,2,0,L|341:43,1,70,2|2,0:2|0:2,0:0:0:0:
168,86,48624,2,0,L|152:6,1,70,8|0,1:0|0:0,0:0:0:0:
340,217,48824,1,2,0:2:0:0:
340,217,48924,1,2,0:2:0:0:
340,217,49024,6,0,P|405:245|489:238,1,140,0|2,1:0|0:2,0:0:0:0:
249,211,49324,1,2,0:2:0:0:
179,271,49424,2,0,P|114:299|30:292,1,140,8|2,1:0|0:2,0:0:0:0:
259,300,49724,1,2,0:2:0:0:
341,311,49824,6,0,P|355:357|358:380,1,70,0|0,1:0|0:0,0:0:0:0:
249,211,50024,2,0,P|254:176|265:143,1,70,2|2,0:2|0:2,0:0:0:0:
404,181,50224,2,0,L|328:194,1,70,8|0,1:0|0:0,0:0:0:0:
147,52,50424,2,0,L|223:65,1,70,2|2,0:2|0:2,0:0:0:0:
357,97,50624,6,2,B|287:106|287:106|255:162|255:162|181:174,1,210,0|0,1:1|0:1,0:1:0:0:
150,229,51424,6,0,B|143:106|143:106|179:131|179:131|182:199,1,210.000008010865,0|0,1:0|0:0,0:0:0:0:
355,313,51824,2,0,B|362:190|362:190|326:215|326:215|323:283,1,210.000008010865,0|0,1:0|0:0,0:0:0:0:
69,144,52224,6,0,L|78:195,2,52.5000020027161,4|0|0,1:0|0:0|0:0,0:0:0:0:
121,367,52624,2,0,L|136:252,1,105.000004005432,8|0,0:0|0:0,0:0:0:0:
140,236,52924,1,0,0:0:0:0:
53,272,53024,5,0,1:0:0:0:
208,362,53224,1,0,1:0:0:0:
319,160,53424,2,0,L|322:228,1,52.5000020027161,8|0,0:0|0:0,0:0:0:0:
318,281,53624,2,0,L|321:213,1,52.5000020027161
406,208,53824,5,0,1:0:0:0:
186,232,54024,2,0,L|251:223,1,52.5000020027161
465,143,54224,2,0,B|397:124|397:124|356:141,1,105.000004005432,8|0,0:0|0:0,0:0:0:0:
344,150,54490,2,0,L|339:93,2,35.0000013351441,0|0|0,0:0|0:0|1:0,0:0:0:0:
363,356,54824,1,8,0:0:0:0:
339,101,55024,1,0,1:0:0:0:
359,333,55224,2,0,L|354:269,1,52.5000020027161,0|0,1:0|0:0,0:0:0:0:
238,171,55424,6,0,L|185:166,2,52.5000020027161,0|0|0,1:0|0:0|0:0,0:0:0:0:
266,84,55724,1,0,0:0:0:0:
175,61,55824,2,0,L|188:188,1,105.000004005432,8|0,0:0|0:0,0:0:0:0:
199,250,56124,1,0,0:0:0:0:
201,266,56224,5,0,1:0:0:0:
277,80,56424,1,0,1:0:0:0:
33,176,56624,5,8,0:0:0:0:
101,149,56724,1,0,0:0:0:0:
167,179,56824,1,0,0:0:0:0:
234,149,56924,1,0,0:0:0:0:
278,232,57024,6,0,B|295:284|266:332|247:372|271:431|322:412|353:355|320:306|249:310|172:358,1,315.000012016297,0|0,1:0|0:0,0:0:0:0:
54,294,57424,6,0,B|33:270|33:270|150:292,1,140,8|8,0:0|0:0,0:0:0:0:
205,340,57724,6,0,L|322:327,1,105.000004005432,0|0,1:0|0:0,0:0:0:0:
215,182,58024,2,0,L|281:175,1,52.5000020027161,0|0,1:0|0:0,0:0:0:0:
197,356,58224,6,0,L|366:340,1,157.500006008148,8|0,0:0|0:0,0:0:0:0:
410,270,58624,5,6,1:1:0:0:
401,93,58824,2,0,L|405:165,1,52.5000020027161,0|0,1:0|0:0,0:0:0:0:
411,289,59024,1,8,0:0:0:0:
335,161,59224,2,2,B|403:119|403:119|476:151,1,157.500006008148,0|2,1:1|0:1,0:1:0:0:
484,225,59624,1,0,1:0:0:0:
217,280,59824,2,0,L|212:332,1,52.5000020027161,8|0,0:0|1:0,0:0:0:0:
281,226,60024,1,10,0:1:0:0:
228,165,60124,1,0,0:0:0:0:
164,219,60224,6,2,B|116:236|116:236|58:208,1,105.000004005432,0|2,1:1|0:1,0:1:0:0:
274,88,60524,2,0,L|334:94,1,52.5000020027161,0|8,1:0|0:0,0:0:0:0:
145,137,60824,2,2,B|202:143|202:143|234:170|234:170|302:175,1,157.500006008148,0|0,1:1|0:1,0:1:0:0:
361,250,61224,2,0,L|397:246,2,26.2500010013581,0|0|0,1:0|1:0|1:0,0:0:0:0:
364,220,61424,2,2,L|375:109,1,105.000004005432,8|2,0:1|0:1,0:1:0:0:
343,45,61724,1,8,0:0:0:0:
419,53,61824,5,2,1:1:0:0:
328,317,62224,1,10,0:1:0:0:
317,312,62324,1,0,0:0:0:0:
253,282,62424,1,0,0:0:0:0:
242,287,62524,1,0,0:0:0:0:
177,308,62624,6,2,B|148:290|148:290|144:220|144:220|177:191,1,140,8|2,0:1|1:1,0:1:0:0:
334,76,63024,2,2,B|363:94|363:94|367:164|367:164|334:193,1,140,10|8,0:1|0:1,0:1:0:0:
250,129,63324,1,8,0:0:0:0:
255,205,63424,6,0,B|283:272|224:282|261:359,1,157.500006008148,4|0,1:0|0:0,0:0:0:0:
336,312,63824,5,2,0:3:0:0:
79,255,64024,2,0,L|168:242,1,78.7500030040742,4|2,0:3|0:3,0:0:0:0:
176,242,64224,1,8,0:3:0:0:
408,158,64424,1,4,0:3:0:0:
260,357,64624,1,2,0:3:0:0:
265,114,64824,1,4,0:2:0:0:
454,321,65024,6,0,B|379:343|379:343|306:279,1,157.500006008148,4|0,1:0|0:0,0:0:0:0:
347,216,65424,1,8,0:0:0:0:
162,296,65624,2,0,P|195:293|233:272,1,52.5000020027161
347,216,65824,1,0,1:0:0:0:
254,374,66024,1,0,1:0:0:0:
283,80,66224,2,0,L|278:143,1,52.5000020027161,8|0,0:0|0:0,0:0:0:0:
273,207,66424,2,0,L|278:144,1,52.5000020027161
152,119,66624,6,0,L|217:133,2,52.5000020027161,0|0|0,1:0|0:0|0:0,0:0:0:0:
376,192,67024,2,0,L|251:210,1,105.000004005432,8|0,0:0|0:0,0:0:0:0:
188,263,67324,2,0,L|162:258,1,26.2500010013581
146,254,67424,6,0,L|133:366,1,105.000004005432,0|8,1:0|0:0,0:0:0:0:
155,167,67724,1,0,0:0:0:0:
42,182,67824,2,0,L|48:256,1,52.5000020027161,0|0,1:0|0:0,0:0:0:0:
163,94,68024,2,0,L|157:168,1,52.5000020027161,0|0,1:0|0:0,0:0:0:0:
244,262,68224,5,0,1:0:0:0:
291,239,68324,1,2,0:2:0:0:
340,256,68424,1,2,0:2:0:0:
388,235,68524,1,2,0:2:0:0:
438,163,68624,5,8,0:2:0:0:
391,140,68724,1,2,0:2:0:0:
342,157,68824,1,2,0:2:0:0:
294,136,68924,1,2,0:2:0:0:
251,154,69024,6,2,B|223:116|223:116|248:44,1,105.000004005432,0|2,1:1|0:1,0:1:0:0:
449,0,69224,2,2,B|477:38|477:38|458:92,1,105.000004005432,0|2,1:1|0:1,0:1:0:0:
366,270,69424,2,2,L|356:103,1,140,10|0,0:1|0:1,0:1:0:0:
354,53,69724,1,0,0:0:0:0:
251,154,69824,6,0,B|219:195|186:263|125:233|127:184|142:128|224:197|258:269|315:220,1,315.000012016297,0|0,1:0|0:0,0:0:0:0:
400,152,70224,6,0,B|427:118|427:118|316:143,1,140,8|8,0:0|0:0,0:0:0:0:
251,154,70524,6,0,L|241:266,1,105.000004005432,0|0,1:0|0:0,0:0:0:0:
157,246,70824,1,0,1:0:0:0:
157,246,70924,1,0,0:0:0:0:
157,246,71024,6,0,B|109:240|109:240|80:271|80:271|23:281,2,140.000005340576,10|0|2,0:0|0:2|0:2,0:0:0:0:
41,195,71424,6,0,B|28:101|28:101|59:134,1,140,4|0,1:0|1:0,0:0:0:0:
149,332,71824,1,8,0:0:0:0:
149,152,72024,1,0,0:0:0:0:
149,152,72124,1,0,0:0:0:0:
149,152,72224,2,0,L|267:164,1,105.000004005432,0|0,0:0|1:0,0:0:0:0:
295,168,72524,1,0,0:0:0:0:
239,87,72624,1,8,0:0:0:0:
280,83,72724,1,2,1:2:0:0:
321,79,72824,1,2,1:2:0:0:
362,76,72924,1,10,0:2:0:0:
338,172,73024,5,0,1:0:0:0:
379,176,73124,1,2,0:2:0:0:
420,180,73224,1,2,0:2:0:0:
461,183,73324,1,2,1:2:0:0:
476,230,73424,6,0,L|468:308,1,52.5000020027161,8|2,0:0|0:2,0:0:0:0:
330,359,73624,2,0,L|322:281,1,52.5000020027161,2|2,1:2|0:2,0:0:0:0:
229,184,73824,2,0,B|270:153|270:153|325:168,1,105.000004005432
357,244,74124,2,0,L|371:280,1,26.2500010013581,0|0,1:0|1:0,0:0:0:0:
345,242,74224,2,0,L|229:235,1,105.000004005432,8|8,0:0|0:0,0:0:0:0:
214,236,74524,1,8,0:0:0:0:
226,309,74624,6,0,L|234:381,1,52.5000020027161,0|2,1:0|0:2,0:0:0:0:
101,211,74824,2,0,L|93:283,1,52.5000020027161,0|2,1:0|0:2,0:0:0:0:
273,119,75024,2,0,L|290:227,1,105.000004005432,8|2,1:0|1:2,0:0:0:0:
203,88,75324,1,2,0:2:0:0:
191,167,75424,6,0,L|183:235,1,52.5000020027161,0|2,1:0|0:2,0:0:0:0:
350,91,75624,2,0,L|361:160,1,52.5000020027161,0|2,1:0|0:2,0:0:0:0:
131,33,75824,2,0,L|114:141,1,105.000004005432,8|10,1:0|1:2,0:0:0:0:
99,212,76124,1,10,1:2:0:0:
44,131,76224,5,6,1:1:0:0:
90,115,76324,1,0,0:0:0:0:
138,122,76424,1,0,0:0:0:0:
173,155,76524,1,0,0:0:0:0:
226,79,76624,2,0,P|276:73|335:72,1,105.000004005432,2|0,0:1|0:0,0:0:0:0:
330,71,77024,1,2,0:1:0:0:
449,53,77424,6,2,P|344:61|418:136,1,262.5,0|0,0:0|0:1,0:1:0:0:
449,161,77824,6,0,B|417:137|417:137|429:241,1,140,4|2,1:0|0:2,0:0:0:0:
406,328,78124,2,0,L|491:320,2,70,0|8|0,0:0|1:0|0:0,0:0:0:0:
334,266,78424,1,2,0:2:0:0:
334,266,78524,2,0,B|284:260|284:260|245:281|245:281|181:275,1,140
111,305,78824,2,0,P|111:270|115:235,2,70,2|0|8,0:2|0:0|1:0,0:0:0:0:
346,172,79224,1,2,0:1:0:0:
212,78,79424,6,0,L|218:199,1,105.000004005432,0|0,1:0|0:0,0:0:0:0:
86,162,79724,1,0,0:0:0:0:
74,151,79824,2,0,P|107:139|145:143,1,52.5000020027161,8|0,1:0|0:0,0:0:0:0:
226,271,80024,2,0,P|199:268|175:258,1,52.5000020027161
294,118,80224,1,0,1:0:0:0:
299,75,80324,2,0,L|306:4,2,52.5000020027161
343,197,80624,2,2,B|301:163|301:163|204:185,1,140,8|2,1:1|0:1,0:1:0:0:
436,224,81024,6,0,L|508:235,2,70,0|0|2,1:0|0:0|0:2,0:0:0:0:
356,127,81324,2,0,B|381:199|314:185|355:276,1,140
349,261,81624,1,2,0:2:0:0:
349,261,81724,1,0,0:0:0:0:
270,307,81824,2,0,P|261:273|260:238,1,70,0|0,1:0|0:0,0:0:0:0:
438,84,82024,2,0,P|446:117|447:152,2,70,2|0|8,0:2|0:0|1:0,0:0:0:0:
165,266,82424,1,2,0:1:0:0:
220,46,82624,6,0,P|191:43|159:44,1,52.5000020027161,0|0,1:0|0:0,0:0:0:0:
15,174,82824,2,0,P|44:177|76:176,1,52.5000020027161
165,266,83024,2,0,P|171:214|164:156,1,105.000004005432,8|0,1:0|0:0,0:0:0:0:
157,137,83324,1,0,0:0:0:0:
249,122,83424,2,0,P|248:148|239:180,1,52.5000020027161,0|0,1:0|0:0,0:0:0:0:
165,266,83624,2,0,P|188:253|220:245,1,52.5000020027161
426,270,83824,2,2,P|360:270|293:232,1,140,8|2,1:1|0:1,0:1:0:0:
413,63,84224,6,0,B|373:95|373:95|385:198,1,140,4|2,1:0|0:2,0:0:0:0:
426,270,84524,2,0,L|419:362,2,70,0|8|0,0:0|1:0|0:0,0:0:0:0:
492,196,84824,1,2,0:2:0:0:
492,196,84924,2,0,B|427:174|427:174|346:204,1,140
292,70,85224,2,0,L|297:139,2,70,2|0|8,0:2|0:0|1:0,0:0:0:0:
116,231,85624,1,2,0:1:0:0:
199,63,85824,5,0,1:0:0:0:
201,94,85924,2,0,L|210:209,1,105.000004005432
284,291,86224,2,0,P|235:278|166:283,1,105.000004005432,8|0,1:0|0:0,0:0:0:0:
37,347,86524,1,0,0:0:0:0:
67,355,86624,2,0,P|115:349|136:334,1,52.5000020027161,0|0,1:0|0:0,0:0:0:0:
229,197,86824,2,0,P|255:196|279:204,1,52.5000020027161
421,226,87024,2,2,L|401:382,1,140,8|2,1:1|0:1,0:1:0:0:
281,118,87424,6,0,L|212:105,2,70,0|0|2,1:0|0:0|0:2,0:0:0:0:
293,245,87724,2,0,B|260:197|260:197|284:110,1,140
355,179,88024,1,2,0:2:0:0:
355,179,88124,1,0,0:0:0:0:
293,245,88224,2,0,L|280:321,1,70,0|0,1:0|0:0,0:0:0:0:
399,290,88424,2,0,L|412:366,2,70,2|0|8,0:2|0:0|1:0,0:0:0:0:
181,343,88824,1,2,0:1:0:0:
231,161,89024,6,0,P|216:196|194:225,1,52.5000020027161,0|0,1:0|0:0,0:0:0:0:
181,343,89224,2,0,P|167:303|164:274,1,52.5000020027161
13,194,89424,2,0,P|70:202|130:232,1,105.000004005432,8|0,1:0|0:0,0:0:0:0:
242,79,89724,1,0,0:0:0:0:
242,79,89824,2,0,P|210:81|172:96,1,52.5000020027161,0|0,1:0|0:0,0:0:0:0:
69,289,90024,2,0,L|63:330,4,26.2500010013581,0|0|0|0|8,1:0|1:0|1:0|1:0|1:0,0:0:0:0:
71,104,90424,2,0,L|76:174,1,70,2|0,0:1|0:0,0:0:0:0:
63,339,90624,6,0,L|80:188,1,140,4|2,1:0|0:2,0:0:0:0:
177,141,90924,1,0,0:0:0:0:
182,164,91024,2,0,P|186:207|187:240,1,70,8|0,1:0|0:0,0:0:0:0:
190,322,91224,2,0,P|186:279|185:246,1,70,2|0,0:2|0:0,0:0:0:0:
354,237,91424,1,0,1:0:0:0:
298,303,91524,2,0,B|270:237|270:237|299:175,1,140
436,218,91824,2,2,L|426:357,1,140,8|2,1:1|0:1,0:1:0:0:
302,190,92224,6,0,P|258:206|229:208,1,70,0|0,1:0|0:0,0:0:0:0:
276,34,92424,2,0,P|311:64|328:88,1,70,2|0,0:2|0:0,0:0:0:0:
461,135,92624,1,8,1:0:0:0:
461,135,92724,2,0,P|399:112|313:120,1,140
193,78,93024,2,0,P|241:75|273:68,1,70,0|0,1:0|0:0,0:0:0:0:
328,207,93224,2,0,P|293:201|258:199,1,70,2|0,0:2|0:0,0:0:0:0:
53,141,93424,2,2,P|115:164|201:156,1,140,8|2,1:1|0:1,0:1:0:0:
213,151,93724,1,0,0:0:0:0:
142,61,93824,6,0,L|130:138,2,70,0|0|2,1:0|0:0|0:2,0:0:0:0:
263,223,94124,2,0,B|200:193|200:193|120:219,1,140
100,300,94424,1,2,0:2:0:0:
100,300,94524,1,0,0:0:0:0:
197,362,94624,2,0,P|194:314|187:277,1,70,0|0,1:0|0:0,0:0:0:0:
263,223,94824,2,0,P|266:175|273:138,1,70,2|0,0:2|0:0,0:0:0:0:
381,194,95024,2,2,B|418:237|418:237|399:334,1,140,8|2,1:1|0:1,0:1:0:0:
77,153,95424,6,0,P|127:145|166:132,1,70,0|0,1:0|0:0,0:0:0:0:
283,87,95624,2,0,P|238:63|128:62,1,140,2|8,0:2|1:0,0:0:0:0:
306,290,96024,2,0,P|305:255|310:220,1,70,2|0,0:2|0:0,0:0:0:0:
236,191,96224,1,0,1:0:0:0:
236,191,96324,2,0,P|288:192|379:152,1,140
431,103,96624,1,8,1:0:0:0:
507,143,96724,6,2,L|367:159,1,140,0|0,0:1|0:1,0:1:0:0:
313,77,97024,6,0,B|272:47|272:47|288:155,1,140,4|2,1:0|0:2,0:0:0:0:
283,223,97324,1,0,0:0:0:0:
283,223,97424,2,0,L|215:211,1,70,8|0,1:0|0:0,0:0:0:0:
120,42,97624,2,0,L|188:54,1,70,2|0,0:2|0:0,0:0:0:0:
430,150,97824,1,0,1:0:0:0:
448,74,97924,2,0,P|396:60|308:79,1,140
277,10,98224,2,2,L|293:164,1,140,8|2,1:1|0:1,0:1:0:0:
123,348,98624,6,0,L|139:264,1,70,0|0,1:0|0:0,0:0:0:0:
113,197,98824,2,0,L|70:189,2,35,2|0|0,0:2|0:0|0:0,0:0:0:0:
282,220,99024,2,0,P|240:239|200:241,1,70,8|0,1:0|0:0,0:0:0:0:
16,126,99224,2,0,P|58:107|98:105,1,70,2|0,0:2|0:0,0:0:0:0:
197,82,99424,2,0,B|163:61|163:61|182:168,1,140,0|2,1:0|0:2,0:0:0:0:
282,220,99724,1,0,0:0:0:0:
291,126,99824,2,0,L|285:205,1,70,8|0,1:0|0:0,0:0:0:0:
484,150,100024,2,0,L|478:229,1,70,2|0,0:1|0:0,0:0:0:0:
298,51,100224,6,0,B|285:196|285:196|311:165|351:159,1,210,4|0,1:0|0:0,0:0:0:0:
411,234,100624,2,0,L|351:243,1,52.5000020027161,8|0,1:0|0:0,0:0:0:0:
230,334,100824,2,0,L|281:341,1,52.5000020027161,0|0,1:0|0:0,0:0:0:0:
394,374,101024,2,0,L|391:325,2,35.0000013351441,0|0|0,1:0|1:0|1:0,0:0:0:0:
279,247,101224,2,0,L|285:189,1,52.5000020027161,0|0,1:0|1:0,0:0:0:0:
462,150,101424,1,8,1:0:0:0:
255,27,101624,1,2,1:1:0:0:
188,205,101824,6,2,P|263:193|325:153,1,140,0|0,1:1|0:1,0:1:0:0:
387,198,102124,1,2,1:1:0:0:
355,274,102224,2,0,P|326:254|301:215,1,70,0|0,1:0|0:0,0:0:0:0:
453,149,102424,2,0,P|465:188|457:232,1,70,2|0,1:1|1:0,0:0:0:0:
244,292,102624,5,2,1:1:0:0:
256,192,102724,1,0,1:0:0:0:
268,92,102824,1,2,1:1:0:0:
78,202,103024,6,0,L|85:278,1,70,2|0,0:1|0:0,0:0:0:0:
66,193,103224,2,0,L|73:269,1,70,2|0,0:1|0:0,0:0:0:0:
60,108,103424,6,0,B|104:100|132:68|132:68|124:132|136:164|172:192,1,210,4|2,1:0|0:2,0:0:0:0:
259,177,103824,1,8,1:0:0:0:
259,177,103924,2,0,B|231:110|231:110|266:41,1,140,2|0,0:2|0:0,0:0:0:0:
390,96,104224,2,0,P|349:112|316:113,1,70,0|0,1:0|0:0,0:0:0:0:
205,250,104424,2,0,P|246:266|279:267,1,70,2|0,0:2|0:0,0:0:0:0:
471,234,104624,2,2,P|396:199|318:208,1,140,8|2,1:1|0:1,0:1:0:0:
340,201,104924,1,0,0:0:0:0:
340,201,105024,6,0,P|347:248|351:294,1,70,0|0,1:0|0:0,0:0:0:0:
172,126,105224,2,0,P|165:172|161:218,1,70,2|0,0:2|0:0,0:0:0:0:
243,330,105424,2,0,P|253:254|246:171,1,140,8|2,1:0|0:2,0:0:0:0:
172,126,105724,2,0,B|229:87|229:87|297:112,1,140
340,201,106024,2,0,L|412:191,1,70,2|0,0:2|0:0,0:0:0:0:
416,44,106224,2,0,L|344:34,2,70,8|0|2,1:1|0:1|0:1,0:1:0:0:
105,202,106624,6,0,P|57:208|25:208,1,70,0|0,1:0|0:0,0:0:0:0:
296,167,106824,2,0,L|337:163,2,35,2|0|0,0:2|0:0|0:0,0:0:0:0:
235,316,107024,2,0,P|232:281|231:246,1,70,8|0,1:0|0:0,0:0:0:0:
163,58,107224,2,0,P|162:92|159:127,1,70,2|0,0:2|0:0,0:0:0:0:
105,202,107424,2,0,B|152:209|152:209|189:241|189:241|247:249,1,140,0|2,1:0|0:2,0:0:0:0:
115,282,107724,1,0,0:0:0:0:
229,165,107824,2,0,L|298:158,1,70,8|0,1:0|0:0,0:0:0:0:
175,352,108024,2,0,L|255:344,1,70,2|0,0:1|0:0,0:0:0:0:
504,274,108224,6,0,P|451:251|367:259,1,140,0|2,1:0|0:2,0:0:0:0:
347,185,108524,2,0,L|332:339,1,140
333,324,108824,2,0,P|295:326|252:317,1,70,2|0,0:2|0:0,0:0:0:0:
186,177,109024,1,0,1:0:0:0:
186,177,109124,1,0,0:0:0:0:
186,177,109224,2,0,P|223:174|267:184,1,70,2|0,0:2|0:0,0:0:0:0:
288,104,109424,2,2,P|288:173|313:238,1,140,8|2,1:1|0:1,0:1:0:0:
394,269,109724,1,0,0:0:0:0:
394,269,109824,6,0,L|227:281,1,157.500006008148,4|0,1:0|1:0,0:0:0:0:
89,267,110224,1,8,1:0:0:0:
156,324,110324,1,0,1:0:0:0:
171,238,110424,2,0,L|177:173,1,52.5000020027161,0|0,1:0|0:0,0:0:0:0:
188,94,110624,5,4,1:0:0:0:
327,81,110824,1,0,1:0:0:0:
191,73,111024,1,8,1:0:0:0:
325,58,111224,2,0,L|361:54,2,26.2500010013581,2|0|0,1:1|1:0|1:0,0:0:0:0:
264,110,111424,6,0,L|275:228,1,105.000004005432,4|0,1:0|0:0,0:0:0:0:
277,246,111724,1,0,1:0:0:0:
376,199,111824,1,8,1:0:0:0:
370,254,111924,1,0,1:0:0:0:
364,308,112024,1,0,1:0:0:0:
68,106,112224,5,0,1:0:0:0:
133,73,112324,1,0,1:0:0:0:
205,86,112424,1,0,1:0:0:0:
252,142,112524,1,0,1:0:0:0:
303,194,112624,1,8,1:0:0:0:
376,199,112724,1,0,1:0:0:0:
440,163,112824,2,0,L|436:93,1,52.5000020027161,2|0,1:1|1:0,0:0:0:0:
388,32,113024,6,0,P|352:40|300:44,1,70,4|0,1:0|0:0,0:0:0:0:
120,172,113224,2,0,P|154:175|188:183,1,70,0|0,1:0|0:0,0:0:0:0:
368,336,113424,1,8,1:0:0:0:
400,268,113524,2,0,P|344:264|252:292,1,140,0|0,1:0|1:0,0:0:0:0:
192,340,113824,6,0,P|184:300|184:264,2,70,0|0|0,0:0|1:0|0:0,0:0:0:0:
308,104,114124,2,0,B|348:140|348:140|324:232,1,140,0|0,1:0|1:0,0:0:0:0:
232,48,114424,1,0,1:0:0:0:
232,48,114524,1,0,1:0:0:0:
232,48,114624,1,0,1:1:0:0:
256,192,114824,12,0,115824,0:0:0:0:
178,39,116224,6,0,L|162:131,1,70,2|0,1:1|0:0,0:0:0:0:
150,198,116424,2,2,L|166:106,1,70,0|2,0:1|0:1,0:1:0:0:
178,39,116624,2,0,L|89:52,1,70,8|0,1:0|0:0,0:0:0:0:
80,208,116824,2,0,L|169:195,1,70,2|0,0:2|0:0,0:0:0:0:
280,127,117024,5,0,1:0:0:0:
280,127,117124,2,0,L|424:143,1,140,0|2,0:0|0:1,0:0:0:0:
419,142,117424,1,8,1:0:0:0:
184,220,117624,2,2,L|167:392,2,140,0|0|2,0:1|1:1|0:1,0:1:0:0:
309,129,118124,1,2,0:1:0:0:
309,129,118224,2,2,P|275:141|230:140,1,70,8|2,1:1|0:1,0:1:0:0:
189,66,118424,2,0,P|223:54|268:55,1,70,2|0,0:2|0:0,0:0:0:0:
283,226,118624,6,2,B|353:239|353:239|423:202,1,140,0|2,1:1|0:1,0:1:0:0:
387,33,118924,2,2,B|317:20|317:20|247:57,1,140,0|2,0:1|0:1,0:1:0:0:
283,226,119224,1,2,0:2:0:0:
33,133,119424,6,0,B|85:134|85:134|122:150|122:150|188:154,1,140,2|0,1:1|0:0,0:0:0:0:
283,226,119724,2,0,B|230:227|230:227|194:243|194:243|128:247,1,140,2|0,0:1|0:0,0:0:0:0:
67,295,120024,1,2,0:2:0:0:
67,295,120124,1,0,0:0:0:0:
67,295,120224,6,0,L|53:219,1,70,0|0,1:0|0:0,0:0:0:0:
261,147,120424,2,0,L|275:71,1,70
31,99,120624,2,0,L|17:23,2,70,8|0|2,1:0|0:0|0:2,0:0:0:0:
112,153,120924,1,0,0:0:0:0:
172,81,121024,6,0,B|230:55|230:55|328:97,1,140,0|0,1:0|0:0,0:0:0:0:
341,265,121324,2,2,P|344:317|351:343,1,70,0|8,0:1|1:1,0:1:0:0:
473,295,121524,2,2,P|406:264|327:270,1,140,0|2,0:1|0:1,0:1:0:0:
187,169,121824,5,0,1:0:0:0:
227,193,121924,2,0,P|282:187|307:180,1,70,0|0,0:1|0:1,0:1:0:0:
484,146,122124,1,2,0:1:0:0:
444,122,122224,2,0,P|389:128|364:135,1,70,8|0,1:0|0:0,0:0:0:0:
228,335,122424,1,2,0:1:0:0:
163,172,122624,6,0,L|249:180,1,70,2|0,1:1|0:0,0:0:0:0:
324,188,122824,2,2,L|238:180,1,70,0|2,0:1|0:1,0:1:0:0:
163,172,123024,2,0,L|143:250,1,70,8|0,1:0|0:0,0:0:0:0:
324,188,123224,2,0,L|327:264,1,70,2|0,0:2|0:0,0:0:0:0:
257,141,123424,5,0,1:0:0:0:
257,141,123524,2,0,B|224:81|224:81|243:11,1,140,0|2,0:0|0:1,0:0:0:0:
244,12,123824,1,8,1:0:0:0:
338,207,124024,2,2,B|408:226|408:226|485:184,2,140,0|0|2,0:1|1:1|0:1,0:1:0:0:
233,176,124524,1,2,0:1:0:0:
233,176,124624,2,2,P|238:210|241:245,1,70,8|2,1:1|0:1,0:1:0:0:
352,384,124824,2,0,P|356:338|361:312,1,70,2|0,0:2|0:0,0:0:0:0:
149,253,125024,6,2,B|133:353|133:353|161:303,1,140,0|2,1:1|0:1,0:1:0:0:
162,169,125324,2,2,B|178:69|178:69|150:119,1,140,0|2,0:1|0:1,0:1:0:0:
74,217,125624,1,2,0:2:0:0:
23,74,125824,6,0,B|76:80|76:80|105:96|105:96|159:102,1,140,2|0,1:1|0:0,0:0:0:0:
246,160,126124,2,0,B|299:154|299:154|328:138|328:138|381:132,1,140,2|0,0:1|0:0,0:0:0:0:
445,71,126424,1,2,0:2:0:0:
445,71,126524,1,0,0:0:0:0:
445,71,126624,6,0,B|417:47|417:47|372:51,1,70,0|0,1:0|0:0,0:0:0:0:
400,311,126824,2,0,B|365:323|365:323|346:364,1,70
341,178,127024,2,0,B|304:171|304:171|267:197,2,70,8|0|2,1:0|0:0|0:2,0:0:0:0:
320,264,127324,1,0,0:0:0:0:
225,266,127424,6,0,P|197:222|214:125,1,140,0|0,1:0|0:0,0:0:0:0:
205,137,127724,2,2,B|176:156|176:156|135:148,1,70,0|8,0:1|1:1,0:1:0:0:
0,321,127924,2,2,L|151:295,1,140,0|2,0:1|0:1,0:1:0:0:
305,276,128224,6,0,L|297:358,1,70,0|0,1:0|0:0,0:0:0:0:
468,232,128424,2,2,L|516:300,1,70,0|2,0:1|0:1,0:1:0:0:
411,359,128624,2,0,L|382:203,1,140,8|2,1:0|0:1,0:0:0:0:
385,221,128924,1,0,0:0:0:0:
385,221,129024,6,0,P|345:217|308:213,1,70,2|0,1:1|0:0,0:0:0:0:
225,205,129224,2,2,P|265:209|302:213,1,70,0|2,0:1|0:1,0:1:0:0:
468,232,129424,2,0,L|481:150,1,70,8|0,1:0|0:0,0:0:0:0:
493,83,129624,1,2,0:2:0:0:
493,83,129724,1,0,0:0:0:0:
332,68,129824,5,0,1:0:0:0:
332,68,129924,2,0,B|361:53|361:53|403:62,1,70
468,232,130124,2,0,L|296:214,1,140,2|0,0:1|0:0,0:0:0:0:
328,217,130424,1,2,0:1:0:0:
388,351,130624,5,0,1:0:0:0:
237,129,130824,2,2,B|235:161|235:161|241:178|241:178|239:208,1,70,0|2,0:1|0:1,0:1:0:0:
291,291,131024,1,8,1:0:0:0:
273,313,131124,2,2,B|226:280|226:280|241:192,1,140,2|0,0:2|0:1,0:1:0:0:
225,66,131424,6,2,B|155:48|155:48|91:85,1,140,0|2,1:1|0:1,0:1:0:0:
111,214,131724,2,2,B|181:232|181:232|245:195,1,140,0|2,0:1|0:1,0:1:0:0:
40,156,132024,1,2,0:2:0:0:
303,117,132224,6,0,B|330:167|330:167|311:261,1,140,2|0,1:1|0:0,0:0:0:0:
396,242,132524,2,0,B|379:323|379:323|406:373,1,140,2|0,0:1|0:0,0:0:0:0:
463,194,132824,2,0,P|432:167|383:160,1,70,2|0,0:2|0:0,0:0:0:0:
159,292,133024,6,0,L|248:278,1,70,0|0,1:0|0:0,0:0:0:0:
275,194,133224,2,0,L|188:206,1,70
98,193,133424,2,0,L|187:179,1,70,8|0,1:0|0:0,0:0:0:0:
390,326,133624,2,0,L|300:340,1,70,2|0,0:2|0:0,0:0:0:0:
232,362,133824,5,0,1:1:0:0:
232,362,133924,1,0,0:1:0:0:
172,289,134024,1,0,0:0:0:0:
172,289,134124,2,2,P|137:275|98:275,1,70,0|8,0:1|1:1,0:1:0:0:
23,230,134324,2,2,P|104:229|162:200,1,140,0|2,0:1|0:1,0:1:0:0:
231,135,134624,6,2,L|237:215,1,70,0|2,1:1|0:1,0:1:0:0:
126,354,134824,1,0,0:0:0:0:
98,328,134924,2,2,L|104:248,1,70,0|10,0:1|1:1,0:1:0:0:
124,71,135124,1,0,0:0:0:0:
124,71,135224,1,2,0:1:0:0:
437,155,135424,5,4,1:0:0:0:
461,29,135624,2,2,L|455:86,1,52.5000020027161,0|2,1:1|1:1,0:1:0:0:
441,159,135824,5,0,1:0:0:0:
309,148,136024,2,0,L|361:153,1,52.5000020027161,2|0,1:2|1:0,0:0:0:0:
445,163,136224,5,0,1:0:0:0:
449,167,136324,1,2,1:2:0:0:
416,358,136524,2,2,L|433:241,1,105.000004005432,2|2,1:2|0:1,0:1:0:0:
341,249,136824,2,0,L|327:188,2,52.5000020027161,2|0|0,0:1|0:0|0:0,0:0:0:0:
228,57,137224,5,0,1:0:0:0:
228,57,137324,1,2,1:1:0:0:
228,57,137424,2,0,P|209:90|202:118,1,52.5000020027161,0|2,1:0|0:1,0:0:0:0:
195,214,137624,2,0,P|202:252|214:279,1,52.5000020027161,2|0,1:2|1:0,0:0:0:0:
348,76,137824,6,0,P|311:87|269:128,1,70,2|0,1:1|0:0,0:0:0:0:
195,214,138024,2,2,P|181:252|191:309,1,70,0|2,1:1|1:1,0:1:0:0:
346,155,138224,5,0,1:0:0:0:
303,143,138324,1,0,1:0:0:0:
260,131,138424,1,2,1:1:0:0:
217,122,138524,1,0,1:0:0:0:
175,110,138624,6,2,L|169:184,3,70,2|0|2|2,1:1|0:1|1:2|1:1,0:1:0:0:
260,131,139024,5,0,1:0:0:0:
261,160,139124,1,0,1:0:0:0:
262,189,139224,1,2,1:2:0:0:
262,218,139324,1,0,1:0:0:0:
172,158,139424,5,0,1:0:0:0:
169,193,139524,1,0,1:0:0:0:
167,229,139624,1,2,1:2:0:0:
165,264,139724,1,0,1:0:0:0:
262,218,139824,5,0,1:0:0:0:
263,259,139924,1,0,1:0:0:0:
266,301,140024,1,2,1:2:0:0:
268,343,140124,1,0,1:0:0:0:
190,346,140224,6,0,L|115:357,2,70,0|0|2,1:0|1:0|1:1,0:0:0:0:
384,341,140524,1,0,1:0:0:0:
384,341,140624,2,0,P|385:296|393:260,1,70,0|2,1:0|1:1,0:0:0:0:
273,90,140824,2,0,P|278:124|278:159,1,70,0|0,1:0|1:0,0:0:0:0:
440,204,141024,6,0,L|481:210,4,35,2|0|0|0|0,0:1|0:0|0:0|0:0|0:0,0:0:0:0:
310,251,141324,2,0,L|284:283,4,35,2|0|0|0|0,0:1|0:0|0:0|0:0|0:0,0:0:0:0:
331,110,141624,2,0,L|315:71,2,35,2|0|0,0:1|0:0|0:0,0:0:0:0:
341,128,141824,6,0,B|477:111|477:111|427:176,1,210,6|2,1:1|0:1,0:1:0:0:
171,256,148224,6,0,B|35:273|35:273|85:208,1,210,2|2,0:1|0:1,0:1:0:0:
210,96,154624,5,0,0:3:0:0:
129,145,154824,1,0,0:0:0:0:
227,171,155024,1,0,0:0:0:0:
230,186,155124,1,0,0:0:0:0:
113,218,155324,1,0,0:0:0:0:
249,263,155524,1,0,0:0:0:0:
95,296,155724,1,0,0:0:0:0:
90,315,155824,2,0,L|81:362,1,35
264,337,156024,2,0,L|273:384,1,35
177,308,156224,5,0,0:3:0:0:
339,183,156424,1,0,0:0:0:0:
191,229,156624,1,0,0:0:0:0:
194,209,156724,1,0,0:2:0:0:
355,257,156924,1,0,0:0:0:0:
205,131,157124,1,0,0:2:0:0:
372,334,157324,1,0,0:0:0:0:
213,54,157524,1,0,0:0:0:0:
217,33,157624,2,0,L|227:76,1,35
262,193,157824,6,0,L|307:181,1,35,2|0,0:0|0:0,0:0:0:0:
437,204,158024,2,0,L|392:216,1,35,0|0,0:2|0:0,0:0:0:0:
239,194,158224,2,0,L|320:173,1,70,2|0,0:2|0:0,0:0:0:0:
156,207,158524,2,0,L|147:288,1,70,2|0,0:2|0:0,0:0:0:0:
190,131,158824,2,0,L|150:103,1,35,2|2,0:0|0:2,0:0:0:0:
57,168,159024,2,0,L|101:147,1,35
92,33,159224,2,0,L|87:81,1,35,2|0,0:0|0:0,0:0:0:0:
352,232,159424,6,0,P|355:184|337:124,1,105.000004005432,2|0,0:0|0:0,0:0:0:0:
429,245,159724,2,0,P|385:266|342:311,1,105.000004005432,2|0,0:0|0:0,0:0:0:0:
259,277,159990,2,0,L|220:291,1,35.0000013351441,0|0,1:0|1:0,0:0:0:0:
216,294,160124,2,2,L|205:145,1,140,2|2,1:1|1:1,0:1:0:0:
205,139,160424,1,0,1:0:0:0:
360,165,160624,6,2,L|308:171,2,46.6666666666667,0|2|0,1:1|1:1|1:1,0:1:0:0:
205,139,160824,2,2,L|209:217,1,70,0|2,1:1|1:1,0:1:0:0:
216,294,161024,5,4,1:1:0:0:
69,219,161224,2,0,L|113:195,1,35,2|0,0:2|0:0,0:0:0:0:
304,136,161424,1,0,0:0:0:0:
304,136,161524,2,0,L|289:225,1,70,2|2,0:2|0:2,0:0:0:0:
306,322,161824,5,0,0:0:0:0:
300,346,161924,1,2,0:2:0:0:
379,307,162024,1,0,0:0:0:0:
380,331,162124,1,2,0:2:0:0:
443,266,162224,1,0,0:0:0:0:
451,288,162324,1,2,0:2:0:0:
460,310,162424,2,0,L|466:263,1,35,2|2,0:2|0:2,0:0:0:0:
414,166,162624,6,0,L|352:178,1,35,2|0,0:2|0:0,0:0:0:0:
287,217,162824,2,0,L|296:268,1,52.5000020027161,2|0,1:2|0:0,0:0:0:0:
205,134,163024,1,2,1:2:0:0:
205,134,163124,1,2,1:2:0:0:
170,285,163324,6,2,B|102:301|102:301|33:254,2,140,0|0|2,1:1|1:1|1:1,0:1:0:0:
205,134,163924,1,0,1:1:0:0:
158,202,164024,1,2,1:1:0:0:
92,155,164124,1,0,1:1:0:0:
137,86,164224,6,0,L|130:41,2,35,6|0|0,1:1|0:0|0:0,0:0:0:0:
170,285,164424,2,0,L|177:330,2,35,6|0|0,1:1|0:0|0:0,0:0:0:0:
99,232,164624,6,0,L|107:277,2,35,0|0|0,1:2|0:0|0:0,0:0:0:0:
225,204,164824,2,0,L|217:249,2,35,0|0|0,1:2|0:0|0:1,0:0:0:0:
78,227,165024,6,0,L|41:223,2,35,0|0|0,1:0|0:0|0:0,0:0:0:0:
247,198,165224,2,0,L|284:194,2,35,0|0|0,1:0|0:0|0:0,0:0:0:0:
19,221,165424,6,0,L|16:186,2,35,0|0|0,1:0|0:0|0:0,0:0:0:0:
311,201,165624,2,0,L|308:235,2,35,0|0|0,1:0|0:0|0:0,0:0:0:0:
26,113,165824,5,4,1:0:0:0:
42,109,166124,2,0,B|91:92|91:92|162:104,1,105.000004005432,2|0,0:2|0:0,0:0:0:0:
264,97,166424,2,0,B|215:114|215:114|144:102,1,105.000004005432,2|0,0:2|0:0,0:0:0:0:
142,235,166724,6,0,B|130:287|130:287|141:326|141:326|125:390,2,140,2|2|2,0:2|0:2|0:2,0:0:0:0:
68,165,167224,1,2,0:2:0:0:
68,165,167324,1,2,0:2:0:0:
68,165,167424,6,0,P|103:160|144:140,1,70,6|0,0:1|0:0,0:0:0:0:
233,38,167624,2,0,P|268:43|309:63,1,70,2|0,0:1|0:0,0:0:0:0:
340,216,167824,1,0,0:0:0:0:
266,246,167924,2,2,B|224:213|224:213|249:105,1,140,2|2,0:1|0:1,0:1:0:0:
273,48,168224,6,0,L|189:59,1,52.5000020027161,0|2,0:0|0:2,0:0:0:0:
94,182,168424,2,0,L|177:170,1,52.5000020027161,0|2,0:0|0:2,0:0:0:0:
266,246,168624,2,0,L|283:358,1,105.000004005432,2|2,1:2|1:2,0:0:0:0:
286,363,168874,2,0,L|250:371,2,26.2500010013581,0|0|0,1:0|1:0|1:0,0:0:0:0:
310,359,169024,6,0,B|348:361|348:361|395:342,1,70,6|0,0:1|0:0,0:0:0:0:
192,280,169224,2,0,B|154:282|154:282|107:263,1,70,2|0,0:1|0:0,0:0:0:0:
324,146,169424,1,0,0:0:0:0:
272,92,169524,2,2,B|234:69|234:69|253:192,1,140,2|2,0:1|0:1,0:1:0:0:
314,223,169824,6,0,P|350:219|374:208,1,52.5000020027161,0|2,0:0|0:2,0:0:0:0:
477,150,170024,2,0,P|441:154|417:165,1,52.5000020027161,0|2,0:0|0:2,0:0:0:0:
304,246,170224,2,0,L|195:238,1,105.000004005432,2|2,1:2|1:2,0:0:0:0:
112,196,170474,2,0,L|115:228,2,26.2500010013581,0|0|0,1:0|1:0|1:0,0:0:0:0:
113,173,170624,6,0,B|143:156|143:156|178:165,1,70,6|0,0:1|0:0,0:0:0:0:
292,354,170824,2,0,B|262:371|262:371|227:362,1,70,2|0,0:1|0:0,0:0:0:0:
271,225,171024,2,2,B|316:203|316:203|422:224,1,140,2|2,0:1|0:1,0:1:0:0:
484,191,171324,6,0,L|468:296,1,105.000004005432,0|2,0:0|1:2,0:0:0:0:
413,146,171624,1,0,1:2:0:0:
391,293,171724,2,0,L|386:330,4,26.2500010013581,2|0|0|0|2,1:2|1:0|1:0|1:0|1:2,0:0:0:0:
415,133,172024,2,0,L|405:206,1,52.5000020027161,2|2,0:2|1:2,0:0:0:0:
271,225,172224,6,0,P|227:221|181:230,1,70,6|0,0:1|0:0,0:0:0:0:
133,312,172424,1,0,0:0:0:0:
133,312,172524,2,2,P|164:256|162:166,1,140,2|2,0:1|0:1,0:1:0:0:
234,30,172824,1,0,0:0:0:0:
234,30,172924,1,2,0:1:0:0:
180,96,173024,6,0,P|221:110|263:113,1,70
74,182,173224,2,0,P|42:214|14:231,1,70,2|2,0:2|0:2,0:0:0:0:
89,89,173424,2,0,L|78:37,2,46.6666666666667,2|2|2,0:2|0:2|0:2,0:0:0:0:
166,181,173624,2,0,P|182:220|208:252,1,70,2|2,0:2|0:2,0:0:0:0:
441,168,173824,5,4,1:0:0:0:
408,158,173924,1,0,0:0:0:0:
375,169,174024,1,2,0:2:0:0:
342,158,174124,1,0,0:0:0:0:
261,136,174224,2,0,L|271:208,3,70,0|2|0|0,1:0|0:2|0:0|0:0,0:0:0:0:
296,284,174624,5,0,0:0:0:0:
333,272,174724,1,0,0:0:0:0:
370,285,174824,1,2,0:2:0:0:
407,272,174924,1,0,0:0:0:0:
486,248,175024,2,0,L|476:317,3,70,0|2|0|0,1:0|0:2|0:0|0:0,0:0:0:0:
398,363,175424,6,0,P|355:365|318:344,1,70,0|0,1:0|0:0,0:0:0:0:
314,184,175624,2,0,P|271:182|234:203,1,70,2|0,1:2|0:0,0:0:0:0:
81,270,175824,1,0,1:0:0:0:
59,293,175924,2,2,B|131:274|121:326|219:294,1,140,0|0,1:1|0:1,0:1:0:0:
174,146,176224,2,0,P|164:190|163:229,1,70,0|0,1:0|0:0,0:0:0:0:
272,357,176424,2,0,P|282:313|283:274,1,70,2|0,1:2|0:0,0:0:0:0:
263,102,176624,1,0,1:0:0:0:
299,144,176724,1,2,1:1:0:0:
352,160,176824,1,0,1:0:0:0:
407,154,176924,1,0,1:0:0:0:
453,123,177024,6,0,L|461:32,2,70,0|2|0,0:0|0:1|0:0,0:0:0:0:
371,54,177324,1,0,0:0:0:0:
299,144,177424,2,0,L|282:61,2,70,0|2|0,0:0|0:1|0:0,0:0:0:0:
198,131,177724,1,0,0:0:0:0:
185,241,177824,2,0,L|108:197,2,70,0|2|0,0:0|0:1|0:0,0:0:0:0:
378,329,178124,1,0,0:0:0:0:
362,222,178224,6,0,L|365:260,1,35
383,221,178324,2,0,L|381:267,1,35,2|0,0:1|0:0,0:0:0:0:
406,225,178424,2,0,L|400:270,1,35
427,233,178524,2,0,L|414:278,1,35
444,244,178624,5,4,1:0:0:0:
183,165,178824,1,2,2:2:0:0:
185,241,178924,1,2,2:2:0:0:
187,317,179024,1,2,2:3:0:0:
325,165,179224,6,0,L|319:264,1,78.7500030040742,4|2,0:3|0:3,0:0:0:0:
315,322,179424,2,0,L|312:371,4,26.2500010013581,8|0|2|0|4,0:3|0:0|0:3|0:0|0:3,0:0:0:0:
59,75,179824,6,0,L|62:46,6,26.2500010013581,2|0|0|0|4|0|0,0:3|0:0|0:0|0:0|1:2|0:0|0:0,0:0:0:0:
53,96,180224,6,0,L|135:81,1,70,6|0,0:1|0:0,0:0:0:0:
295,134,180424,2,0,L|213:149,1,70,2|0,0:1|0:0,0:0:0:0:
122,302,180624,2,2,B|118:302|125:342|129:385,2,70,4|2|0,0:2|0:1|0:1,0:1:0:0:
66,121,180924,2,0,P|45:167|47:211,1,70,0|0,0:1|0:0,0:0:0:0:
122,302,181124,2,0,B|161:261|161:261|130:173,1,140,2|0,0:1|0:1,0:1:0:0:
148,89,181424,2,0,L|246:104,1,70,6|2,0:2|0:2,0:0:0:0:
275,177,181624,1,2,0:2:0:0:
336,103,181724,1,2,0:2:0:0:
389,182,181824,6,0,P|437:178|478:154,1,70,2|0,0:1|0:0,0:0:0:0:
314,281,182024,2,0,P|329:316|357:345,1,70,2|0,0:1|0:0,0:0:0:0:
512,353,182224,1,4,0:2:0:0:
512,353,182324,2,0,P|479:302|392:273,1,140,2|0,0:1|0:1,0:1:0:0:
227,295,182624,2,0,L|218:371,2,70,0|2|0,0:1|0:1|0:1,0:1:0:0:
216,155,182924,2,0,L|226:294,1,140,2|2,0:2|0:2,0:0:0:0:
130,263,183224,2,0,B|113:230|113:230|136:182,1,70,2|2,0:2|0:2,0:0:0:0:
431,191,183424,6,2,B|348:175|376:222|268:205,1,140,2|2,0:1|0:1,0:1:0:0:
216,155,183724,1,0,0:0:0:0:
319,59,183824,2,0,P|312:107|308:139,1,70,6|0,0:2|0:0,0:0:0:0:
226,294,184024,1,2,0:2:0:0:
314,346,184124,2,0,P|304:277|294:208,1,140,2|2,0:2|0:2,0:0:0:0:
293,207,184424,1,2,0:2:0:0:
293,207,184524,1,2,0:2:0:0:
394,194,184624,2,0,L|473:182,2,70,4|2|2,0:2|0:2|0:2,0:0:0:0:
187,245,184924,1,2,0:2:0:0:
243,179,185024,6,2,B|198:151|198:151|95:177,1,140,0|2,0:1|0:1,0:1:0:0:
12,283,185324,2,0,P|57:279|101:252,1,70,0|4,0:0|0:2,0:0:0:0:
256,86,185524,1,0,0:0:0:0:
256,86,185624,2,2,P|209:68|162:71,1,70,0|2,0:1|0:1,0:1:0:0:
177,350,185824,1,2,0:2:0:0:
177,350,185924,1,2,0:2:0:0:
177,350,186024,2,0,L|168:269,1,70,2|0,0:2|0:0,0:0:0:0:
151,112,186224,2,2,L|146:60,2,46.6666666666667,4|2|0,0:2|0:1|0:1,0:1:0:0:
159,194,186424,1,2,0:2:0:0:
249,145,186524,1,2,0:2:0:0:
300,235,186624,6,0,P|342:239|389:227,1,70,6|0,0:1|0:0,0:0:0:0:
354,75,186824,2,0,P|342:125|342:151,1,70,2|0,0:1|0:0,0:0:0:0:
207,333,187024,1,4,0:2:0:0:
283,359,187124,2,2,B|319:314|319:314|294:214,1,140,2|2,0:1|0:2,0:1:0:0:
289,209,187424,1,0,0:0:0:0:
418,272,187524,2,0,B|335:282,1,70,2|0,0:2|0:0,0:0:0:0:
185,111,187724,2,0,L|278:131,1,70,2|4,0:2|0:2,0:0:0:0:
378,157,187924,2,0,L|393:82,2,70,2|2|2,0:2|0:2|0:2,0:0:0:0:
167,220,188224,6,2,B|217:216|217:216|252:232|252:232|313:227,1,140,2|2,0:1|0:1,0:1:0:0:
114,318,188524,1,0,0:0:0:0:
188,368,188624,2,2,B|203:336|203:336|198:292,1,70,4|2,0:2|0:1,0:1:0:0:
91,170,188824,2,0,B|76:202|76:202|81:246,1,70,0|2,0:0|0:2,0:0:0:0:
279,149,189024,1,0,0:0:0:0:
180,158,189124,2,0,P|106:138|53:93,1,140,2|2,0:2|0:2,0:0:0:0:
240,246,189424,2,0,P|222:276|198:301,1,70,4|2,0:2|0:2,0:0:0:0:
236,76,189624,2,0,P|226:42|223:7,1,70,2|2,0:2|0:2,0:0:0:0:
372,138,189824,5,2,0:1:0:0:
155,230,190024,1,0,0:0:0:0:
334,363,190224,2,2,P|351:302|320:228,1,140,4|2,0:2|0:1,0:1:0:0:
268,169,190524,2,0,P|305:155|345:154,1,70,2|0,0:1|0:0,0:0:0:0:
448,349,190724,1,0,0:0:0:0:
496,287,190824,2,0,P|459:273|419:272,1,70
233,367,191024,1,4,0:2:0:0:
427,182,191224,2,0,L|433:146,2,35,2|0|0,0:1|0:0|0:0,0:0:0:0:
324,310,191424,5,0,0:0:0:0:
289,304,191524,2,0,L|201:294,1,70
24,190,191724,1,0,0:0:0:0:
79,197,191824,2,0,L|167:207,1,70,4|0,0:2|0:0,0:0:0:0:
388,183,192024,1,0,0:0:0:0:
311,172,192124,2,0,L|223:162,1,70
156,53,192324,6,0,B|222:26|222:26|287:64,1,140
304,369,192624,2,0,L|297:284,1,70,4|0,0:2|0:0,0:0:0:0:
218,152,192824,2,0,L|219:102,2,35
197,247,193024,6,0,P|237:241|277:222,1,70,6|0,0:1|0:0,0:0:0:0:
350,79,193224,2,0,P|335:116|331:160,1,70,2|0,0:1|0:0,0:0:0:0:
446,352,193424,1,4,0:2:0:0:
446,352,193524,2,0,P|409:282|358:239,1,140,2|0,0:1|0:0,0:0:0:0:
479,146,193824,2,2,P|447:160|413:166,1,70,0|2,0:1|0:1,0:1:0:0:
274,309,194024,2,0,P|308:315|340:329,1,70
321,149,194224,1,6,0:2:0:0:
250,117,194324,1,2,0:2:0:0:
189,165,194424,1,2,0:2:0:0:
129,213,194524,1,2,0:2:0:0:
58,181,194624,6,0,L|52:98,1,70,2|0,0:1|0:0,0:0:0:0:
185,15,194824,2,0,L|179:98,1,70,2|0,0:1|0:0,0:0:0:0:
186,301,195024,1,4,0:2:0:0:
190,274,195124,2,0,P|133:233|64:223,1,140,2|0,0:1|0:0,0:0:0:0:
273,329,195424,2,2,L|281:257,2,70,0|2|0,0:1|0:1|0:1,0:1:0:0:
293,129,195724,2,0,B|262:191|262:191|283:270,1,140,2|2,0:2|0:2,0:0:0:0:
365,248,196024,1,2,0:2:0:0:
371,162,196124,1,2,0:2:0:0:
444,210,196224,6,0,L|526:195,1,70,2|0,0:1|0:0,0:0:0:0:
293,129,196424,2,0,L|211:114,1,70,2|0,0:1|0:0,0:0:0:0:
339,372,196624,2,2,B|374:339|374:339|364:241,1,140,4|0,0:2|0:1,0:1:0:0:
111,102,196924,2,0,B|102:194|102:194|137:227,1,140,2|2,0:2|0:2,0:0:0:0:
242,266,197224,1,2,0:2:0:0:
242,266,197324,2,0,L|234:172,1,70,2|4,0:2|0:2,0:0:0:0:
212,102,197524,1,2,0:2:0:0:
285,125,197624,1,2,0:2:0:0:
351,86,197724,1,2,0:2:0:0:
420,118,197824,6,2,B|455:161|455:161|435:256,1,140,2|2,0:1|0:1,0:1:0:0:
286,352,198124,2,0,P|276:304|282:268,1,70,0|4,0:0|0:2,0:0:0:0:
285,125,198324,1,0,0:2:0:0:
351,86,198424,2,2,P|361:134|355:170,1,70,0|2,0:1|0:1,0:1:0:0:
371,306,198624,1,2,0:2:0:0:
371,306,198724,1,2,0:2:0:0:
371,306,198824,2,0,P|409:306|444:296,1,70,2|0,0:2|0:0,0:0:0:0:
278,171,199024,2,2,L|287:103,2,46.6666666666667,4|2|0,0:2|0:1|0:1,0:1:0:0:
248,345,199224,1,2,0:2:0:0:
216,253,199324,1,2,0:2:0:0:
150,324,199424,6,0,L|74:339,1,70,6|0,0:1|0:0,0:0:0:0:
209,131,199624,2,0,L|133:116,1,70,2|0,0:1|0:0,0:0:0:0:
8,255,199824,1,4,0:2:0:0:
83,242,199924,2,0,B|175:229|175:229|232:262,1,140,2|0,0:1|0:0,0:0:0:0:
289,306,200224,2,2,P|297:273|297:223,1,70,0|2,0:1|0:1,0:1:0:0:
401,107,200424,2,0,P|393:140|393:190,1,70,2|2,0:2|0:2,0:0:0:0:
246,150,200624,2,2,P|279:158|329:158,1,70,4|2,0:2|0:1,0:1:0:0:
448,264,200824,2,0,P|415:256|365:256,1,70,2|2,0:2|0:2,0:0:0:0:
154,319,201024,6,2,P|212:296|288:305,1,140,2|2,0:1|0:1,0:1:0:0:
138,189,201324,1,0,0:0:0:0:
85,260,201424,2,2,P|48:268|13:269,1,70,4|2,0:2|0:1,0:1:0:0:
214,132,201624,2,0,P|224:170|227:209,1,70,2|2,0:2|0:2,0:0:0:0:
400,342,201824,1,0,0:0:0:0:
324,366,201924,2,2,B|290:304|290:304|331:220,1,140,0|2,0:1|0:1,0:1:0:0:
403,168,202224,2,0,L|415:254,1,70,4|0,0:2|0:0,0:0:0:0:
278,87,202424,2,2,L|266:173,1,70,0|2,0:1|0:1,0:1:0:0:
123,322,202624,5,6,0:1:0:0:
376,68,202824,1,0,0:0:0:0:
95,172,203024,2,0,P|136:154|181:151,1,70
235,87,203224,1,0,0:0:0:0:
235,87,203324,2,0,P|264:165|260:240,1,140,6|0,0:1|0:0,0:0:0:0:
233,303,203624,1,0,0:0:0:0:
136,68,203824,5,6,0:1:0:0:
389,322,204024,1,0,0:0:0:0:
440,131,204224,5,4,0:0:0:0:
438,155,204324,2,0,L|431:233,1,70
301,371,204524,1,0,0:0:0:0:
295,322,204624,2,0,L|288:244,1,70
376,64,204824,1,0,0:0:0:0:
292,84,204924,2,0,L|216:101,1,70
121,182,205124,6,0,B|168:171|168:171|216:182|216:182|271:171,1,140
233,29,205424,2,0,L|223:98,1,70
169,267,205624,6,0,L|164:302,10,35
119,171,206224,5,0,0:0:0:0:
119,171,206324,2,0,L|29:153,1,70
240,371,206524,2,0,L|250:288,1,70
315,106,206724,2,0,B|356:149|356:149|343:250,1,140,2|0,0:1|2:0,0:0:0:0:
241,99,207024,5,2,0:2:0:0:
229,83,207124,1,8,0:2:0:0:
389,82,207224,5,2,0:2:0:0:
397,64,207324,1,8,0:2:0:0:
311,37,207424,6,0,L|317:122,1,70,4|0,0:1|0:0,0:0:0:0:
331,262,207624,2,0,L|337:347,1,70,2|0,0:2|0:0,0:0:0:0:
406,185,207824,1,2,0:2:0:0:
406,185,207924,2,0,L|450:189,4,35,2|0|0|0|0,0:2|0:0|0:0|0:0|0:0,0:0:0:0:
156,207,208324,2,0,P|100:211|168:156,1,210.000008010865,2|0,0:1|2:0,0:0:0:0:
248,162,208624,6,0,B|235:261|235:261|238:240|238:240|224:344,1,210
423,336,209024,6,0,P|371:332|320:344,1,105.000004005432,0|0,1:0|0:0,0:0:0:0:
145,170,209424,2,0,P|197:173|248:162,1,105.000004005432,0|0,1:0|0:0,0:0:0:0:
429,202,209824,2,0,B|384:197|355:162|355:162|353:210|330:244|291:262,1,210.000008010865,0|0,1:0|0:0,0:0:0:0:
256,192,210624,12,4,212224,1:0:0:0:
106,312,212424,6,0,L|101:271,2,35
202,267,212824,2,0,L|207:225,2,35
92,190,213224,2,0,L|87:138,1,35,2|0,0:2|0:0,0:0:0:0:
49,89,213424,2,0,P|91:77|131:91,1,70
186,114,213724,1,0,0:0:0:0:
186,114,213824,5,0,0:0:0:0:
277,106,214024,1,0,0:0:0:0:
275,123,214124,1,0,0:0:0:0:
273,140,214224,1,0,0:0:0:0:
370,102,214424,1,0,0:0:0:0:
366,134,214524,1,0,0:0:0:0:
362,167,214624,1,0,0:0:0:0:
463,93,214824,2,0,L|457:147,1,35,2|0,0:2|0:0,0:0:0:0:
449,209,215024,2,0,L|460:324,1,105
458,313,215424,6,0,L|371:305,1,70
304,269,215724,1,0,0:0:0:0:
304,269,215824,2,0,L|309:352,1,70
228,347,216124,1,0,0:0:0:0:
228,347,216224,2,0,L|223:264,1,70,0|2,0:0|0:2,0:0:0:0:
222,235,216524,1,0,0:0:0:0:
131,218,216624,2,0,L|123:346,1,105
49,126,217024,6,0,L|136:136,1,70
148,140,217324,1,0,0:0:0:0:
148,140,217424,1,0,0:0:0:0:
234,253,217624,2,0,L|229:200,2,35
301,74,218024,1,0,0:0:0:0:
301,74,218124,1,0,0:0:0:0:
301,74,218224,2,0,L|292:155,1,70,0|2,0:0|0:2,0:0:0:0:
492,250,218624,6,0,P|434:260|374:236,1,105.000004005432
364,223,218924,1,0,0:0:0:0:
364,223,219024,2,0,L|375:349,1,105.000004005432
448,164,219424,1,0,0:0:0:0:
279,142,219624,2,0,L|273:208,1,52.5000020027161,2|0,0:2|0:0,0:0:0:0:
273,289,219824,2,0,P|215:306|110:265,1,157.500006008148
21,183,220224,6,0,L|147:160,1,105.000004005432
201,106,220524,1,0,0:0:0:0:
201,106,220624,2,0,B|218:155|218:155|203:218,1,105.000004005432
194,281,220924,1,0,0:0:0:0:
194,281,221024,2,0,L|261:282,1,52.5000020027161
437,223,221224,1,0,3:0:0:0:
410,224,221324,1,0,3:0:0:0:
383,225,221424,2,0,L|316:226,1,52.5000020027161,0|0,3:0|0:0,0:0:0:0:
232,94,221624,1,0,3:0:0:0:
271,80,221724,1,0,3:0:0:0:
308,99,221824,6,0,L|302:172,1,52.5000020027161,0|0,3:0|0:0,0:0:0:0:
230,217,222024,2,0,B|216:187|216:187|228:163,1,52.5000020027161,0|0,3:0|3:0,0:0:0:0:
391,141,222224,1,0,3:0:0:0:
390,164,222324,2,0,L|383:287,1,105.000004005432,0|0,0:0|3:0,0:0:0:0:
246,313,222624,6,0,L|314:304,1,52.5000020027161,0|0,3:0|0:0,0:0:0:0:
315,129,222824,2,0,L|247:138,1,52.5000020027161,0|0,3:0|3:0,0:0:0:0:
218,223,223024,5,0,3:0:0:0:
176,218,223124,1,0,2:0:0:0:
134,213,223224,1,0,3:0:0:0:
92,208,223324,1,0,3:0:0:0:
66,242,223424,6,0,L|11:250,1,52.5000020027161,0|0,3:0|0:0,0:0:0:0:
128,84,223624,2,0,L|136:150,1,52.5000020027161,0|0,3:0|3:0,0:0:0:0:
172,309,223824,2,0,L|117:317,1,52.5000020027161,0|0,3:0|0:0,0:0:0:0:
242,143,224024,2,0,L|254:211,1,52.5000020027161,0|0,3:0|3:0,0:0:0:0:
324,121,225024,6,0,L|330:214,2,78.7500030040742,4|0|0,1:0|0:0|1:0,0:0:0:0:
262,234,225424,2,0,B|331:216|331:216|399:255,1,140,8|0,1:0|1:0,0:0:0:0:
228,159,225724,1,0,1:0:0:0:
228,159,225824,6,0,L|153:166,1,70,0|0,1:0|0:1,0:0:0:0:
76,173,226124,1,0,1:0:0:0:
34,327,226224,6,0,B|78:324|78:324|100:313|100:313|134:330|134:330|158:316|158:316|205:315,1,175,8|0,1:0|1:0,0:0:0:0:
225,313,226524,1,0,1:0:0:0:
297,259,226624,6,0,B|316:307|316:307|304:365,2,105,0|0|0,1:0|0:0|1:0,0:0:0:0:
388,186,227024,2,0,L|381:258,1,52.5000020027161,8|0,1:0|0:0,0:0:0:0:
226,180,227224,2,0,L|233:108,1,52.5000020027161,0|0,1:0|1:0,0:0:0:0:
390,260,227424,1,0,1:0:0:0:
189,258,227624,5,8,0:0:0:0:
258,326,227724,2,0,B|276:213|276:213|226:180,1,175,0|0,1:0|1:0,0:0:0:0:
98,165,228024,2,0,L|108:240,1,70,8|0,1:0|0:0,0:0:0:0:
140,314,228224,6,0,B|102:317|102:317|80:331|80:331|25:326,2,105,0|0|0,1:0|0:0|1:0,0:0:0:0:
256,332,228624,2,0,L|252:251,1,70,12|0,1:0|0:0,0:0:0:0:
347,129,228824,1,0,1:0:0:0:
347,129,228924,1,0,1:0:0:0:
347,129,229024,6,0,L|266:121,1,70,0|0,1:0|0:0,0:0:0:0:
207,51,229224,1,0,0:0:0:0:
347,129,229424,2,0,L|266:121,1,70,8|0,1:0|0:0,0:0:0:0:
198,181,229624,2,0,L|117:173,1,70,0|0,1:0|0:0,0:0:0:0:
80,277,229824,6,0,B|-15:336|-10:196|87:213|72:305|190:281,1,262.5
264,268,230224,1,0,0:0:0:0:
268,287,230324,1,0,1:0:0:0:
299,189,230424,2,0,L|305:137,4,43.75,0|0|0|0|4,0:0|0:0|0:0|0:0|1:0,0:0:0:0:
363,342,230824,2,0,B|379:237|379:237|448:320,1,210.000008010865,0|0,0:0|1:0,0:0:0:0:
379,236,231024,1,2,0:1:0:0:
399,71,231424,5,4,1:0:0:0:
399,71,231624,2,0,L|405:148,1,52.5000020027161,0|0,1:0|1:0,0:0:0:0:
430,301,231824,2,0,B|427:249|448:193|448:193|423:210|385:209,1,175,8|0,1:0|1:0,0:0:0:0:
328,272,232124,1,0,1:0:0:0:
328,272,232224,2,0,B|288:257|290:289|240:266,1,87.5,0|0,1:0|0:0,0:0:0:0:
74,243,232424,6,0,B|123:249|123:249|190:259,1,97.9999970092774,2|0,1:1|1:0,0:0:0:0:
171,255,232624,6,0,B|122:269|122:269|74:243,1,105.000004005432,10|0,1:1|1:0,0:0:0:0:
74,243,232824,6,0,B|122:228|122:228|170:254,1,105.000004005432,2|0,1:1|1:0,0:0:0:0:
321,243,233024,6,0,P|328:345|250:277,1,262.5,0|0,1:0|1:0,0:0:0:0:
258,185,233424,1,8,1:0:0:0:
331,157,233524,1,0,0:0:0:0:
404,185,233624,1,0,0:0:0:0:
477,157,233724,1,0,0:0:0:0:
398,55,233824,6,0,L|404:124,2,52.5000020027161,0|0|8,1:0|0:0|1:0,0:0:0:0:
201,99,234124,2,0,L|316:88,1,105.000004005432,0|0,1:0|1:0,0:0:0:0:
114,55,234424,2,0,L|108:124,1,52.5000020027161,8|0,1:0|0:0,0:0:0:0:
44,166,234624,5,0,1:0:0:0:
111,346,234824,1,0,1:0:0:0:
119,292,234924,1,0,1:0:0:0:
127,239,235024,2,0,L|17:253,1,105.000004005432,8|0,1:0|0:0,0:0:0:0:
198,165,235324,1,0,1:0:0:0:
209,293,235424,2,0,B|249:223|249:223|187:153,1,157.500006008148,0|0,1:0|0:0,0:0:0:0:
127,239,235824,6,0,L|135:358,1,105.000004005432,8|0,1:0|0:0,0:0:0:0:
256,86,236224,6,0,L|256:347,1,251.999992309571,2|0,0:0|0:0,0:0:0:0:
95,273,237024,6,0,L|165:300,1,70
417,273,237224,2,0,L|347:300,1,70
256,338,237424,2,0,L|256:266,1,70
256,86,237624,2,0,L|256:158,1,70
256,372,237824,5,4,1:0:0:0:
39,325,238024,2,0,P|27:287|31:240,1,70,2|0,0:2|1:0,0:0:0:0:
139,56,238224,2,0,P|167:138|150:211,1,140,8|2,1:0|1:2,0:0:0:0:
115,266,238524,1,0,1:0:0:0:
115,266,238624,2,0,L|234:275,1,105.000004005432,0|2,1:0|0:2,0:0:0:0:
302,278,238924,1,0,1:0:0:0:
339,124,239024,6,0,B|289:174|289:174|303:289,1,175,8|2,1:0|1:2,0:0:0:0:
308,363,239324,1,0,1:0:0:0:
309,362,239424,6,0,L|240:353,1,52.5000020027161,0|0,1:0|0:0,0:0:0:0:
157,204,239624,2,0,L|225:212,1,52.5000020027161,2|0,0:2|1:0,0:0:0:0:
447,231,239824,2,0,B|377:218|385:280|295:253,1,140,8|2,1:0|1:2,0:0:0:0:
337,173,240124,2,0,L|352:119,2,52.5000020027161,0|0|0,1:0|1:0|0:0,0:0:0:0:
147,261,240424,5,10,1:2:0:0:
101,199,240524,2,0,B|151:177|151:177|214:210|214:210|283:185,1,175,0|0,1:0|1:0,0:0:0:0:
222,55,240824,2,0,B|234:93|234:93|225:124,1,70,10|0,1:1|0:0,0:0:0:0:
152,364,241024,5,0,1:0:0:0:
147,261,241224,2,0,L|151:346,1,70,2|0,0:2|1:0,0:0:0:0:
17,310,241424,1,8,1:0:0:0:
300,303,241624,1,2,1:2:0:0:
300,303,241724,1,0,1:0:0:0:
300,303,241824,2,0,P|261:311|215:307,1,70,0|0,1:0|0:0,0:0:0:0:
53,174,242024,2,0,P|92:166|138:170,1,70,2|0,0:2|1:0,0:0:0:0:
240,93,242224,2,0,B|276:154|276:154|252:228,1,140,8|2,1:0|0:2,0:0:0:0:
402,63,242624,6,0,B|412:100|429:131|468:170|502:160|550:133|505:62|450:74|431:122|390:177|311:162,1,315.000012016297,4|0,1:0|0:0,0:0:0:0:
431,218,242824,2,0,P|405:186|343:162,1,105.000004005432,2|0,0:2|1:0,0:0:0:0:
136,107,243124,6,0,L|150:232,1,105.000004005432,0|0,1:0|0:0,0:0:0:0:
117,85,243424,6,0,L|125:180,1,70,4|0,1:0|0:0,0:0:0:0:
301,234,243624,2,0,L|293:329,1,70,2|0,0:2|0:0,0:0:0:0:
170,336,243824,6,0,B|122:287|49:264|49:264|123:256|199:199,1,280
50,264,244024,1,2,1:1:0:0:
176,214,244224,6,0,L|170:109,1,70,4|0,1:0|0:0,0:0:0:0:
295,75,244424,1,2,1:2:0:0:
295,75,244524,1,0,1:0:0:0:
295,75,244624,2,0,B|302:110|302:110|284:149,1,70,8|0,1:0|0:0,0:0:0:0:
127,85,244824,2,0,L|214:98,1,70,2|0,1:2|1:0,0:0:0:0:
259,220,245024,2,0,L|172:233,1,70,0|0,1:0|0:0,0:0:0:0:
225,341,245224,1,2,1:2:0:0:
278,352,245324,1,0,1:0:0:0:
334,362,245424,2,0,L|345:252,1,105.000004005432,8|2,1:0|1:2,0:0:0:0:
346,237,245724,1,0,1:0:0:0:
292,180,245824,6,0,B|256:136|256:136|412:120|412:120|392:164,1,262.5,0|2,1:0|1:2,0:0:0:0:
251,256,246224,1,8,1:0:0:0:
176,230,246324,1,0,0:0:0:0:
119,285,246424,1,2,1:2:0:0:
98,206,246524,6,0,L|93:135,2,52.5000020027161,0|0|0,1:0|1:0|0:0,0:0:0:0:
87,73,246824,1,10,1:2:0:0:
87,73,246924,1,0,1:0:0:0:
178,149,247024,2,0,L|183:78,2,52.5000020027161,0|0|10,0:0|1:0|1:1,0:0:0:0:
379,71,247424,5,0,1:0:0:0:
369,342,247624,1,2,1:2:0:0:
313,347,247724,1,0,1:0:0:0:
257,351,247824,2,0,B|227:288|227:288|274:221,1,140,8|2,1:0|1:2,0:0:0:0:
286,214,248124,1,0,1:0:0:0:
169,136,248224,1,0,1:0:0:0:
169,136,248324,1,0,0:0:0:0:
169,136,248424,2,0,L|175:216,1,70,2|0,1:2|1:0,0:0:0:0:
142,331,248624,5,8,1:0:0:0:
142,331,248824,2,0,B|172:326|172:326|203:336|203:336|244:329,1,87.5,2|0,1:2|1:0,0:0:0:0:
397,340,249024,6,0,B|345:296|274:277|218:297|230:359|283:396|323:376|341:307|336:250|272:226|231:241|231:241|290:199|307:171|317:146|295:71,1,560,4|0,1:0|0:0,0:0:0:0:
378,217,249224,6,0,B|429:208|429:208|463:227|463:227|527:217,2,140,2|2|2,0:0|0:0|0:0,0:0:0:0:
297,79,249924,6,0,L|190:91,1,105.000004005432,0|0,1:0|1:0,0:0:0:0:
112,56,250174,1,0,1:0:0:0:
112,56,250224,2,0,L|104:144,2,70.0000026702882,0|0|0,1:0|1:0|1:0,0:0:0:0:
57,199,250624,5,4,1:0:0:0:
104,203,250724,1,0,0:0:0:0:
151,207,250824,1,0,0:0:0:0:
297,79,251024,1,0,0:0:0:0:
250,83,251124,1,0,0:0:0:0:
203,87,251224,1,0,0:0:0:0:
57,199,251424,5,0,0:0:0:0:
104,203,251524,1,0,0:0:0:0:
151,207,251624,2,0,L|188:210,2,35.0000013351441
249,159,251824,5,0,0:0:0:0:
259,204,251924,1,0,0:0:0:0:
242,248,252024,1,0,0:0:0:0:
253,293,252124,1,0,0:0:0:0:
240,336,252224,6,0,L|327:321,1,70,8|0,1:3|0:0,0:0:0:0:
461,183,252424,2,0,B|425:166|425:166|388:177,1,70,4|0,1:3|0:0,0:0:0:0:
414,353,252624,2,0,L|420:267,1,70,2|0,1:3|0:0,0:0:0:0:
320,103,252824,1,2,1:3:0:0:
320,103,252924,1,2,1:3:0:0:
320,103,253024,2,0,B|294:151|294:151|309:249,1,140,8|4,1:3|1:3,0:0:0:0:
313,267,253324,1,2,1:3:0:0:
228,243,253424,6,2,B|172:206|127:155|153:95|203:72|281:132|257:217|103:207|71:181|42:138,1,315.000012016297,0|0,0:1|2:1,0:1:0:0:
22,134,253824,6,0,L|27:198,1,52.5000020027161,4|0,1:0|0:0,0:0:0:0:
228,243,254024,2,0,L|223:307,1,52.5000020027161
38,269,254224,1,8,0:0:0:0:
38,269,254324,2,0,L|48:377,1,105.000004005432
185,327,254624,2,0,P|158:325|133:330,1,52.5000020027161,0|0,1:0|0:0,0:0:0:0:
68,187,254824,2,0,P|93:191|119:190,1,52.5000020027161,0|0,1:0|0:0,0:0:0:0:
280,301,255024,2,0,L|285:358,1,52.5000020027161,8|0,0:0|0:0,0:0:0:0:
217,225,255224,2,0,L|222:168,1,52.5000020027161
369,130,255424,6,0,L|385:260,1,105.000004005432,0|0,1:0|0:0,0:0:0:0:
459,301,255724,1,0,0:0:0:0:
469,319,255824,2,0,P|432:312|406:316,1,52.5000020027161,8|0,0:0|0:0,0:0:0:0:
271,262,256024,2,0,L|237:268,2,26.2500010013581,8|0|8,0:0|0:0|0:0,0:0:0:0:
294,259,256224,2,0,L|286:330,1,52.5000020027161,0|0,1:0|0:0,0:0:0:0:
446,162,256424,2,0,L|454:233,1,52.5000020027161,8|0,0:0|0:0,0:0:0:0:
246,157,256624,1,0,1:0:0:0:
287,162,256724,1,0,0:0:0:0:
327,152,256824,1,0,1:0:0:0:
355,121,256924,1,0,0:0:0:0:
365,80,257024,6,0,L|421:68,1,52.5000020027161,0|0,1:0|0:0,0:0:0:0:
257,236,257224,2,0,L|313:248,1,52.5000020027161
144,70,257424,2,0,L|253:58,1,105.000004005432,8|0,0:0|0:0,0:0:0:0:
76,140,257724,1,0,0:0:0:0:
65,151,257824,2,0,B|55:124|55:124|61:92,1,52.5000020027161,0|0,1:0|0:0,0:0:0:0:
185,163,258024,2,0,B|189:186|189:186|179:213,1,52.5000020027161,0|0,1:0|0:0,0:0:0:0:
32,254,258224,5,8,0:0:0:0:
49,255,258324,1,0,0:0:0:0:
104,303,258424,1,8,0:0:0:0:
121,302,258524,1,8,0:0:0:0:
180,256,258624,6,0,B|237:244|303:250|320:288|293:322|250:337|208:305|247:229|279:199|229:129,1,315.000012016297,0|0,1:0|0:0,0:0:0:0:
165,78,259024,6,0,B|227:47|227:47|312:77,1,140,8|8,0:0|0:0,0:0:0:0:
344,156,259324,6,0,L|224:144,1,105.000004005432,0|0,1:0|0:0,0:0:0:0:
82,131,259624,1,0,1:0:0:0:
82,131,259724,1,0,0:0:0:0:
154,234,259824,6,0,L|159:187,3,46.6666666666667,8|0|0|0,0:0|0:0|0:0|0:0,0:0:0:0:
291,294,260224,6,0,L|357:282,1,52.5000020027161,0|0,1:0|0:0,0:0:0:0:
366,110,260424,2,0,L|432:122,1,52.5000020027161,0|0,1:0|0:0,0:0:0:0:
434,282,260624,2,0,L|441:339,2,52.5000020027161,8|0|0,0:0|0:0|1:0,0:0:0:0:
482,211,260924,2,0,B|430:200|430:200|379:213,1,105.000004005432
358,221,261224,1,0,1:0:0:0:
326,29,261424,1,8,0:0:0:0:
320,65,261524,1,0,1:0:0:0:
313,95,261624,2,0,L|302:160,1,52.5000020027161,8|0,0:0|0:0,0:0:0:0:
276,280,261824,5,0,1:0:0:0:
74,169,262024,2,0,L|66:116,1,52.5000020027161,0|0,0:0|1:0,0:0:0:0:
169,298,262224,2,0,L|166:369,2,52.5000020027161,8|0|0,0:0|0:0|1:0,0:0:0:0:
170,215,262524,2,0,B|135:221|135:221|111:246|111:246|72:254,1,105.000004005432
238,150,262824,2,0,L|243:108,4,26.2500010013581,0|0|8|0|8,0:0|0:0|0:0|0:0|0:0,0:0:0:0:
256,232,263124,1,0,0:0:0:0:
336,209,263224,1,0,0:0:0:0:
389,273,263324,1,8,0:0:0:0:
418,194,263424,6,0,L|433:86,1,105.000004005432,0|0,1:0|0:0,0:0:0:0:
442,82,263824,6,0,L|427:190,1,105.000004005432,8|0,0:0|0:0,0:0:0:0:
359,125,264124,1,0,0:0:0:0:
359,125,264224,6,0,B|322:115|322:115|289:133,1,70,8|0,0:0|0:0,0:0:0:0:
258,339,264424,1,0,1:0:0:0:
130,176,264624,2,0,L|219:182,1,70,8|0,0:0|0:0,0:0:0:0:
336,216,264824,1,8,0:0:0:0:
336,216,264924,1,8,0:0:0:0:
336,216,265024,6,0,B|276:225|276:225|243:250|243:250|188:258,2,157.500006008148,4|0|4,1:0|0:0|0:3,0:0:0:0:
201,172,265724,2,0,L|129:180,1,52.5000020027161,0|2,0:3|0:3,0:0:0:0:
336,216,265924,6,0,L|343:275,1,52.5000020027161,0|4,0:0|0:3,0:0:0:0:
423,284,266124,2,0,L|416:225,1,52.5000020027161,0|2,0:0|0:3,0:0:0:0:
312,83,266324,1,0,0:0:0:0:
358,88,266424,1,4,0:2:0:0:
405,92,266524,1,0,0:0:0:0:
451,94,266624,6,0,L|459:26,2,52.5000020027161,4|0|2,1:0|0:0|0:2,0:0:0:0:
300,78,267024,1,0,0:0:0:0:
302,59,267124,1,2,0:2:0:0:
457,180,267324,1,0,0:0:0:0:
288,155,267524,1,2,0:2:0:0:
465,261,267724,1,0,0:0:0:0:
467,282,267824,2,0,L|473:339,1,52.5000020027161
362,238,268024,2,0,L|368:295,1,52.5000020027161
271,342,268224,5,2,0:2:0:0:
74,179,268424,1,2,0:2:0:0:
248,237,268624,1,0,0:0:0:0:
253,262,268724,1,2,0:2:0:0:
62,262,268924,1,0,0:0:0:0:
235,155,269124,1,2,0:2:0:0:
50,343,269324,1,0,0:0:0:0:
75,337,269424,2,0,L|115:330,2,26.2500010013581,8|0|8,0:3|0:0|0:3,0:0:0:0:
190,217,269624,2,0,L|150:210,2,26.2500010013581,4|0|4,0:3|0:0|0:3,0:0:0:0:
240,329,269824,6,0,P|291:328|354:303,1,105.000004005432,4|2,1:0|0:2,0:0:0:0:
85,165,270224,1,0,0:0:0:0:
106,152,270324,2,0,P|134:138|162:138,1,52.5000020027161,2|0,0:2|0:0,0:0:0:0:
269,236,270524,2,0,P|280:194|273:124,1,105.000004005432,0|2,0:0|0:2,0:0:0:0:
357,65,270824,1,0,0:0:0:0:
357,65,270924,1,0,0:0:0:0:
357,65,271024,2,0,L|413:74,1,52.5000020027161
379,235,271224,2,0,L|435:244,1,52.5000020027161
482,165,271424,6,0,L|366:148,1,105.000004005432,2|2,0:2|0:2,0:0:0:0:
80,248,271824,1,0,0:0:0:0:
70,227,271924,2,0,B|49:177|49:177|84:123,1,105.000004005432,2|0,0:2|0:0,0:0:0:0:
208,175,272224,2,0,L|212:245,1,52.5000020027161,0|2,0:0|0:2,0:0:0:0:
220,323,272424,1,0,1:0:0:0:
73,326,272624,6,0,B|101:325|122:312|122:312|151:329|151:329|182:317|182:317|201:325|235:324,1,157.500006008148,8|0,0:0|0:0,0:0:0:0:
376,302,273024,5,4,1:0:0:0:
352,325,273124,2,0,L|345:204,1,105.000004005432,2|0,0:2|0:0,0:0:0:0:
311,128,273424,1,8,0:0:0:0:
350,113,273524,1,0,0:0:0:0:
390,124,273624,1,0,0:0:0:0:
430,114,273724,1,0,0:0:0:0:
466,134,273824,6,0,L|461:201,1,52.5000020027161,0|2,0:0|0:2,0:0:0:0:
270,110,274024,2,0,L|265:43,1,52.5000020027161
442,29,274224,2,0,L|383:38,1,52.5000020027161,8|0,0:0|0:0,0:0:0:0:
344,209,274424,2,0,L|285:200,1,52.5000020027161
33,112,274624,5,4,1:0:0:0:
57,146,274724,2,0,P|135:159|202:126,1,140,2|0,0:2|0:0,0:0:0:0:
265,99,275024,1,8,0:0:0:0:
283,136,275124,1,0,0:0:0:0:
289,177,275224,1,0,0:0:0:0:
276,217,275324,1,0,0:0:0:0:
250,250,275424,6,0,L|239:325,1,70,0|2,0:0|0:2,0:0:0:0:
135,175,275624,2,0,B|175:183|175:183|206:168,1,70
417,80,275824,2,0,L|344:91,1,70,8|0,0:0|0:0,0:0:0:0:
364,220,276024,2,0,B|376:256|376:256|363:298,1,70
135,175,276224,5,0,1:0:0:0:
154,171,276324,1,2,0:1:0:0:
188,132,276424,5,2,0:2:0:0:
207,128,276524,1,0,0:2:0:0:
258,187,276624,5,0,1:0:0:0:
277,183,276724,1,2,0:1:0:0:
311,144,276824,5,2,0:2:0:0:
330,140,276924,1,0,0:0:0:0:
375,167,277024,6,0,L|367:239,1,52.5000020027161,0|2,1:0|0:1,0:0:0:0:
360,295,277224,2,0,L|365:242,1,52.5000020027161,2|0,1:2|0:0,0:0:0:0:
197,214,277424,6,0,L|193:254,2,26.2500010013581,0|0|2,1:0|0:0|0:1,0:0:0:0:
182,342,277624,2,0,L|186:302,2,26.2500010013581,2|0|0,1:2|0:0|0:0,0:0:0:0:
24,267,277824,5,4,1:0:0:0:
353,180,278024,5,2,0:0:0:0:
344,256,278124,1,2,0:0:0:0:
336,332,278224,1,2,0:3:0:0:
172,191,278424,6,0,L|180:290,1,78.7500030040742,4|2,0:3|0:3,0:0:0:0:
183,312,278624,1,8,0:3:0:0:
24,267,278824,1,4,0:3:0:0:
172,191,279024,6,0,B|239:161|239:161|251:332|251:332|183:312,1,315.000012016297,2|0,0:3|0:0,0:0:0:0:
85,216,279424,6,0,P|85:174|103:130,1,70,6|0,0:1|0:0,0:0:0:0:
340,268,279624,2,0,P|340:310|322:354,1,70,2|0,0:1|0:0,0:0:0:0:
147,288,279824,2,0,L|61:309,2,70,4|2|0,0:2|0:1|0:0,0:0:0:0:
231,52,280124,2,0,P|268:64|297:94,1,70
239,262,280324,2,0,B|204:222|204:222|229:112,1,140,2|2,0:1|0:2,0:0:0:0:
468,179,280624,2,0,L|400:191,1,70,6|2,0:2|0:2,0:0:0:0:
309,205,280824,1,0,0:2:0:0:
309,205,280924,1,2,0:2:0:0:
359,345,281024,6,0,B|371:308|371:308|358:260,1,70,2|0,0:1|0:0,0:0:0:0:
255,114,281224,2,0,L|337:120,1,70,2|0,0:1|0:0,0:0:0:0:
276,302,281424,1,4,0:2:0:0:
210,348,281524,2,0,P|164:357|67:303,1,140,2|0,0:1|0:0,0:0:0:0:
180,57,281824,2,0,L|185:126,2,70,0|2|0,0:0|0:1|0:0,0:0:0:0:
162,265,282124,2,0,L|190:104,1,140,2|2,0:2|0:2,0:0:0:0:
88,154,282424,2,0,L|74:237,1,70,2|2,0:2|0:2,0:0:0:0:
321,129,282624,6,2,B|272:118|272:118|228:134|228:134|162:122,1,140,2|2,0:1|0:1,0:1:0:0:
283,210,282924,1,0,0:0:0:0:
390,190,283024,2,0,B|414:140|414:140|397:57,1,140,4|2,0:2|0:2,0:0:0:0:
402,305,283324,2,0,L|387:386,2,70,2|0|0,0:2|0:0|0:0,0:0:0:0:
334,249,283624,1,2,0:2:0:0:
258,289,283724,1,2,0:2:0:0:
206,217,283824,2,0,L|197:137,2,70,4|2|2,0:2|0:2|0:2,0:0:0:0:
232,366,284124,1,2,0:2:0:0:
334,249,284224,6,2,P|297:221|196:222,1,140,2|2,0:1|0:1,0:1:0:0:
74,152,284524,2,0,P|117:149|158:132,1,70,2|4,0:1|0:2,0:0:0:0:
253,45,284724,1,0,0:0:0:0:
253,45,284824,2,2,P|237:85|234:133,1,70,0|2,0:1|0:1,0:1:0:0:
218,336,285024,1,2,0:2:0:0:
218,336,285124,1,2,0:2:0:0:
218,336,285224,2,0,L|205:252,1,70,2|0,0:2|0:0,0:0:0:0:
74,152,285424,2,2,L|20:160,2,46.6666666666667,4|2|0,0:2|0:1|0:1,0:1:0:0:
215,192,285624,1,2,0:2:0:0:
122,246,285724,1,2,0:2:0:0:
167,102,285824,6,0,P|181:70|207:39,1,70,6|0,0:1|0:0,0:0:0:0:
359,251,286024,2,0,P|315:255|277:242,1,70,2|0,0:1|0:0,0:0:0:0:
306,118,286224,1,4,0:2:0:0:
306,118,286324,2,0,P|381:107|447:135,1,140,2|0,0:1|0:0,0:0:0:0:
462,146,286624,1,0,0:0:0:0:
451,294,286724,2,0,L|437:213,1,70,2|0,0:2|0:0,0:0:0:0:
398,27,286924,2,0,L|384:108,1,70,2|4,0:2|0:2,0:0:0:0:
286,206,287124,2,0,L|355:196,2,70,2|2|2,0:2|0:2|0:2,0:0:0:0:
174,90,287424,6,2,B|239:64|239:64|300:102,1,140,2|2,0:1|0:1,0:1:0:0:
117,281,287724,1,0,0:0:0:0:
197,318,287824,2,2,P|198:278|193:236,1,70,4|2,0:2|0:1,0:1:0:0:
90,42,288024,2,0,P|89:82|94:124,1,70
221,177,288224,1,0,0:0:0:0:
221,177,288324,2,0,B|179:169|179:169|126:192|126:192|61:182,1,140,2|2,0:2|0:2,0:0:0:0:
236,80,288624,2,0,L|313:73,1,70,4|2,0:2|0:2,0:0:0:0:
357,234,288824,2,0,L|434:241,1,70,2|2,0:2|0:2,0:0:0:0:
453,72,289024,5,2,0:1:0:0:
270,256,289224,1,0,0:0:0:0:
483,297,289424,2,0,P|449:278|403:273,1,70,4|0,0:2|0:0,0:0:0:0:
353,337,289624,1,0,0:0:0:0:
353,337,289724,2,0,P|372:272|347:179,1,140,2|0,0:1|0:0,0:0:0:0:
300,145,290024,2,0,P|334:126|380:121,1,70
498,216,290224,2,2,L|338:199,1,140,4|2,0:2|0:1,0:1:0:0:
68,189,290624,5,0,0:0:0:0:
138,147,290724,2,0,P|145:191|143:232,1,70
208,364,290924,1,0,0:0:0:0:
136,324,291024,2,0,P|170:295|207:277,1,70,4|0,0:2|0:0,0:0:0:0:
289,157,291224,1,0,0:0:0:0:
290,239,291324,2,0,P|248:223|213:200,1,70
387,176,291524,2,0,B|410:244|410:244|372:313,1,140
379,154,291824,2,0,L|429:147,2,35,4|0|0,0:2|0:0|0:0,0:0:0:0:
289,157,292024,1,0,0:0:0:0:
334,69,292124,1,0,0:0:0:0:
243,78,292224,6,0,P|199:87|149:86,1,70,6|0,0:1|0:0,0:0:0:0:
88,305,292424,2,0,P|132:296|182:297,1,70,2|0,0:1|0:0,0:0:0:0:
401,177,292624,1,4,0:2:0:0:
333,216,292724,2,0,P|270:218|192:169,1,140,2|0,0:1|0:0,0:0:0:0:
245,361,293024,2,2,L|237:291,1,70,0|2,0:1|0:1,0:1:0:0:
94,121,293223,2,0,L|86:190,1,70
16,255,293424,1,6,0:2:0:0:
87,282,293524,1,2,0:2:0:0:
154,245,293624,1,2,0:2:0:0:
220,206,293724,1,2,0:2:0:0:
295,225,293824,6,0,L|384:250,2,70,2|0|2,0:1|0:0|0:0,0:0:0:0:
142,182,294124,1,0,0:1:0:0:
200,84,294224,1,4,0:2:0:0:
200,84,294324,2,0,B|238:122|238:122|215:232,1,140,2|0,0:1|0:0,0:0:0:0:
362,243,294624,2,0,L|430:229,2,70,0|2|0,0:0|0:1|0:0,0:0:0:0:
240,328,294924,2,0,B|202:290|202:290|225:180,1,140,2|2,0:2|0:2,0:0:0:0:
219,205,295224,1,2,0:2:0:0:
219,205,295324,1,2,0:2:0:0:
119,207,295424,6,0,L|128:277,1,70,2|0,0:1|0:0,0:0:0:0:
330,126,295624,2,0,L|321:196,1,70,2|0,0:1|0:0,0:0:0:0:
85,129,295824,2,0,B|52:95|52:95|169:121,1,140,4|2,0:2|0:2,0:0:0:0:
219,205,296124,2,0,L|382:176,1,140,2|0,0:2|0:2,0:0:0:0:
357,181,296424,1,2,0:2:0:0:
357,181,296524,1,2,0:2:0:0:
345,277,296624,2,0,L|332:345,2,70,4|2|2,0:2|0:2|0:2,0:0:0:0:
151,272,296924,1,0,0:2:0:0:
214,363,297024,6,2,B|246:308|246:308|227:223,1,140,2|2,0:1|0:1,0:1:0:0:
14,208,297324,2,0,L|92:219,1,70,2|4,0:1|0:2,0:0:0:0:
232,137,297524,1,0,0:0:0:0:
166,94,297624,2,2,B|150:129|150:129|156:159,1,70,0|2,0:1|0:1,0:1:0:0:
322,47,297824,1,2,0:2:0:0:
322,47,297924,1,2,0:2:0:0:
322,47,298024,2,0,L|254:59,1,70,2|0,0:2|0:0,0:0:0:0:
88,165,298224,2,2,L|37:161,2,46.6666666666667,4|2|0,0:2|0:1|0:1,0:1:0:0:
238,230,298424,1,2,0:2:0:0:
144,299,298524,1,2,0:2:0:0:
251,339,298624,6,0,L|338:345,1,70,6|0,0:1|0:0,0:0:0:0:
369,148,298824,2,0,L|438:152,1,70,2|0,0:1|0:0,0:0:0:0:
417,318,299024,1,4,0:2:0:0:
476,248,299124,2,0,B|407:231|407:231|342:265,1,140,2|0,0:1|0:0,0:0:0:0:
257,266,299424,2,2,P|265:221|272:180,1,70,0|2,0:1|0:1,0:1:0:0:
269,96,299624,2,0,P|261:141|254:182,1,70,2|2,0:2|0:2,0:0:0:0:
409,154,299824,2,2,P|364:146|323:139,1,70,4|2,0:2|0:1,0:1:0:0:
110,199,300024,2,0,P|155:207|196:214,1,70,2|2,0:2|0:2,0:0:0:0:
269,96,300224,6,2,P|187:65|108:89,1,140,6|2,0:1|0:1,0:1:0:0:
315,175,300524,1,0,0:0:0:0:
359,98,300624,2,2,P|378:59|384:11,1,70,4|2,0:2|0:1,0:1:0:0:
229,208,300824,2,0,P|247:237|273:261,1,70
364,311,301024,1,0,0:0:0:0:
364,311,301124,2,2,P|302:352|206:356,1,140,0|2,0:1|0:1,0:1:0:0:
438,245,301424,2,0,L|456:340,1,70,4|0,0:2|0:0,0:0:0:0:
323,94,301624,2,2,L|305:189,1,70,0|2,0:1|0:1,0:1:0:0:
238,361,301824,5,6,0:1:0:0:
155,163,302024,1,2,0:2:0:0:
297,241,302224,2,0,P|224:274|147:275,1,140,2|2,0:2|0:2,0:0:0:0:
87,299,302524,1,2,0:1:0:0:
87,299,302624,2,0,P|88:261|105:219,1,70,0|2,0:0|0:2,0:0:0:0:
155,163,302824,1,2,0:2:0:0:
297,241,303024,1,2,0:1:0:0:
339,265,303124,1,0,0:0:0:0:
387,270,303224,1,2,0:2:0:0:
432,251,303324,1,0,0:0:0:0:
462,212,303424,6,0,L|472:134,1,70,2|0,0:1|0:0,0:0:0:0:
350,71,303624,1,0,0:0:0:0:
355,103,303724,2,0,L|365:181,1,70,2|0,0:1|0:0,0:0:0:0:
172,136,303924,1,0,0:0:0:0:
115,76,304024,2,0,B|161:49|161:49|254:88,1,140,2|0,0:1|0:0,0:0:0:0:
131,207,304324,2,0,L|52:223,2,70,2|0|0,0:1|0:0|0:0,0:0:0:0:
244,158,304624,5,2,0:2:0:0:
237,209,304724,1,2,0:2:0:0:
229,258,304824,1,2,0:2:0:0:
222,309,304924,1,2,0:2:0:0:
282,360,305024,5,4,1:0:0:0:
