osu file format v14

[General]
AudioFilename: audio.mp3
AudioLeadIn: 0
PreviewTime: 442
Countdown: 0
SampleSet: Soft
StackLeniency: 0.7
Mode: 0
LetterboxInBreaks: 0
WidescreenStoryboard: 0

[Editor]
Bookmarks: 22534,23838,34273,44708,47317,57751,68186,77317,78621,89056,99328
DistanceSpacing: 1
BeatDivisor: 4
GridSize: 4
TimelineZoom: 2.799999

[Metadata]
Title:u/n
TitleUnicode:u/n
Artist:Mami Kawada
ArtistUnicode:川田まみ
Creator:Naotoshi
Version:Flame Haze
Source:灼眼のシャナⅢ-FINAL-
Tags:yahuri shini akitoshi yaleufeu kyuukai -sh1n1- shakugan no shana lolis
BeatmapID:1354196
BeatmapSetID:638360

[Difficulty]
HPDrainRate:6.5
CircleSize:4.2
OverallDifficulty:8
ApproachRate:9.2
SliderMultiplier:1
SliderTickRate:1

[Events]
//Background and Video events
0,0,"shakugan no shana.jpg",0,0
//Break Periods
//Storyboard Layer 0 (Background)
//Storyboard Layer 1 (Fail)
//Storyboard Layer 2 (Pass)
//Storyboard Layer 3 (Foreground)
//Storyboard Sound Samples

[TimingPoints]
1653,326.086956521739,4,2,1,31,1,0
22522,-100,4,2,1,5,0,0
23826,-76.9230769230769,4,2,1,52,0,0
28718,-58.8235294117647,4,2,1,52,0,0
29044,-76.9230769230769,4,2,1,52,0,0
52196,-50,4,2,1,52,0,0
52522,-76.9230769230769,4,2,1,52,0,0
68174,-111.111111111111,4,2,1,52,0,0
76163,-76.9230769230769,4,2,1,52,0,0
77305,-38.4615384615385,4,2,1,52,0,0
77631,-76.9230769230769,4,2,1,52,0,0
78609,-62.5,4,2,1,69,0,1
88555,-62.5,4,2,1,73,0,0
89044,-62.5,4,2,1,73,0,1
99479,-62.5,4,2,1,38,0,0
99642,-45.4545454545455,4,2,1,52,0,0

[Colours]
Combo1 : 239,198,112
Combo2 : 233,90,29
Combo3 : 220,29,29

[HitObjects]
204,153,1653,6,0,P|251:138|319:156,1,100,2|0,0:0|0:0,0:0:0:0:
467,219,2305,1,0,0:0:0:0:
365,203,2468,2,0,P|413:210|460:195,1,100,2|0,0:0|0:0,0:0:0:0:
390,25,2957,2,0,L|405:123,1,100,2|0,0:0|0:0,0:0:0:0:
318,93,3446,1,0,0:0:0:0:
247,155,3609,2,0,L|248:224,1,50,2|0,0:0|0:0,0:0:0:0:
178,95,3935,1,0,0:0:0:0:
95,187,4261,6,0,P|80:254|99:295,1,100,2|0,0:0|0:0,0:0:0:0:
263,338,4913,1,0,0:0:0:0:
152,348,5076,2,0,P|202:342|249:356,1,100,2|0,0:0|0:0,0:0:0:0:
319,303,5566,1,0,0:0:0:0:
387,353,5729,2,0,L|394:389,2,25,2|0|0,0:0|0:0|0:0,0:0:0:0:
439,285,6055,1,0,0:0:0:0:
362,229,6218,1,2,0:0:0:0:
502,222,6381,1,0,0:0:0:0:
431,156,6544,1,2,0:0:0:0:
271,121,6870,6,0,L|169:126,1,100,2|0,0:0|0:0,0:0:0:0:
0,181,7522,1,0,0:0:0:0:
102,187,7685,2,0,P|53:180|8:200,1,100,2|0,0:0|0:0,0:0:0:0:
109,59,8174,2,0,P|130:108|117:163,1,100,2|0,0:0|0:0,0:0:0:0:
67,225,8663,2,0,P|46:274|59:329,1,100,2|0,0:0|0:0,0:0:0:0:
103,381,9152,1,0,0:0:0:0:
234,265,9479,6,0,P|284:266|336:274,2,100,2|0|0,0:0|0:0|0:0,0:0:0:0:
166,318,10294,1,2,0:0:0:0:
152,229,10457,1,0,0:0:0:0:
256,345,10620,1,0,0:0:0:0:
227,184,10783,6,0,L|237:69,1,100,2|0,0:0|0:0,0:0:0:0:
309,26,11272,2,0,L|318:126,1,100,2|0,0:0|0:0,0:0:0:0:
409,67,11761,2,0,L|400:166,1,100,2|0,0:0|0:0,0:0:0:0:
400,166,12413,6,0,P|467:167|516:174,1,100,2|0,0:0|0:0,0:0:0:0:
426,251,12902,2,0,P|359:250|310:243,1,100,2|0,0:0|0:0,0:0:0:0:
274,178,13392,1,0,0:0:0:0:
145,272,13718,1,2,0:0:0:0:
154,184,13881,1,0,0:0:0:0:
220,241,14044,2,0,P|234:295|235:308,1,50,2|0,0:0|0:0,0:0:0:0:
70,320,14370,6,0,P|66:262|74:215,1,100,2|0,0:0|0:0,0:0:0:0:
200,133,15022,1,0,0:0:0:0:
43,48,15348,1,0,0:0:0:0:
145,67,15511,2,0,P|96:63|49:79,1,100,2|0,0:0|0:0,0:0:0:0:
222,101,16000,2,0,P|272:117|323:111,1,100,2|0,0:0|0:0,0:0:0:0:
388,65,16489,1,0,0:0:0:0:
434,136,16652,1,0,0:0:0:0:
354,232,16816,2,0,L|364:291,1,50,2|0,0:0|0:0,0:0:0:0:
275,334,17305,6,0,P|279:291|317:236,1,100,2|0,0:0|0:0,0:0:0:0:
377,70,17957,1,0,0:0:0:0:
383,182,18120,2,0,P|379:139|341:84,1,100,2|0,0:0|0:0,0:0:0:0:
287,166,18609,2,0,P|240:179|175:158,1,100,2|0,0:0|0:0,0:0:0:0:
146,94,19098,2,0,L|149:206,1,100,2|0,0:0|0:0,0:0:0:0:
63,228,19587,1,0,0:0:0:0:
184,289,19913,6,0,B|123:289|80:307,2,100,2|0|0,0:0|0:0|0:0,0:0:0:0:
76,226,20729,2,0,L|69:173,1,50,2|0,0:0|0:0,0:0:0:0:
166,251,21055,1,0,0:0:0:0:
144,141,21218,2,0,L|154:42,1,100,2|0,0:0|0:0,0:0:0:0:
250,226,21707,2,0,L|240:126,1,100,2|0,0:0|0:0,0:0:0:0:
345,210,22196,2,0,L|336:310,1,100,2|0,0:0|0:0,0:0:0:0:
257,178,23826,5,6,0:0:0:0:
172,148,24152,2,0,P|170:185|168:290,1,129.999994049073,8|2,0:0|0:0,0:0:0:0:
81,208,24642,1,0,0:0:0:0:
257,295,24805,1,8,0:0:0:0:
292,207,24968,1,2,0:0:0:0:
300,187,25049,1,2,0:2:0:0:
312,169,25131,6,0,P|389:170|406:175,1,64.9999970245363,2|0,0:0|0:0,0:0:0:0:
227,91,25457,2,0,P|150:90|133:85,1,64.9999970245363,8|0,0:0|0:0,0:0:0:0:
324,36,25783,1,2,0:0:0:0:
286,171,25946,1,0,0:0:0:0:
425,119,26109,1,8,0:0:0:0:
415,275,26272,1,0,0:0:0:0:
301,196,26435,5,2,0:0:0:0:
201,274,26598,2,0,P|146:282|116:279,1,64.9999970245363,2|8,0:0|0:0,0:0:0:0:
37,185,26924,1,2,0:0:0:0:
28,160,27006,1,2,0:2:0:0:
21,135,27087,2,0,L|31:66,1,64.9999970245363,2|0,0:2|0:2,0:2:0:0:
135,26,27413,1,8,0:2:0:0:
198,119,27576,6,0,P|249:132|278:131,1,64.9999970245363,0|2,0:2|0:2,0:2:0:0:
380,128,27902,1,2,0:0:0:0:
407,110,27984,1,2,0:0:0:0:
429,86,28066,2,2,P|378:73|349:74,1,64.9999970245363,8|0,0:2|0:2,0:2:0:0:
320,236,28392,2,0,L|331:317,1,64.9999970245363,2|0,0:0|0:0,0:0:0:0:
470,223,28718,2,0,B|475:136|475:136|434:164,1,127.50000243187,8|0,0:0|0:0,0:0:0:0:
348,223,29044,6,0,P|290:238|198:217,1,129.999994049073,6|8,0:0|0:0,0:0:0:0:
148,148,29533,1,0,0:0:0:0:
108,317,29696,2,0,L|123:243,1,64.9999970245363,2|0,0:0|0:0,0:0:0:0:
41,181,30022,1,8,0:0:0:0:
189,139,30185,1,2,0:0:0:0:
217,141,30267,1,2,0:0:0:0:
246,147,30348,6,0,P|296:158|324:170,1,64.9999970245363,2|0,0:0|0:0,0:0:0:0:
132,264,30674,2,0,P|101:274|69:279,1,64.9999970245363,8|0,0:0|0:0,0:0:0:0:
215,366,31000,1,2,0:0:0:0:
243,231,31163,1,0,0:0:0:0:
376,312,31326,1,8,0:0:0:0:
334,180,31489,1,0,0:0:0:0:
215,258,31652,6,0,P|140:266|64:258,1,129.999994049073,2|8,0:0|0:0,0:0:0:0:
21,180,32142,1,0,0:0:0:0:
111,61,32305,2,0,L|113:152,1,64.9999970245363,2|0,0:0|0:0,0:0:0:0:
206,196,32631,1,8,0:0:0:0:
272,92,32794,1,2,0:0:0:0:
307,82,32875,1,2,0:0:0:0:
349,76,32957,6,0,P|405:75|434:77,1,64.9999970245363,8|0,0:0|0:0,0:0:0:0:
470,221,33283,1,2,0:0:0:0:
505,114,33446,1,8,0:2:0:0:
505,114,33527,1,8,0:2:0:0:
505,114,33609,2,0,L|505:162,1,32.4999985122681,8|0,0:3|0:0,0:0:0:0:
356,184,33772,2,0,L|351:245,1,32.4999985122681,8|0,0:3|0:0,0:0:0:0:
471,355,33935,5,8,0:3:0:0:
488,318,34016,1,8,0:3:0:0:
490,278,34098,1,8,0:3:0:0:
477,239,34179,1,8,0:3:0:0:
451,208,34261,5,4,0:1:0:0:
249,293,34587,2,0,P|196:306|94:290,1,129.999994049073,8|2,0:0|0:0,0:0:0:0:
60,223,35076,1,0,0:0:0:0:
13,331,35239,1,8,0:0:0:0:
138,274,35402,1,2,0:0:0:0:
166,258,35484,1,2,0:0:0:0:
200,241,35566,6,0,P|254:243|279:251,1,64.9999970245363,2|0,0:0|0:0,0:0:0:0:
122,148,35892,2,0,P|90:153|57:152,1,64.9999970245363,8|0,0:0|0:0,0:0:0:0:
196,68,36218,1,2,0:0:0:0:
214,208,36381,1,0,0:0:0:0:
342,140,36544,1,8,0:0:0:0:
283,298,36707,1,2,0:0:0:0:
283,298,36788,1,2,0:0:0:0:
283,298,36870,6,0,P|353:309|419:286,1,129.999994049073,2|8,0:0|0:0,0:0:0:0:
344,185,37359,1,0,0:0:0:0:
505,235,37522,2,0,L|496:156,1,64.9999970245363,2|0,0:0|0:0,0:0:0:0:
421,95,37848,1,8,0:0:0:0:
310,203,38011,1,2,0:0:0:0:
288,176,38093,1,2,0:0:0:0:
283,141,38174,6,0,P|234:134|198:135,1,64.9999970245363,2|0,0:0|0:0,0:0:0:0:
150,280,38500,2,0,L|129:130,1,129.999994049073,8|2,0:0|0:0,0:0:0:0:
62,219,38989,1,0,0:0:0:0:
149,68,39152,1,8,0:0:0:0:
228,226,39316,1,8,0:0:0:0:
331,100,39479,5,6,0:0:0:0:
251,137,39642,1,2,0:0:0:0:
321,253,39805,2,0,L|320:168,1,64.9999970245363,10|0,0:0|0:0,0:0:0:0:
241,270,40131,1,0,0:0:0:0:
401,228,40294,2,0,L|400:313,1,64.9999970245363,2|8,0:0|0:0,0:0:0:0:
233,180,40620,2,0,L|234:256,1,64.9999970245363,2|0,0:0|0:0,0:0:0:0:
149,308,40946,5,2,0:0:0:0:
137,136,41109,1,8,0:0:0:0:
71,255,41272,2,0,P|85:175|117:105,1,129.999994049073,2|0,0:0|0:0,0:0:0:0:
10,102,41761,1,8,0:0:0:0:
89,29,41924,1,2,0:0:0:0:
107,29,42006,1,2,0:0:0:0:
125,29,42087,6,0,L|199:38,1,64.9999970245363,2|0,0:0|0:0,0:0:0:0:
337,125,42413,2,0,L|263:134,1,64.9999970245363,8|0,0:0|0:0,0:0:0:0:
399,51,42739,1,2,0:0:0:0:
390,211,42902,2,0,P|394:270|403:302,1,64.9999970245363,2|8,0:0|0:0,0:0:0:0:
480,150,43229,1,2,0:0:0:0:
480,150,43310,1,2,0:0:0:0:
480,150,43392,6,0,P|411:133|331:139,1,129.999994049073,2|8,0:0|0:0,0:0:0:0:
242,202,43881,2,0,L|230:279,1,64.9999970245363,2|0,0:0|0:0,0:0:0:0:
108,163,44207,1,2,0:0:0:0:
131,321,44370,1,8,0:0:0:0:
154,236,44533,1,8,0:0:0:0:
73,262,44696,5,0,3:3:0:0:
84,175,45022,1,8,0:0:0:0:
60,283,45348,5,0,0:0:0:0:
169,211,45511,1,0,3:3:0:0:
49,196,45674,1,8,0:0:0:0:
163,176,45837,1,0,0:0:0:0:
163,176,45919,1,0,0:0:0:0:
163,176,46000,5,0,3:0:0:0:
87,113,46163,1,0,3:0:0:0:
186,93,46326,1,8,0:0:0:0:
263,150,46652,5,0,0:0:0:0:
263,57,46816,2,0,P|300:26|327:17,1,64.9999970245363
346,128,47142,1,4,0:0:0:0:
230,172,47305,5,2,0:0:0:0:
198,249,47631,2,0,L|182:118,1,129.999994049073,8|2,0:0|0:0,0:0:0:0:
110,201,48120,1,0,0:0:0:0:
221,275,48283,1,8,0:0:0:0:
87,345,48446,1,2,0:0:0:0:
50,345,48527,1,2,0:0:0:0:
12,345,48609,6,0,P|6:284|8:258,1,64.9999970245363,2|0,0:0|0:0,0:0:0:0:
130,186,48935,2,0,P|130:218|125:251,1,64.9999970245363,8|0,0:0|0:0,0:0:0:0:
37,138,49261,1,2,0:0:0:0:
195,103,49424,1,0,0:0:0:0:
9,31,49587,1,8,0:0:0:0:
144,38,49750,1,0,0:0:0:0:
47,162,49913,5,2,0:0:0:0:
161,189,50076,2,0,P|175:232|176:262,1,64.9999970245363,2|8,0:0|0:0,0:0:0:0:
294,189,50402,1,2,0:0:0:0:
294,189,50484,1,2,0:0:0:0:
294,189,50566,2,0,P|297:156|309:126,1,64.9999970245363,2|0,0:0|0:0,0:0:0:0:
406,86,50892,1,8,0:0:0:0:
271,60,51055,1,2,0:0:0:0:
240,67,51136,1,2,0:0:0:0:
208,71,51218,6,0,L|270:123,1,64.9999970245363,2|0,0:0|0:0,0:0:0:0:
428,119,51544,2,8,L|351:146,1,64.9999970245363,10|0,0:0|0:0,0:0:0:0:
276,285,51870,2,0,L|291:204,1,64.9999970245363,2|0,0:0|0:0,0:0:0:0:
139,197,52196,2,0,B|89:176|37:219|37:219|47:170|75:175,1,150,10|0,0:0|0:0,0:0:0:0:
104,282,52522,6,8,P|36:310|-36:279,1,129.999994049073,4|8,0:0|0:0,0:0:0:0:
32,199,53011,1,0,0:0:0:0:
142,298,53174,2,0,P|195:315|232:318,1,64.9999970245363,2|0,0:0|0:0,0:0:0:0:
286,192,53500,1,8,0:0:0:0:
373,333,53663,1,2,0:0:0:0:
373,333,53745,1,2,0:0:0:0:
373,333,53826,6,0,P|393:264|382:201,1,129.999994049073,2|8,0:0|0:0,0:0:0:0:
324,132,54316,1,0,0:0:0:0:
482,218,54479,1,2,0:0:0:0:
416,106,54642,1,0,0:0:0:0:
272,224,54805,1,10,0:0:0:0:
306,94,54968,1,0,0:0:0:0:
452,114,55131,6,4,P|462:65|455:27,1,64.9999970245363,6|0,0:0|0:0,0:0:0:0:
282,134,55457,2,0,P|281:166|290:197,1,64.9999970245363,8|0,0:0|0:0,0:0:0:0:
362,91,55783,1,2,0:0:0:0:
200,96,55946,1,0,0:0:0:0:
338,7,56109,1,8,0:0:0:0:
274,149,56272,1,2,0:0:0:0:
274,149,56354,1,2,0:0:0:0:
274,149,56435,6,0,P|234:180|136:165,1,129.999994049073,2|8,0:0|0:0,0:0:0:0:
78,97,56924,1,0,0:0:0:0:
54,260,57087,1,2,0:0:0:0:
5,167,57250,1,2,0:0:0:0:
87,282,57413,5,8,0:0:0:0:
153,130,57576,1,0,3:3:0:0:
158,92,57658,1,0,3:3:0:0:
165,53,57739,5,6,0:0:0:0:
283,195,58066,2,0,P|354:209|373:210,1,64.9999970245363,8|0,0:0|0:0,0:0:0:0:
451,126,58392,1,2,0:0:0:0:
374,240,58555,2,0,L|377:324,1,64.9999970245363,2|8,0:0|0:0,0:0:0:0:
275,130,58881,2,0,P|227:116|184:110,1,64.9999970245363,2|0,0:0|0:0,0:0:0:0:
105,196,59207,1,2,0:0:0:0:
105,196,59288,1,2,0:0:0:0:
105,196,59370,5,8,0:0:0:0:
22,109,59533,2,0,P|6:179|13:262,1,129.999994049073,2|8,0:0|0:0,0:0:0:0:
127,213,60022,1,8,0:0:0:0:
99,347,60185,1,2,0:0:0:0:
99,347,60267,1,2,0:0:0:0:
99,347,60348,6,0,P|155:333|187:332,1,64.9999970245363,2|0,0:0|0:0,0:0:0:0:
331,282,60674,2,0,P|298:277|268:268,1,64.9999970245363,8|0,0:0|0:0,0:0:0:0:
194,124,61000,1,2,0:0:0:0:
272,240,61163,2,0,P|304:190|311:161,1,64.9999970245363,2|8,0:0|0:0,0:0:0:0:
284,38,61489,1,2,0:0:0:0:
284,38,61571,1,2,0:0:0:0:
284,38,61652,5,2,0:0:0:0:
407,117,61816,2,0,L|416:197,1,64.9999970245363,2|8,0:0|0:0,0:0:0:0:
486,71,62142,1,0,0:0:0:0:
379,189,62305,2,0,L|371:278,1,64.9999970245363,2|0,0:0|0:0,0:0:0:0:
304,128,62631,1,8,0:0:0:0:
475,246,62794,1,4,3:3:0:0:
269,252,62957,6,4,P|206:268|189:277,1,64.9999970245363,6|0,0:0|0:0,0:0:0:0:
375,294,63283,2,4,P|405:304|519:285,1,129.999994049073,8|2,0:0|0:0,0:0:0:0:
439,195,63772,1,0,0:0:0:0:
348,271,63935,1,8,0:0:0:0:
197,151,64261,5,2,0:0:0:0:
311,153,64424,1,0,0:0:0:0:
239,291,64587,2,0,P|241:244|250:209,1,64.9999970245363,8|0,0:0|0:0,0:0:0:0:
341,285,64913,2,0,P|346:317|347:350,1,64.9999970245363,2|0,0:0|0:0,0:0:0:0:
211,319,65239,1,8,0:0:0:0:
360,258,65402,1,0,0:0:0:0:
207,117,65566,5,4,0:1:0:0:
110,287,65892,2,0,P|101:227|110:146,1,129.999994049073,8|2,0:0|0:0,0:0:0:0:
231,133,66381,2,0,P|259:148|290:156,1,64.9999970245363,2|8,0:0|0:0,0:0:0:0:
130,54,66707,1,0,0:0:0:0:
230,22,66870,5,8,0:0:0:0:
230,22,66951,1,0,0:0:0:0:
93,67,67196,1,8,0:0:0:0:
203,150,67359,1,2,0:0:0:0:
73,208,67522,1,8,0:0:0:0:
73,208,67604,1,0,0:0:0:0:
239,134,67767,1,0,0:0:0:0:
239,134,67848,1,8,0:0:0:0:
147,244,68011,1,0,3:0:0:0:
162,279,68093,1,0,3:0:0:0:
188,302,68174,6,0,P|228:296|239:296,1,44.999998626709,8|0,0:0|0:0,0:0:0:0:
367,241,68500,2,0,P|399:255|416:268,1,44.999998626709,10|0,0:0|0:0,0:0:0:0:
269,110,68826,1,10,0:0:0:0:
325,155,68989,2,0,P|291:115|280:107,1,44.999998626709,2|0,0:0|0:0,0:0:0:0:
141,131,69316,6,0,P|126:148|114:167,1,44.999998626709,2|0,0:0|0:0,0:0:0:0:
64,277,69642,1,2,0:0:0:0:
188,230,69805,2,8,P|205:278|208:291,1,44.999998626709,8|0,0:0|0:0,0:0:0:0:
242,161,70131,1,0,0:0:0:0:
124,112,70294,1,8,0:0:0:0:
51,254,70457,2,0,P|73:259|96:262,1,44.999998626709
309,243,70783,6,0,P|353:240|374:243,1,44.999998626709
468,301,71109,1,10,0:0:0:0:
358,277,71272,1,2,0:0:0:0:
414,129,71435,1,10,0:0:0:0:
441,192,71598,2,0,P|428:141|422:131,1,44.999998626709,2|0,0:0|0:0,0:0:0:0:
312,69,71924,6,0,P|271:63|255:66,1,44.999998626709,10|0,0:0|0:0,0:0:0:0:
156,225,72250,2,0,P|181:192|187:177,1,44.999998626709,2|8,0:0|0:0,0:0:0:0:
98,11,72576,2,0,P|113:49|123:61,1,44.999998626709,2|0,0:0|0:0,0:0:0:0:
266,94,72902,1,10,0:0:0:0:
117,79,73066,1,8,0:0:0:0:
111,88,73147,1,8,0:0:0:0:
107,99,73229,1,8,0:0:0:0:
102,109,73310,1,8,0:0:0:0:
98,120,73392,1,12,0:0:0:0:
75,133,73718,5,10,0:0:0:0:
132,249,73881,1,2,0:0:0:0:
256,185,74044,1,10,0:0:0:0:
321,209,74207,2,0,P|273:213|257:210,1,44.999998626709,2|0,0:0|0:0,0:0:0:0:
400,110,74533,6,0,P|420:66|431:54,1,44.999998626709,8|0,0:0|0:0,0:0:0:0:
444,237,74859,2,0,P|471:276|476:291,1,44.999998626709,2|8,0:0|0:0,0:0:0:0:
312,211,75185,2,0,P|264:214|249:211,1,44.999998626709,2|8,0:0|0:0,0:0:0:0:
335,113,75511,1,8,0:0:0:0:
199,149,75674,1,2,0:0:0:0:
170,219,75837,2,0,P|175:189|186:162,1,44.999998626709,2|8,0:0|0:0,0:0:0:0:
333,31,76163,5,2,0:0:0:0:
440,154,76326,2,0,L|441:250,1,64.9999970245363,8|0,0:0|0:0,0:0:0:0:
286,135,76652,1,2,0:0:0:0:
301,297,76816,1,0,0:0:0:0:
178,188,76979,1,10,0:0:0:0:
366,223,77142,1,0,0:0:0:0:
130,109,77305,6,0,L|143:262,1,129.999994049073,4|0,0:3|0:3,0:3:0:0:
112,262,77631,5,0,0:0:0:0:
119,269,77712,1,0,0:0:0:0:
119,269,77794,1,0,0:0:0:0:
98,96,77957,1,0,3:3:0:0:
98,96,78038,1,0,3:3:0:0:
98,96,78120,2,0,L|100:48,1,32.4999985122681,0|0,3:0|0:0,0:0:0:0:
200,208,78283,5,0,3:0:0:0:
237,222,78364,1,0,3:0:0:0:
278,225,78446,1,0,3:0:0:0:
317,217,78527,1,0,3:0:0:0:
352,197,78609,5,4,0:1:0:0:
264,73,78772,1,2,0:0:0:0:
449,147,78935,2,0,P|459:198|442:257,1,80,10|0,0:0|0:0,0:0:0:0:
207,323,79261,2,0,P|203:283|213:244,1,80,2|0,0:0|0:0,0:0:0:0:
382,363,79587,1,8,0:0:0:0:
300,122,79750,1,2,0:0:0:0:
287,159,79832,1,2,0:0:0:0:
290,202,79913,6,0,P|348:197|380:202,1,80,2|0,0:0|0:0,0:0:0:0:
190,127,80239,2,0,L|181:261,1,120,8|0,0:0|0:0,0:0:0:0:
179,281,80566,2,0,P|114:298|81:288,1,80,2|0,0:0|0:0,0:0:0:0:
203,97,80892,2,0,P|242:96|279:112,1,80,10|0,0:0|0:0,0:0:0:0:
111,171,81218,5,2,0:0:0:0:
102,31,81381,1,0,0:0:0:0:
224,182,81544,1,8,0:0:0:0:
210,13,81707,2,0,L|194:189,1,160,2|0,0:0|0:0,0:0:0:0:
309,342,82196,1,8,0:0:0:0:
166,305,82359,1,0,0:0:0:0:
325,221,82522,6,0,L|311:321,1,80,2|0,0:0|0:0,0:0:0:0:
281,120,82848,1,8,0:0:0:0:
448,261,83011,2,0,P|451:211|440:164,1,80,2|0,0:0|0:0,0:0:0:0:
269,151,83337,1,2,0:0:0:0:
359,203,83500,1,8,0:0:0:0:
198,219,83663,1,2,0:0:0:0:
198,219,83745,1,2,0:0:0:0:
198,219,83826,6,0,P|107:209|19:224,1,160,2|8,0:0|0:0,0:0:0:0:
115,296,84316,1,0,0:0:0:0:
16,184,84479,2,0,P|23:137|35:95,1,80,2|0,0:0|0:0,0:0:0:0:
188,183,84805,1,8,0:0:0:0:
190,32,84968,1,2,0:0:0:0:
209,65,85049,1,2,0:0:0:0:
235,94,85131,6,0,P|289:104|343:96,1,80,2|0,0:0|0:0,0:0:0:0:
196,209,85457,2,0,P|156:208|117:217,1,80,8|0,0:0|0:0,0:0:0:0:
255,301,85783,1,2,0:0:0:0:
263,131,85946,1,0,0:0:0:0:
365,300,86109,1,10,0:0:0:0:
411,138,86272,1,0,0:0:0:0:
495,314,86435,6,0,P|450:341|340:331,1,160,6|8,0:0|0:0,0:0:0:0:
244,230,86924,1,2,0:0:0:0:
214,218,87006,1,2,0:0:0:0:
181,217,87087,2,0,P|142:230|89:234,1,80,2|0,0:0|0:0,0:0:0:0:
104,100,87413,1,8,0:0:0:0:
71,239,87576,1,2,0:0:0:0:
62,272,87658,1,2,0:0:0:0:
59,306,87739,6,0,P|66:368|64:391,1,80,2|0,0:0|0:0,0:0:0:0:
174,230,88066,1,8,0:0:0:0:
248,369,88229,1,2,0:0:0:0:
248,369,88310,1,2,0:0:0:0:
252,372,88392,1,0,3:1:0:0:
415,290,88555,1,0,3:0:0:0:
398,279,88636,1,0,3:0:0:0:
380,270,88718,1,8,3:0:0:0:
360,265,88799,1,0,3:0:0:0:
341,262,88881,1,8,3:0:0:0:
321,262,88962,1,0,3:0:0:0:
301,264,89044,5,12,3:2:0:0:
120,147,89207,1,2,0:0:0:0:
226,347,89370,1,10,0:0:0:0:
230,128,89533,1,0,0:0:0:0:
81,293,89696,2,0,P|20:302|-32:297,1,80,10|0,0:0|0:0,0:0:0:0:
205,109,90022,1,8,0:0:0:0:
237,324,90185,1,2,0:0:0:0:
237,324,90267,1,2,0:0:0:0:
237,324,90348,5,10,0:0:0:0:
326,149,90511,1,0,0:0:0:0:
339,358,90674,1,8,0:0:0:0:
219,209,90837,1,0,0:0:0:0:
388,294,91000,2,2,P|451:300|485:291,1,80,10|2,0:0|0:0,0:0:0:0:
281,115,91326,2,0,P|241:110|202:117,1,80,10|2,0:0|0:0,0:0:0:0:
125,235,91571,1,2,0:0:0:0:
98,275,91652,6,0,L|84:90,1,160,10|8,0:0|0:0,0:0:0:0:
72,306,92142,1,2,0:0:0:0:
168,69,92305,1,10,0:0:0:0:
0,179,92468,1,2,0:0:0:0:
185,105,92631,2,0,P|238:113|279:107,1,80,10|0,0:0|0:0,0:0:0:0:
84,240,92957,6,0,P|31:232|-10:238,1,80,10|0,0:0|0:0,0:0:0:0:
212,178,93283,1,8,0:0:0:0:
150,357,93446,1,0,0:0:0:0:
176,158,93609,1,10,0:0:0:0:
249,313,93772,1,0,0:0:0:0:
247,92,93935,2,0,P|266:127|273:166,1,80,10|0,0:0|0:0,0:0:0:0:
92,30,94261,5,8,0:0:0:0:
363,7,94424,1,2,0:0:0:0:
127,166,94587,5,8,0:0:0:0:
373,41,94750,1,2,0:0:0:0:
141,196,94913,5,8,0:0:0:0:
419,135,95076,1,2,0:0:0:0:
200,326,95239,5,8,0:0:0:0:
427,170,95402,1,2,0:0:0:0:
236,339,95566,5,8,0:0:0:0:
457,275,95729,1,2,0:0:0:0:
271,361,95892,6,0,P|204:368|161:355,1,80,10|0,0:0|0:0,0:0:0:0:
160,111,96218,2,0,P|198:164|209:207,1,80,10|0,0:0|0:0,0:0:0:0:
0,332,96544,2,0,P|26:269|58:239,1,80,10|0,0:0|0:0,0:0:0:0:
244,346,96870,6,0,P|331:353|417:307,1,160,10|8,0:0|0:0,0:0:0:0:
303,144,97359,1,2,0:0:0:0:
212,356,97522,5,8,0:0:0:0:
335,153,97685,1,2,0:0:0:0:
173,364,97848,5,8,0:0:0:0:
306,172,98011,1,2,0:0:0:0:
132,354,98174,5,12,0:0:0:0:
149,34,98419,1,0,3:3:0:0:
149,34,98500,1,8,0:0:0:0:
101,210,98663,1,0,0:0:0:0:
301,184,98826,1,0,3:0:0:0:
301,184,98908,1,0,3:0:0:0:
301,184,98989,1,8,3:0:0:0:
147,146,99152,1,0,3:0:0:0:
147,146,99234,1,0,3:0:0:0:
147,146,99316,1,4,3:0:0:0:
242,338,99642,5,0,3:0:0:0:
125,118,99805,2,4,L|106:270,1,110.000003356934,4|4,0:3|3:0,3:0:0:0:
397,201,100212,5,2,0:0:0:0:
397,201,100294,1,2,0:0:0:0:
259,304,100457,1,2,0:0:0:0:
