osu file format v14

[General]
AudioFilename: Shakugan no Shana II - Sense.mp3
AudioLeadIn: 0
PreviewTime: 52865
Countdown: 0
SampleSet: Normal
StackLeniency: 0.5
Mode: 0
LetterboxInBreaks: 0
WidescreenStoryboard: 1

[Editor]
Bookmarks: 131169,161437,192865,201437,236794,236973,237330,237508,238044,238223,238580
DistanceSpacing: 1.4
BeatDivisor: 4
GridSize: 32
TimelineZoom: 1.3

[Metadata]
Title:sense
TitleUnicode:sense
Artist:Mami Kawada
ArtistUnicode:川田まみ
Creator:Giralda
Version:Hard
Source:灼眼のシャナ Ⅱ
Tags:shakugan no shana second ii savia la cataline gaia trust ending
BeatmapID:1000347
BeatmapSetID:325638

[Difficulty]
HPDrainRate:6
CircleSize:3.8
OverallDifficulty:6
ApproachRate:7.5
SliderMultiplier:1.4
SliderTickRate:1

[Events]
//Background and Video events
0,0,"1024bg.png",0,0
//Break Periods
2,18780,29183
2,87351,97755
2,193065,200612
//Storyboard Layer 0 (Background)
//Storyboard Layer 1 (Fail)
//Storyboard Layer 2 (Pass)
//Storyboard Layer 3 (Foreground)
//Storyboard Sound Samples

[TimingPoints]
2866,357.142857142857,4,1,1,30,1,0
30008,-125,4,1,1,30,0,0
52865,-100,4,1,1,70,0,0
85723,-100,4,1,1,70,0,1
87151,-100,4,1,1,70,0,0
98580,-125,4,1,1,30,0,0
121437,-100,4,1,1,70,0,0
155723,-100,4,1,1,70,0,0
167151,-100,4,1,1,70,0,1
190008,-100,4,1,1,40,0,0
201437,-125,4,1,1,40,0,0
204294,-100,4,1,1,70,0,0
238580,-100,4,1,1,40,0,0
244294,-100,4,1,1,10,0,0

[Colours]
Combo1 : 1,224,152
Combo2 : 248,41,108
Combo3 : 0,255,128
Combo4 : 255,135,55

[HitObjects]
173,293,6794,5,0,0:0:0:0:
90,339,6973,1,0,0:0:0:0:
90,339,7062,1,0,0:0:0:0:
90,339,7151,2,0,P|80:305|77:270,1,70,0|0,0:0|0:0,0:0:0:0:
147,201,7508,2,0,P|216:197|286:189,1,140,0|2,0:0|0:0,0:0:0:0:
286,188,8044,1,0,0:0:0:0:
287,96,8223,2,0,L|217:89,1,70,0|0,0:0|0:0,0:0:0:0:
147,30,8580,6,0,P|141:64|133:98,1,70,2|0,0:0|0:0,0:0:0:0:
53,142,8937,2,0,P|59:211|64:281,1,140,0|2,0:0|0:0,0:0:0:0:
131,352,9473,1,0,0:0:0:0:
235,348,9651,1,0,0:0:0:0:
340,348,9830,1,0,0:0:0:0:
340,348,9919,1,0,0:0:0:0:
340,348,10008,6,0,P|346:313|345:278,1,70,0|0,0:0|0:0,0:0:0:0:
389,191,10365,2,0,L|250:201,1,140,0|2,0:0|0:0,0:0:0:0:
151,197,10901,1,0,0:0:0:0:
52,190,11080,2,0,P|45:156|43:121,1,70,0|0,0:0|0:0,0:0:0:0:
99,276,11437,6,0,P|106:310|108:345,1,70,2|0,0:0|0:0,0:0:0:0:
201,376,11794,2,0,L|341:371,1,140,0|2,0:0|0:0,0:0:0:0:
340,371,12330,1,0,0:0:0:0:
436,357,12508,1,0,0:0:0:0:
430,161,12865,5,0,0:0:0:0:
347,213,13044,1,0,0:0:0:0:
249,202,13223,2,0,L|109:216,1,140,4|0,0:0|0:0,0:0:0:0:
19,178,13758,1,0,0:0:0:0:
87,107,13937,2,0,L|156:114,1,70,4|0,0:0|0:0,0:0:0:0:
208,31,14294,6,0,L|138:23,1,70,0|0,0:0|0:0,0:0:0:0:
247,116,14651,2,0,P|317:111|387:106,1,140,4|0,0:0|0:0,0:0:0:0:
484,118,15187,1,2,0:0:0:0:
479,215,15365,2,0,L|387:209,1,70,0|0,0:0|0:0,0:0:0:0:
311,223,15723,5,0,0:0:0:0:
213,234,15901,1,0,0:0:0:0:
221,331,16080,1,4,0:0:0:0:
319,320,16258,1,0,0:0:0:0:
213,234,16437,2,0,L|143:227,1,70,4|0,0:0|0:0,0:0:0:0:
56,180,16794,1,4,0:0:0:0:
21,88,16973,1,0,0:0:0:0:
112,53,17151,2,0,L|125:15,2,35
147,143,17508,6,0,L|300:159,1,140,0|4,0:0|0:0,0:0:0:0:
286,157,18044,1,0,0:0:0:0:
381,135,18223,1,4,0:0:0:0:
471,171,18580,5,12,0:0:0:0:
59,111,30008,6,0,L|170:118,1,112,0|0,0:0|0:0,0:0:0:0:
261,89,30544,2,0,L|372:82,1,112,0|8,0:0|0:0,0:0:0:0:
467,67,31080,2,0,P|473:94|477:121,1,56,0|8,0:0|0:0,0:0:0:0:
410,189,31437,6,0,L|398:300,1,112,0|0,0:0|0:0,0:0:0:0:
398,300,32151,1,0,0:0:0:0:
306,325,32330,1,0,0:0:0:0:
285,232,32508,1,2,0:0:0:0:
377,207,32687,1,2,0:0:0:0:
477,122,32865,6,0,P|421:116|365:107,1,112,0|0,0:0|0:0,0:0:0:0:
275,136,33401,2,0,P|288:83|295:27,1,112,0|8,0:0|0:0,0:0:0:0:
183,131,33937,2,0,L|191:186,1,56,0|8,0:0|0:0,0:0:0:0:
128,258,34294,6,0,L|13:245,2,112,0|8|2,0:0|0:0|0:0,0:0:0:0:
128,258,35187,1,0,0:0:0:0:
222,253,35365,1,2,0:0:0:0:
317,252,35544,1,2,0:0:0:0:
317,252,35633,1,0,0:0:0:0:
317,251,35723,2,0,P|339:201|338:145,1,112,0|8,0:0|0:0,0:0:0:0:
343,142,36258,6,0,L|231:129,1,112,0|2,0:0|0:0,0:0:0:0:
136,137,36794,1,0,0:0:0:0:
42,157,36973,1,2,0:0:0:0:
21,64,37151,5,0,0:0:0:0:
115,44,37330,1,0,0:0:0:0:
204,74,37508,1,8,0:0:0:0:
298,61,37687,2,0,L|409:46,1,112,0|8,0:0|0:0,0:0:0:0:
486,102,38223,2,0,P|492:129|494:157,1,56,2|0,0:0|0:0,0:0:0:0:
345,214,38580,6,0,P|400:222|454:236,1,112,0|8,0:0|0:0,0:0:0:0:
435,329,39115,2,0,P|380:315|325:306,1,112,0|8,0:0|0:0,0:0:0:0:
244,356,39651,2,0,L|166:344,1,56,2|2,0:0|0:0,0:0:0:0:
93,356,40008,5,0,0:0:0:0:
56,267,40187,2,0,L|34:246,2,28,2|0|12,0:0|0:0|0:0,0:0:0:0:
146,236,40544,2,0,P|200:247|256:254,1,112,0|4,0:0|0:0,0:0:0:0:
256,254,41080,1,0,0:0:0:0:
350,247,41258,1,0,0:0:0:0:
412,174,41437,6,0,L|301:156,1,112,4|0,0:0|0:0,0:0:0:0:
231,91,41973,2,0,L|120:109,1,112,0|8,0:0|0:0,0:0:0:0:
32,72,42508,2,0,L|23:127,1,56,0|8,0:0|0:0,0:0:0:0:
55,216,42865,6,0,L|166:234,1,112,0|2,0:0|0:0,0:0:0:0:
165,233,43580,1,0,0:0:0:0:
259,220,43758,1,8,0:0:0:0:
246,125,43937,1,2,0:0:0:0:
152,138,44115,1,2,0:0:0:0:
259,220,44294,6,0,L|376:234,1,112,0|0,0:0|0:0,0:0:0:0:
412,318,44830,2,0,L|300:304,1,112,0|8,0:0|0:0,0:0:0:0:
219,353,45365,2,0,L|151:366,1,56,0|8,0:0|0:0,0:0:0:0:
78,320,45723,6,0,P|62:269|52:200,2,112,0|0|4,0:0|0:0|0:0,0:0:0:0:
154,263,46615,1,0,0:0:0:0:
249,270,46794,1,2,0:0:0:0:
342,288,46973,1,2,0:0:0:0:
342,288,47062,1,0,0:0:0:0:
342,288,47151,6,0,P|397:295|453:300,1,112,0|8,0:0|0:0,0:0:0:0:
459,204,47687,2,0,P|404:197|348:192,1,112,2|2,0:0|0:0,0:0:0:0:
260,154,48223,1,0,0:0:0:0:
165,158,48401,1,2,0:0:0:0:
69,159,48580,6,0,P|67:191|61:216,1,56,0|0,0:0|0:0,0:0:0:0:
137,281,48937,1,8,0:0:0:0:
137,281,49115,2,0,L|261:272,1,112,0|8,0:0|0:0,0:0:0:0:
350,196,49651,2,0,L|294:201,1,56,2|0,0:0|0:0,0:0:0:0:
363,187,50008,5,0,0:0:0:0:
459,163,50187,2,0,L|474:192,2,28,0|0|8,0:0|0:0|0:0,0:0:0:0:
434,68,50544,1,0,0:0:0:0:
338,92,50723,1,0,0:0:0:0:
243,69,50901,1,0,0:0:0:0:
147,93,51080,2,0,L|124:82,4,14,0|0|0|0|0,0:0|0:0|0:0|0:0|0:0,0:0:0:0:
99,178,51437,6,0,L|86:256,1,56,4|4,0:0|0:0,0:0:0:0:
161,299,51794,2,0,L|170:243,1,56,0|4,0:0|0:0,0:0:0:0:
248,184,52151,2,0,L|208:163,2,28,0|0|0,0:0|0:0|0:0,0:0:0:0:
458,152,52508,1,4,0:0:0:0:
452,156,52865,6,0,L|312:140,1,140,4|8,0:0|0:0,0:0:0:0:
221,106,53401,1,0,0:0:0:0:
297,44,53580,2,0,L|366:37,1,70,0|0,0:0|0:0,0:0:0:0:
221,106,53937,2,0,L|151:112,1,70,8|0,0:0|0:0,0:0:0:0:
71,54,54294,6,0,P|66:88|56:122,1,70,0|0,0:0|0:0,0:0:0:0:
6,206,54651,1,8,0:0:0:0:
98,238,54830,2,0,P|167:229|237:225,1,140,0|8,0:0|0:0,0:0:0:0:
333,244,55365,1,0,0:0:0:0:
237,225,55544,1,8,0:0:0:0:
332,244,55723,6,0,P|346:175|337:106,1,140,0|8,0:0|0:0,0:0:0:0:
337,106,56258,1,0,0:0:0:0:
267,37,56437,2,0,P|301:30|335:21,1,70,0|0,0:0|0:0,0:0:0:0:
432,34,56794,2,0,P|424:68|420:102,1,70,8|0,0:0|0:0,0:0:0:0:
484,237,57151,6,0,P|492:202|496:168,2,70,0|0|8,0:0|0:0|0:0,0:0:0:0:
427,317,57687,2,0,P|357:321|287:329,1,140,0|8,0:0|0:0,0:0:0:0:
189,321,58223,1,0,0:0:0:0:
92,308,58401,1,8,0:0:0:0:
35,226,58580,6,0,L|174:218,1,140,0|8,0:0|0:0,0:0:0:0:
235,141,59115,2,0,L|165:134,1,70,0|0,0:0|0:0,0:0:0:0:
161,35,59473,2,0,L|230:28,1,70,0|8,0:0|0:0,0:0:0:0:
303,94,59830,6,0,L|442:88,1,140,0|0,0:0|0:0,0:0:0:0:
442,88,60365,1,8,0:0:0:0:
462,196,60544,1,0,0:0:0:0:
462,196,60633,1,0,0:0:0:0:
462,196,60723,1,0,0:0:0:0:
453,293,60901,1,8,0:0:0:0:
453,293,61080,2,0,L|383:290,1,70,0|8,0:0|0:0,0:0:0:0:
291,327,61437,6,0,P|279:259|281:189,1,140,4|8,0:0|0:0,0:0:0:0:
195,141,61973,2,0,P|196:210|184:279,1,140,4|8,0:0|0:0,0:0:0:0:
184,279,62508,1,0,0:0:0:0:
126,92,62865,5,6,0:0:0:0:
126,92,62955,1,0,0:0:0:0:
126,92,63044,1,2,0:0:0:0:
219,61,63223,2,0,L|299:56,1,70,8|2,0:0|0:0,0:0:0:0:
386,66,63580,1,6,0:0:0:0:
482,78,63758,1,2,0:0:0:0:
472,175,63937,1,2,0:0:0:0:
376,163,64115,1,0,0:0:0:0:
376,163,64205,1,0,0:0:0:0:
376,162,64294,6,0,L|301:152,1,70,4|0,0:0|0:0,0:0:0:0:
208,158,64651,1,8,0:0:0:0:
110,170,64830,1,0,0:0:0:0:
110,170,65008,2,0,P|101:203|95:238,1,70,0|0,0:0|0:0,0:0:0:0:
158,313,65365,2,0,P|124:320|82:336,1,70,8|0,0:0|0:0,0:0:0:0:
178,315,65723,5,0,0:0:0:0:
224,240,65901,2,0,P|292:252|362:260,1,140,0|0,0:0|0:0,0:0:0:0:
362,260,66615,1,8,0:0:0:0:
453,223,66794,1,0,0:0:0:0:
462,125,66973,1,8,0:0:0:0:
374,80,67151,6,0,P|304:75|234:69,1,140,0|8,0:0|0:0,0:0:0:0:
143,105,67687,1,0,0:0:0:0:
45,96,67865,2,0,P|38:133|34:164,1,70,0|0,0:0|0:0,0:0:0:0:
48,262,68223,2,0,P|84:258|126:250,1,70,8|0,0:0|0:0,0:0:0:0:
206,210,68580,5,0,0:0:0:0:
196,307,68758,2,0,P|266:313|335:327,1,140,0|0,0:0|0:0,0:0:0:0:
442,162,69473,1,8,0:0:0:0:
451,259,69651,1,0,0:0:0:0:
442,162,69830,1,8,0:0:0:0:
350,127,70008,6,0,P|311:123|194:111,1,140,6|8,0:0|0:0,0:0:0:0:
113,99,70544,2,0,P|94:67|84:27,1,70,2|0,0:0|0:0,0:0:0:0:
27,115,70901,2,0,P|17:148|0:178,1,70,2|8,0:0|0:0,0:0:0:0:
92,204,71258,2,0,P|123:187|157:178,2,70,2|0|2,0:0|0:0|0:0,0:0:0:0:
98,300,71794,6,0,P|160:269|227:250,2,140,8|6|6,0:0|0:0|0:0,0:0:0:0:
226,151,72865,6,0,P|291:177|361:178,1,140,6|0,0:0|0:0,0:0:0:0:
443,124,73401,2,0,P|409:185|387:251,1,140,6|0,0:0|0:0,0:0:0:0:
484,250,73937,2,0,P|495:284|500:318,1,70,6|2,0:0|0:0,0:0:0:0:
407,348,74294,5,6,0:0:0:0:
407,348,74383,1,0,0:0:0:0:
407,348,74473,1,0,0:0:0:0:
312,374,74651,1,2,0:0:0:0:
222,332,74830,2,0,P|152:323|82:318,1,140,6|2,0:0|0:0,0:0:0:0:
23,241,75365,2,0,L|92:235,1,70,2|0,0:0|0:0,0:0:0:0:
192,244,75723,6,0,L|209:105,1,140,4|8,0:0|0:0,0:0:0:0:
208,105,76258,1,0,0:0:0:0:
303,103,76437,2,0,L|310:172,1,70,0|0,0:0|0:0,0:0:0:0:
391,228,76794,2,0,L|398:158,1,70,8|0,0:0|0:0,0:0:0:0:
472,93,77151,6,0,L|484:232,1,140,0|8,0:0|0:0,0:0:0:0:
484,232,77687,1,0,0:0:0:0:
480,330,77865,2,0,L|402:316,1,70,0|0,0:0|0:0,0:0:0:0:
314,297,78223,1,8,0:0:0:0:
64,360,78580,6,0,P|125:328|197:333,1,140,0|8,0:0|0:0,0:0:0:0:
194,332,79115,1,0,0:0:0:0:
253,253,79294,2,0,L|263:94,1,140,0|8,0:0|0:0,0:0:0:0:
175,66,79830,6,0,L|105:55,1,70,0|0,0:0|0:0,0:0:0:0:
104,154,80187,2,0,L|173:143,1,70,0|8,0:0|0:0,0:0:0:0:
261,113,80544,1,0,0:0:0:0:
449,60,80901,1,8,0:0:0:0:
469,155,81080,1,0,0:0:0:0:
449,60,81258,1,0,0:0:0:0:
469,155,81437,6,0,P|464:253|454:294,1,140,4|8,0:0|0:0,0:0:0:0:
357,278,81973,1,0,0:0:0:0:
259,266,82151,2,0,L|96:256,1,140,0|8,0:0|0:0,0:0:0:0:
34,208,82687,1,0,0:0:0:0:
101,137,82865,6,0,L|81:66,1,70,0|0,0:0|0:0,0:0:0:0:
161,11,83223,2,0,L|179:78,1,70,8|0,0:0|0:0,0:0:0:0:
260,134,83580,2,0,P|329:134|389:100,1,140,0|8,0:0|0:0,0:0:0:0:
475,276,84294,6,0,P|414:242|345:242,1,140,4|8,0:0|0:0,0:0:0:0:
345,241,84830,1,0,0:0:0:0:
264,296,85008,2,0,P|252:263|251:228,1,70,0|0,0:0|0:0,0:0:0:0:
312,151,85365,1,8,0:0:0:0:
125,90,85723,6,0,L|102:46,2,35
222,100,86080,1,0,0:0:0:0:
222,100,86258,1,0,0:0:0:0:
302,44,86437,2,0,P|337:45|372:41,1,70
457,91,86794,1,0,0:0:0:0:
457,91,86973,1,0,0:0:0:0:
424,183,87151,5,0,0:0:0:0:
411,104,98580,5,4,0:0:0:0:
411,104,98937,1,8,0:0:0:0:
327,150,99116,1,0,0:0:0:0:
244,102,99294,2,0,L|188:92,1,56,0|0,0:0|0:0,0:0:0:0:
99,126,99651,1,8,0:0:0:0:
53,210,99830,6,0,L|164:203,1,112,0|0,0:0|0:0,0:0:0:0:
242,257,100365,2,0,L|253:194,1,56,2|0,0:0|0:0,0:0:0:0:
246,105,100723,1,0,0:0:0:0:
232,11,100901,1,0,0:0:0:0:
137,23,101080,1,0,0:0:0:0:
151,117,101258,1,0,0:0:0:0:
113,204,101437,6,0,P|99:257|95:314,1,112,0|8,0:0|0:0,0:0:0:0:
94,313,101973,1,0,0:0:0:0:
170,371,102151,2,0,P|179:345|182:318,1,56,0|0,0:0|0:0,0:0:0:0:
188,222,102508,1,8,0:0:0:0:
188,222,102687,2,0,L|317:204,1,112,0|0,0:0|0:0,0:0:0:0:
359,132,103223,2,0,L|298:118,1,56,2|0,0:0|0:0,0:0:0:0:
232,56,103580,2,0,L|220:125,1,56,0|0,0:0|0:0,0:0:0:0:
135,149,103937,2,0,L|125:93,1,56,0|0,0:0|0:0,0:0:0:0:
30,89,104294,6,0,L|17:200,1,112,0|8,0:0|0:0,0:0:0:0:
16,200,105008,1,0,0:0:0:0:
45,290,105186,1,0,0:0:0:0:
126,339,105365,1,0,0:0:0:0:
220,322,105544,1,0,0:0:0:0:
219,321,105723,6,0,L|296:312,1,56,0|0,0:0|0:0,0:0:0:0:
360,357,106080,1,8,0:0:0:0:
360,357,106258,2,0,L|341:226,1,112,0|0,0:0|0:0,0:0:0:0:
402,170,106794,2,0,L|393:115,1,56,2|0,0:0|0:0,0:0:0:0:
376,20,107151,6,0,L|264:9,1,112,0|8,0:0|0:0,0:0:0:0:
252,103,107687,2,0,L|140:114,1,112,0|8,0:0|0:0,0:0:0:0:
49,83,108223,2,0,L|39:138,1,56,0|8,0:0|0:0,0:0:0:0:
18,231,108580,5,4,0:0:0:0:
114,268,108758,2,0,L|123:294,2,28
192,228,109115,1,0,0:0:0:0:
280,264,109294,2,0,L|291:294,2,28,0|0|0,0:0|0:0|0:0,0:0:0:0:
365,220,109651,2,0,L|371:147,1,56,4|0,0:0|0:0,0:0:0:0:
432,92,110008,5,4,0:0:0:0:
244,58,110365,1,0,0:0:0:0:
244,58,110544,1,0,0:0:0:0:
275,148,110723,2,0,L|279:203,1,56,0|0,0:0|0:0,0:0:0:0:
285,299,111080,1,8,0:0:0:0:
285,299,111258,6,0,P|229:291|173:286,1,112,0|0,0:0|0:0,0:0:0:0:
101,224,111794,1,8,0:0:0:0:
5,216,111973,1,0,0:0:0:0:
101,224,112151,2,0,L|115:148,1,56,0|0,0:0|0:0,0:0:0:0:
164,89,112508,2,0,L|109:74,1,56,0|0,0:0|0:0,0:0:0:0:
224,162,112865,6,0,L|336:154,1,112,0|8,0:0|0:0,0:0:0:0:
335,154,113401,1,0,0:0:0:0:
423,117,113580,2,0,L|433:171,1,56,0|0,0:0|0:0,0:0:0:0:
464,262,113937,1,8,0:0:0:0:
371,341,114115,6,0,P|366:303|360:227,1,112,0|0,0:0|0:0,0:0:0:0:
277,181,114651,2,0,P|249:177|222:168,1,56,8|0,0:0|0:0,0:0:0:0:
128,152,115008,2,0,P|135:178|140:206,1,56,0|0,0:0|0:0,0:0:0:0:
116,298,115365,2,0,P|142:288|170:285,1,56,0|0,0:0|0:0,0:0:0:0:
259,249,115723,6,0,P|313:263|368:269,1,112,0|8,0:0|0:0,0:0:0:0:
387,176,116258,2,0,P|331:169|277:155,1,112,0|0,0:0|0:0,0:0:0:0:
212,85,116794,2,0,L|181:140,1,56,0|0,0:0|0:0,0:0:0:0:
102,181,117151,5,0,0:0:0:0:
7,169,117330,1,0,0:0:0:0:
18,74,117508,1,8,0:0:0:0:
113,86,117687,1,0,0:0:0:0:
207,78,117865,6,0,L|263:73,1,56,0|8,0:0|0:0,0:0:0:0:
357,90,118223,1,0,0:0:0:0:
451,101,118401,1,0,0:0:0:0:
451,101,118580,6,0,P|462:155|466:211,2,112,4|4|4,0:0|0:0|0:0,0:0:0:0:
404,299,119651,1,4,0:0:0:0:
404,299,120008,6,0,L|417:274,2,28,8|0|0,0:0|0:0|0:0,0:0:0:0:
314,266,120365,1,0,0:0:0:0:
222,294,120544,2,0,L|205:325,2,28,8|0|0,0:0|0:0|0:0,0:0:0:0:
175,210,120901,1,0,0:0:0:0:
307,124,121080,1,8,0:0:0:0:
306,124,121437,6,0,P|237:121|168:107,1,140,4|8,0:0|0:0,0:0:0:0:
167,106,121973,1,0,0:0:0:0:
71,86,122151,1,0,0:0:0:0:
54,182,122330,2,0,P|88:178|125:175,1,70,0|8,0:0|0:0,0:0:0:0:
150,291,122687,6,0,P|82:270|13:260,2,140,0|0|0,0:0|0:0|0:0,0:0:0:0:
244,263,123580,2,0,P|279:259|314:253,1,70,0|8,0:0|0:0,0:0:0:0:
360,167,123937,1,0,0:0:0:0:
270,127,124115,1,0,0:0:0:0:
329,48,124294,6,0,L|177:29,1,140,0|8,0:0|0:0,0:0:0:0:
190,30,124830,1,0,0:0:0:0:
93,46,125008,2,0,P|85:81|79:115,1,70,0|0,0:0|0:0,0:0:0:0:
234,142,125365,2,0,P|197:135|166:129,1,70,8|0,0:0|0:0,0:0:0:0:
234,142,125723,5,0,0:0:0:0:
307,208,125901,2,0,L|446:197,1,140,0|0,0:0|0:0,0:0:0:0:
446,196,126615,5,8,0:0:0:0:
466,292,126794,1,0,0:0:0:0:
352,357,126973,1,0,0:0:0:0:
372,261,127151,6,0,P|314:256|234:238,1,140,0|8,0:0|0:0,0:0:0:0:
234,238,127687,1,0,0:0:0:0:
137,222,127865,2,0,P|137:256|145:290,1,70,0|0,0:0|0:0,0:0:0:0:
208,164,128223,2,0,P|207:129|199:95,1,70,8|0,0:0|0:0,0:0:0:0:
332,36,128580,5,0,0:0:0:0:
427,54,128758,1,0,0:0:0:0:
411,150,128937,1,8,0:0:0:0:
316,132,129115,2,0,L|271:148,2,35
356,217,129473,1,8,0:0:0:0:
356,217,129651,2,0,P|362:251|366:286,1,70,0|8,0:0|0:0,0:0:0:0:
317,357,130008,6,0,L|178:336,1,140,0|8,0:0|0:0,0:0:0:0:
84,363,130544,2,0,P|74:330|72:294,1,70,0|0,0:0|0:0,0:0:0:0:
20,211,130901,1,8,0:0:0:0:
20,211,131080,2,0,P|55:206|103:189,1,70,0|8,0:0|0:0,0:0:0:0:
162,131,131437,6,0,L|205:128,2,35
150,33,131794,1,8,0:0:0:0:
150,33,131973,2,0,L|311:21,1,140,2|10,0:0|0:0,0:0:0:0:
369,78,132508,2,0,L|377:2,1,70,2|8,0:0|0:0,0:0:0:0:
451,68,132865,6,0,P|466:137|470:207,1,140,4|8,0:0|0:0,0:0:0:0:
470,207,133401,1,0,0:0:0:0:
374,185,133580,2,0,L|363:254,1,70,0|0,0:0|0:0,0:0:0:0:
293,322,133937,2,0,P|262:308|228:299,1,70,8|0,0:0|0:0,0:0:0:0:
154,234,134294,6,0,P|187:225|219:210,2,70,0|0|8,0:0|0:0|0:0,0:0:0:0:
83,164,134830,2,0,P|152:149|215:119,1,140,0|8,0:0|0:0,0:0:0:0:
312,123,135365,1,0,0:0:0:0:
409,130,135544,1,8,0:0:0:0:
409,130,135723,6,0,P|431:236|432:274,1,140,0|8,0:0|0:0,0:0:0:0:
432,267,136258,1,0,0:0:0:0:
357,331,136437,2,0,L|344:253,1,70,0|0,0:0|0:0,0:0:0:0:
248,244,136794,2,0,L|259:313,1,70,8|0,0:0|0:0,0:0:0:0:
167,347,137151,5,0,0:0:0:0:
166,346,137330,2,0,P|97:350|30:371,2,140,0|0|8,0:0|0:0|0:0,0:0:0:0:
351,279,138401,1,2,0:0:0:0:
274,217,138580,6,0,L|186:224,1,70,6|0,0:0|0:0,0:0:0:0:
107,237,138937,1,8,0:0:0:0:
87,141,139115,2,0,P|121:135|153:121,1,70,2|0,0:0|0:0,0:0:0:0:
220,49,139472,2,0,P|229:82|246:113,1,70,2|8,0:0|0:0,0:0:0:0:
378,68,139830,6,0,L|308:59,2,70,2|0|2,0:0|0:0|0:0,0:0:0:0:
383,165,140365,2,0,L|244:147,2,140,8|6|6,0:0|0:0|0:0,0:0:0:0:
484,331,141437,6,0,P|415:336|351:364,1,140,6|0,0:0|0:0,0:0:0:0:
290,288,141973,2,0,P|220:283|156:255,1,140,6|0,0:0|0:0,0:0:0:0:
61,274,142508,2,0,L|45:201,1,70,6|0,0:0|0:0,0:0:0:0:
96,121,142865,5,6,0:0:0:0:
96,121,142955,1,0,0:0:0:0:
96,121,143044,1,2,0:0:0:0:
189,91,143223,1,0,0:0:0:0:
279,126,143401,2,0,P|347:141|416:152,1,140,6|2,0:0|0:0,0:0:0:0:
489,85,143937,2,0,P|493:120|501:156,1,70,2|0,0:0|0:0,0:0:0:0:
455,269,144294,6,0,P|385:278|319:300,1,140,4|8,0:0|0:0,0:0:0:0:
319,300,144830,1,0,0:0:0:0:
230,341,145008,2,0,L|136:325,1,70,0|0,0:0|0:0,0:0:0:0:
126,237,145365,2,0,L|195:248,1,70,8|0,0:0|0:0,0:0:0:0:
247,165,145723,6,0,L|109:141,1,140,0|8,0:0|0:0,0:0:0:0:
109,141,146258,1,0,0:0:0:0:
27,87,146437,2,0,L|10:154,1,70,0|0,0:0|0:0,0:0:0:0:
42,247,146794,1,8,0:0:0:0:
297,286,147151,6,0,P|228:285|174:327,1,140,0|8,0:0|0:0,0:0:0:0:
174,327,147687,1,0,0:0:0:0:
147,233,147865,2,0,L|165:94,1,140,0|8,0:0|0:0,0:0:0:0:
261,75,148401,6,0,P|291:56|315:31,1,70,0|4,0:0|0:0,0:0:0:0:
352,122,148758,2,0,P|381:140|405:165,1,70,0|0,0:0|0:0,0:0:0:0:
449,253,149115,1,0,0:0:0:0:
272,340,149473,1,0,0:0:0:0:
256,243,149651,1,0,0:0:0:0:
272,340,149830,1,0,0:0:0:0:
256,243,150008,6,0,P|246:173|227:106,1,140,4|8,0:0|0:0,0:0:0:0:
139,63,150544,1,0,0:0:0:0:
41,49,150723,2,0,P|24:117|17:187,1,140,0|8,0:0|0:0,0:0:0:0:
36,283,151258,1,0,0:0:0:0:
127,319,151437,6,0,L|145:251,1,70,0|0,0:0|0:0,0:0:0:0:
242,235,151794,2,0,L|223:302,1,70,8|0,0:0|0:0,0:0:0:0:
311,344,152151,2,0,P|377:324|447:323,1,140,0|8,0:0|0:0,0:0:0:0:
490,132,152865,6,0,P|420:131|353:110,1,140,0|8,0:0|0:0,0:0:0:0:
353,110,153401,1,0,0:0:0:0:
264,69,153580,2,0,P|255:102|254:137,1,70,0|0,0:0|0:0,0:0:0:0:
286,230,153937,1,8,0:0:0:0:
456,326,154294,6,0,L|441:290,2,35
361,352,154651,1,8,0:0:0:0:
361,352,154830,1,0,0:0:0:0:
276,302,155008,2,0,P|226:288|178:285,1,70
122,237,155365,1,0,0:0:0:0:
122,237,155544,1,0,0:0:0:0:
200,178,155723,5,12,0:0:0:0:
256,192,155812,8,0,158580,0:0:0:0:
68,227,161437,6,0,L|58:307,1,70,0|2,0:0|0:0,0:0:0:0:
156,283,161794,2,0,L|147:352,1,70,0|2,0:0|0:0,0:0:0:0:
245,352,162151,2,0,L|236:282,1,70,0|2,0:0|0:0,0:0:0:0:
333,296,162508,2,0,L|324:226,1,70,0|2,0:0|0:0,0:0:0:0:
396,160,162865,5,0,0:0:0:0:
396,160,163044,1,2,0:0:0:0:
470,95,163223,1,0,0:0:0:0:
470,95,163401,1,2,0:0:0:0:
383,47,163580,2,0,L|314:35,1,70,0|2,0:0|0:0,0:0:0:0:
216,26,163937,2,0,P|224:95|228:165,1,140
256,192,164473,12,0,165723,0:0:0:0:
69,97,166437,6,0,L|54:56,2,35,0|0|0,0:0|0:0|0:0,0:0:0:0:
155,144,166794,2,0,L|142:176,2,35,0|0|0,0:0|0:0|0:0,0:0:0:0:
243,101,167151,6,0,L|328:93,2,70,6|0|8,0:0|0:0|0:0,0:0:0:0:
238,199,167687,2,0,L|378:188,1,140,0|0,0:0|0:0,0:0:0:0:
458,243,168223,1,8,0:0:0:0:
483,337,168401,1,2,0:0:0:0:
389,368,168580,6,0,L|308:361,1,70,0|2,0:0|0:0,0:0:0:0:
222,346,168937,1,2,0:0:0:0:
125,333,169115,2,0,P|116:263|116:193,1,140,0|2,0:0|0:0,0:0:0:0:
152,102,169651,1,2,0:0:0:0:
152,102,169830,1,0,0:0:0:0:
219,172,170008,6,0,L|306:162,2,70,6|0|8,0:0|0:0|0:0,0:0:0:0:
226,269,170544,2,0,L|260:264,2,35,0|0|0,0:0|0:0|0:0,0:0:0:0:
233,366,170901,2,0,L|372:352,1,140,0|2,0:0|0:0,0:0:0:0:
381,359,171437,6,0,P|391:289|386:220,1,140,0|6,0:0|0:0,0:0:0:0:
323,144,171973,2,0,L|355:102,2,35,0|0|4,0:0|0:0|0:0,0:0:0:0:
226,159,172330,1,2,0:0:0:0:
128,138,172508,1,6,0:0:0:0:
128,138,172687,1,0,0:0:0:0:
58,207,172865,6,0,P|70:258|81:352,1,140,6|10,0:0|0:0,0:0:0:0:
80,344,173580,1,0,0:0:0:0:
176,356,173758,1,0,0:0:0:0:
191,259,173937,2,0,L|259:271,1,70
357,279,174294,6,0,L|347:209,2,70,0|2|2,0:0|0:0|0:0,0:0:0:0:
453,296,174830,2,0,L|434:157,1,140,0|2,0:0|0:0,0:0:0:0:
397,88,175365,1,2,0:0:0:0:
397,88,175544,1,0,0:0:0:0:
308,43,175723,6,0,P|304:77|295:111,1,70,6|0,0:0|0:0,0:0:0:0:
299,209,176080,1,8,0:0:0:0:
299,209,176258,2,0,P|233:185|163:179,1,140,0|0,0:0|0:0,0:0:0:0:
75,222,176794,1,8,0:0:0:0:
64,319,176973,1,2,0:0:0:0:
154,354,177151,6,0,P|222:334|291:330,1,140,4|6,0:0|0:0,0:0:0:0:
382,358,177687,1,0,0:0:0:0:
463,303,177865,2,0,L|474:336,2,35,4|0|2,0:0|0:0|0:0,0:0:0:0:
469,204,178223,1,6,0:0:0:0:
348,49,178580,6,0,P|338:118|316:184,1,140,6|8,0:0|0:0,0:0:0:0:
316,184,179115,1,0,0:0:0:0:
236,242,179294,2,0,P|223:209|221:174,1,70,0|0,0:0|0:0,0:0:0:0:
152,104,179651,6,0,L|13:86,1,140,8|0,0:0|0:0,0:0:0:0:
78,271,180365,2,0,L|148:260,1,70,2|0,0:0|0:0,0:0:0:0:
234,305,180723,2,0,L|218:352,2,35,0|0|2,0:0|0:0|0:0,0:0:0:0:
328,276,181080,2,0,L|316:206,1,70,6|2,0:0|0:0,0:0:0:0:
318,108,181437,6,0,L|171:92,1,140,6|2,0:0|0:0,0:0:0:0:
84,120,181973,1,0,0:0:0:0:
40,207,182151,2,0,P|48:240|53:275,1,70,0|0,0:0|0:0,0:0:0:0:
134,330,182508,1,8,0:0:0:0:
134,330,182687,1,0,0:0:0:0:
211,271,182865,6,0,L|350:286,1,140,0|6,0:0|0:0,0:0:0:0:
433,235,183401,2,0,L|374:215,2,35,0|0|4,0:0|0:0|0:0,0:0:0:0:
465,142,183758,1,2,0:0:0:0:
465,142,183937,1,6,0:0:0:0:
282,70,184294,6,0,P|265:138|261:207,1,140,6|2,0:0|0:0,0:0:0:0:
261,207,184830,1,0,0:0:0:0:
293,300,185008,2,0,L|224:287,1,70,0|0,0:0|0:0,0:0:0:0:
136,331,185365,2,0,L|125:261,1,70,8|2,0:0|0:0,0:0:0:0:
75,177,185723,5,0,0:0:0:0:
98,82,185901,1,2,0:0:0:0:
188,120,186080,2,0,P|255:137|325:143,1,140,2|0,0:0|0:0,0:0:0:0:
414,104,186615,2,0,L|425:173,1,70,2|6,0:0|0:0,0:0:0:0:
425,173,186973,1,2,0:0:0:0:
399,267,187151,6,0,P|331:249|261:241,1,140,4|6,0:0|0:0,0:0:0:0:
261,241,187865,1,0,0:0:0:0:
164,256,188044,1,0,0:0:0:0:
174,353,188223,1,8,0:0:0:0:
271,338,188402,1,2,0:0:0:0:
367,325,188580,6,0,L|377:291,2,35,4|0|2,0:0|0:0|0:0,0:0:0:0:
464,314,188937,1,6,0:0:0:0:
455,216,189115,2,0,L|494:203,2,35,0|0|4,0:0|0:0|0:0,0:0:0:0:
356,214,189473,2,0,L|343:146,1,70,2|6,0:0|0:0,0:0:0:0:
342,145,189830,1,2,0:0:0:0:
263,86,190008,6,0,L|164:77,1,70,4|0,0:0|0:0,0:0:0:0:
132,157,190365,2,0,P|200:170|267:190,1,140,0|2,0:0|0:0,0:0:0:0:
267,190,190901,1,0,0:0:0:0:
357,152,191080,2,0,P|365:185|368:220,1,70,0|0,0:0|0:0,0:0:0:0:
256,192,191437,12,4,192865,0:0:0:0:
92,166,201437,6,0,L|75:333,2,168,0|0|2,0:0|0:0|0:0,0:0:0:0:
87,152,202865,6,0,L|68:108,2,28,6|0|2,0:0|0:0|0:0,0:0:0:0:
176,187,203223,1,0,0:0:0:0:
266,158,203401,2,0,L|285:114,2,28,6|0|0,0:0|0:0|0:0,0:0:0:0:
340,217,203758,1,2,0:0:0:0:
235,334,203937,1,2,0:0:0:0:
235,334,204294,6,0,L|96:318,1,140,12|2,0:0|0:0,0:0:0:0:
16,259,204830,1,0,0:0:0:0:
106,225,205008,1,2,0:0:0:0:
32,162,205187,1,0,0:0:0:0:
32,162,205365,2,0,L|24:92,1,70,8|2,0:0|0:0,0:0:0:0:
107,39,205723,6,0,L|114:108,1,70,0|2,0:0|0:0,0:0:0:0:
144,202,206080,1,8,0:0:0:0:
238,225,206258,2,0,P|307:222|376:209,1,140,2|10,0:0|0:0,0:0:0:0:
457,164,206794,2,0,L|472:233,1,70,2|8,0:0|0:0,0:0:0:0:
465,331,207151,6,0,L|326:318,1,140,0|2,0:0|0:0,0:0:0:0:
228,321,207687,1,0,0:0:0:0:
130,326,207865,1,2,0:0:0:0:
130,326,208044,1,0,0:0:0:0:
32,334,208223,1,8,0:0:0:0:
31,333,208401,6,0,P|18:265|18:195,1,140,2|2,0:0|0:0,0:0:0:0:
94,133,208937,1,8,0:0:0:0:
169,72,209115,2,0,P|239:67|309:59,1,140,2|10,0:0|0:0,0:0:0:0:
401,89,209651,2,0,P|395:123|392:158,1,70,2|0,0:0|0:0,0:0:0:0:
441,243,210008,6,0,L|301:251,1,140,6|8,0:0|0:0,0:0:0:0:
204,231,210544,1,2,0:0:0:0:
301,250,210723,1,0,0:0:0:0:
204,231,210901,2,0,L|121:215,1,70,2|8,0:0|0:0,0:0:0:0:
101,125,211258,6,0,L|169:138,2,70,2|0|2,0:0|0:0|0:0,0:0:0:0:
5,100,211794,2,0,P|19:168|24:238,2,140,8|6|6,0:0|0:0|0:0,0:0:0:0:
211,57,212865,6,0,P|280:61|343:32,1,140,6|0,0:0|0:0,0:0:0:0:
414,99,213401,2,0,P|384:161|393:229,1,140,6|2,0:0|0:0,0:0:0:0:
298,202,213937,2,0,L|228:191,1,70,4|2,0:0|0:0,0:0:0:0:
131,175,214294,5,6,0:0:0:0:
131,175,214383,1,0,0:0:0:0:
131,175,214473,1,0,0:0:0:0:
34,157,214651,1,2,0:0:0:0:
10,252,214830,2,0,P|79:262|142:291,1,140,6|2,0:0|0:0,0:0:0:0:
239,281,215365,1,0,0:0:0:0:
337,275,215544,1,0,0:0:0:0:
434,264,215723,6,0,P|445:195|440:125,1,140,4|8,0:0|0:0,0:0:0:0:
440,125,216258,1,0,0:0:0:0:
348,93,216437,2,0,L|363:18,1,70,0|0,0:0|0:0,0:0:0:0:
263,32,216794,2,0,L|249:100,1,70,8|0,0:0|0:0,0:0:0:0:
156,133,217151,6,0,L|16:116,1,140,0|8,0:0|0:0,0:0:0:0:
10,214,217687,1,0,0:0:0:0:
66,293,217865,2,0,P|100:289|135:282,1,70,0|0,0:0|0:0,0:0:0:0:
228,249,218223,1,8,0:0:0:0:
441,346,218580,6,0,P|384:309|315:309,1,140,0|8,0:0|0:0,0:0:0:0:
315,309,219115,1,0,0:0:0:0:
386,228,219294,2,0,P|408:161|412:91,1,140,0|8,0:0|0:0,0:0:0:0:
332,42,219830,6,0,P|296:34|264:23,1,70,0|4,0:0|0:0,0:0:0:0:
193,139,220187,2,0,P|226:128|260:120,1,70,4|0,0:0|0:0,0:0:0:0:
298,211,220544,1,0,0:0:0:0:
120,294,220901,1,0,0:0:0:0:
95,198,221080,1,0,0:0:0:0:
120,294,221258,1,0,0:0:0:0:
95,197,221437,6,0,P|84:128|81:58,1,140,4|8,0:0|0:0,0:0:0:0:
81,58,221973,1,0,0:0:0:0:
174,28,222151,2,0,L|243:19,1,70,0|0,0:0|0:0,0:0:0:0:
244,118,222508,2,0,L|174:109,1,70,8|0,0:0|0:0,0:0:0:0:
177,208,222865,6,0,L|316:197,1,140,0|8,0:0|0:0,0:0:0:0:
411,224,223401,1,0,0:0:0:0:
384,318,223580,2,0,L|244:328,1,140,0|8,0:0|0:0,0:0:0:0:
63,253,224294,6,0,P|56:212|52:113,1,140,0|8,0:0|0:0,0:0:0:0:
52,113,224830,1,0,0:0:0:0:
140,70,225008,2,0,P|174:66|207:55,1,70,0|0,0:0|0:0,0:0:0:0:
305,69,225365,1,8,0:0:0:0:
314,265,225723,5,4,0:0:0:0:
314,265,225812,1,0,0:0:0:0:
314,265,225901,1,0,0:0:0:0:
228,216,226080,1,0,0:0:0:0:
140,259,226258,2,0,L|106:267,2,35,4|0|0,0:0|0:0|0:0,0:0:0:0:
91,173,226615,2,0,L|57:164,2,35,0|0|4,0:0|0:0|0:0,0:0:0:0:
155,97,226973,1,0,0:0:0:0:
155,97,227151,6,0,P|224:93|293:81,1,140,12|2,0:0|0:0,0:0:0:0:
391,88,227687,1,2,0:0:0:0:
487,98,227865,2,0,P|476:132|473:167,1,70,0|0,0:0|0:0,0:0:0:0:
480,265,228223,6,0,L|340:280,1,140,2|2,0:0|0:0,0:0:0:0:
340,280,228758,1,0,0:0:0:0:
289,364,228937,2,0,L|149:348,1,140,2|2,0:0|0:0,0:0:0:0:
57,314,229473,1,0,0:0:0:0:
130,249,229651,1,2,0:0:0:0:
55,67,230008,5,0,0:0:0:0:
39,163,230187,1,2,0:0:0:0:
55,67,230365,2,0,L|204:57,1,140,2|2,0:0|0:0,0:0:0:0:
194,57,230901,1,0,0:0:0:0:
290,79,231080,1,2,0:0:0:0:
250,269,231437,5,6,0:0:0:0:
346,290,231616,1,0,0:0:0:0:
366,194,231794,1,2,0:0:0:0:
270,173,231973,1,2,0:0:0:0:
270,173,232062,1,0,0:0:0:0:
270,173,232151,2,0,L|197:158,1,70,6|2,0:0|0:0,0:0:0:0:
116,208,232508,2,0,P|110:242|101:276,1,70,2|0,0:0|0:0,0:0:0:0:
19,330,232865,6,0,P|86:319|140:361,1,140,4|2,0:0|0:0,0:0:0:0:
140,361,233401,1,2,0:0:0:0:
212,294,233580,2,0,L|200:224,1,70,4|2,0:0|0:0,0:0:0:0:
278,166,233937,2,0,L|289:234,1,70,2|0,0:0|0:0,0:0:0:0:
370,291,234294,5,6,0:0:0:0:
467,280,234473,1,0,0:0:0:0:
467,280,234651,2,0,P|483:212|481:142,1,140,2|6,0:0|0:0,0:0:0:0:
481,142,235187,1,0,0:0:0:0:
391,104,235365,2,0,L|380:68,2,35,2|0|0,0:0|0:0|0:0,0:0:0:0:
294,126,235723,6,0,L|216:114,1,70,4|2,0:0|0:0,0:0:0:0:
160,189,236080,2,0,L|229:199,1,70,2|0,0:0|0:0,0:0:0:0:
270,288,236437,2,0,L|192:276,1,70,6|0,0:0|0:0,0:0:0:0:
103,260,236794,1,2,0:0:0:0:
34,189,236973,5,0,0:0:0:0:
34,189,237062,1,0,0:0:0:0:
34,189,237151,1,6,0:0:0:0:
66,96,237330,1,0,0:0:0:0:
162,78,237508,1,2,0:0:0:0:
230,148,237687,2,0,L|275:133,2,35,2|0|2,0:0|0:0|0:0,0:0:0:0:
198,240,238044,1,0,0:0:0:0:
198,240,238133,1,0,0:0:0:0:
197,240,238223,6,0,P|267:245|335:261,1,140,2|4,0:0|0:0,0:0:0:0:
256,192,238669,8,0,244294,0:0:0:0:
