osu file format v14

[General]
AudioFilename: Sora o Koete.mp3
AudioLeadIn: 0
PreviewTime: 79967
Countdown: 0
SampleSet: Soft
StackLeniency: 0.7
Mode: 2
LetterboxInBreaks: 0
EpilepsyWarning: 1
WidescreenStoryboard: 1

[Editor]
DistanceSpacing: 1.2
BeatDivisor: 8
GridSize: 8
TimelineZoom: 1.9

[Metadata]
Title:Wings of Courage -Sora o Koete-
TitleUnicode:Wings of Courage -空を超えて-
Artist:Mami Kawada
ArtistUnicode:川田まみ
Creator:examination
Version:Salad
Source:蒼の彼方のフォーリズム
Tags:Ao no kanata four rhythm galgame eroge Sprite opening Aokana 4Rhythm 4 Across the blue Beyond the Sky, into the Firmament Visual novel SUBSTAC9 yf_bmp
BeatmapID:650284
BeatmapSetID:245160

[Difficulty]
HPDrainRate:5
CircleSize:3
OverallDifficulty:7
ApproachRate:7
SliderMultiplier:1.44
SliderTickRate:2

[Events]
//Background and Video events
0,0,"BG.jpg",0,0
//Break Periods
2,6011,7950
2,9050,10906
//Storyboard Layer 0 (Background)
//Storyboard Layer 1 (Fail)
//Storyboard Layer 2 (Pass)
//Storyboard Layer 3 (Foreground)
//Storyboard Sound Samples

[TimingPoints]
5811,375,4,2,1,50,1,0
8850,375,4,2,1,50,1,0
11806,375,4,2,1,40,1,0
13306,-100,4,2,1,45,0,0
14806,-100,4,2,1,50,0,0
16118,-100,4,2,1,25,0,0
17431,-100,4,2,1,25,0,0
17806,-100,4,2,1,50,0,0
23806,-100,4,2,1,40,0,0
23899,-100,4,2,1,50,0,0
29806,-100,4,2,1,40,0,0
29899,-100,4,2,1,50,0,0
35806,-100,4,2,1,40,0,0
35899,-100,4,2,1,50,0,0
38618,-100,4,2,1,40,0,0
38712,-100,4,2,2,50,0,0
40493,-100,4,2,1,10,0,0
40681,-100,4,2,2,50,0,0
40868,-100,4,2,1,15,0,0
41431,-100,4,2,0,30,0,0
41806,-100,4,2,1,40,0,0
47806,-100,4,2,2,50,0,0
53806,-100,4,2,1,40,0,0
59806,-100,4,2,2,50,0,0
64681,-100,4,2,4,40,0,0
65806,-100,4,2,1,40,0,0
65899,-100,4,2,1,50,0,0
68431,-100,4,2,1,30,0,0
68524,-100,4,2,1,50,0,0
71806,-100,4,2,1,40,0,0
72931,-100,4,2,1,20,0,0
73024,-100,4,2,1,40,0,0
79118,-100,4,2,1,50,0,0
80056,-90.9090909090909,4,2,1,50,0,0
80806,-90.9090909090909,4,2,1,70,0,1
95806,-90.9090909090909,4,2,1,50,0,1
95899,-90.9090909090909,4,2,1,70,0,1
97118,-90.9090909090909,4,2,1,50,0,1
97212,-90.9090909090909,4,2,1,70,0,1
98806,-90.9090909090909,4,2,1,50,0,1
98899,-90.9090909090909,4,2,1,70,0,1
103306,-90.9090909090909,4,2,1,60,0,1
104806,-83.3333333333333,4,2,1,60,0,0
105181,-100,4,2,1,60,0,0
106306,-100,4,2,1,30,0,0
106399,-100,4,2,1,60,0,0
107056,-100,4,2,1,35,0,0
107337,-100,4,2,1,60,0,0
107806,-90.9090909090909,4,2,1,60,0,0
108181,-100,4,2,1,60,0,0
109306,-100,4,2,1,20,0,0
109399,-100,4,2,1,60,0,0
110056,-100,4,2,1,35,0,0
110149,-100,4,2,1,60,0,0
113009,-100,4,2,1,5,0,0
113056,-100,4,2,1,60,0,0
113384,-100,4,2,1,5,0,0
113431,-100,4,2,1,60,0,0
113806,-100,4,2,1,40,0,0
113899,-100,4,2,1,60,0,0
116806,-100,4,2,1,60,0,1
118306,-100,4,2,1,30,0,1
118399,-100,4,2,1,60,0,1
120181,-100,4,2,10,60,0,1
120274,-100,4,2,1,60,0,1
122806,-100,4,2,1,40,0,1
122899,-100,4,2,1,60,0,1
125056,-100,4,2,1,40,0,1
125149,-100,4,2,1,60,0,1
125431,-100,4,2,1,50,0,1
127306,-100,4,2,1,50,0,0
127868,-66.6666666666667,4,2,1,50,0,0
128243,-100,4,2,1,50,0,0
128806,-100,4,2,3,30,0,0
128993,-100,4,2,1,30,0,0
134806,-100,4,2,1,40,0,0
136306,-100,4,2,1,30,0,0
137806,-100,4,2,1,20,0,0
139306,-100,4,2,1,10,0,0
140806,-100,4,2,1,5,0,0

[Colours]
Combo1 : 255,128,255
Combo2 : 255,128,128
Combo3 : 140,140,181
Combo4 : 245,224,137

[HitObjects]
256,192,5811,5,4,0:3:0:0:
256,192,8850,5,4,0:3:0:0:
64,112,11806,6,0,L|208:112,1,144,2|2,0:0|0:0,0:0:0:0:
352,112,12556,1,0,0:0:0:0:
208,192,12931,2,0,L|128:192,2,72,0|0|2,0:0|0:0|0:0,0:0:0:0:
352,192,13681,6,0,L|496:192,1,144,0|0,0:0|0:0,0:0:0:0:
352,288,14431,1,0,0:0:0:0:
144,288,14806,6,0,L|64:288,1,72,2|0,0:0|0:0,0:0:0:0:
192,192,15181,2,0,L|272:192,1,72,2|2,0:0|0:0,0:0:0:0:
192,128,15743,1,0,0:0:0:0:
416,128,16306,6,0,P|448:176|416:256,1,144,0|8,0:0|0:0,0:0:0:0:
272,256,17056,2,0,L|192:256,1,72,0|0,0:0|0:0,0:0:0:0:
320,144,17431,1,8,3:2:0:0:
80,128,17806,6,0,L|16:272,1,144,4|8,0:0|0:0,0:0:0:0:
128,256,18368,2,0,L|288:256,1,144,2|2,0:0|0:0,0:0:0:0:
480,256,19118,1,2,0:0:0:0:
272,256,19493,6,0,L|128:256,1,144,2|2,0:0|0:0,0:0:0:0:
240,160,20056,2,0,L|288:96,1,72,2|2,0:0|0:0,0:0:0:0:
176,96,20431,1,10,0:0:0:0:
352,160,20806,6,0,L|432:160,2,72,4|2|8,0:3|0:0|0:0,0:0:0:0:
240,160,21368,2,0,L|80:160,1,144,2|2,0:0|0:0,0:0:0:0:
288,272,22118,1,2,0:0:0:0:
80,272,22493,6,0,L|0:272,2,72,2|8|2,0:0|0:0|0:0,0:0:0:0:
176,192,23056,2,0,L|256:192,2,72,0|2|8,0:0|0:0|0:0,0:0:0:0:
432,112,23806,6,0,L|512:256,1,144,4|8,0:0|0:0,0:0:0:0:
384,208,24368,2,0,L|224:208,1,144,2|2,0:0|0:0,0:0:0:0:
32,208,25118,1,2,0:0:0:0:
240,128,25493,6,0,L|384:128,1,144,2|2,0:0|0:0,0:0:0:0:
304,208,26056,2,0,L|240:272,1,72,2|2,0:0|0:0,0:0:0:0:
352,256,26431,1,10,0:0:0:0:
168,256,26806,6,0,P|136:192|184:128,1,144,4|8,0:3|3:2,0:0:0:0:
384,256,27556,2,0,P|416:192|368:128,1,144,4|8,0:3|3:2,0:0:0:0:
160,256,28306,6,0,P|96:218|64:144,1,144,0|8,0:0|3:2,0:0:0:0:
256,176,29056,2,0,L|336:144,2,72,2|0|8,0:0|3:0|0:0,0:0:0:0:
352,208,29618,1,0,0:0:0:0:
448,272,29806,6,0,P|416:320|320:336,1,144,4|8,0:0|0:0,0:0:0:0:
224,336,30368,2,0,L|64:336,1,144,2|2,0:0|0:0,0:0:0:0:
272,192,31118,1,2,0:0:0:0:
96,192,31493,6,0,L|16:192,2,72,2|8|2,0:0|0:0|0:0,0:0:0:0:
208,192,32056,2,0,L|288:192,1,72,2|2,0:0|0:0,0:0:0:0:
384,192,32431,1,10,0:0:0:0:
112,96,32806,6,0,L|16:96,2,72,4|2|8,0:3|0:0|0:0,0:0:0:0:
224,96,33368,2,0,L|384:96,1,144,2|2,0:0|0:0,0:0:0:0:
160,192,34118,1,2,0:0:0:0:
336,192,34493,6,0,L|432:192,2,72,2|8|2,0:0|0:0|0:0,0:0:0:0:
256,272,35056,2,0,L|352:272,2,72,0|2|10,0:0|0:0|0:0,0:0:0:0:
24,272,35806,6,0,L|184:272,1,144,4|8,0:0|0:0,0:0:0:0:
280,272,36368,2,0,L|424:272,1,144,2|0,0:0|0:0,0:0:0:0:
192,192,37118,5,4,0:3:0:0:
368,128,37493,1,2,0:0:0:0:
192,128,37868,1,2,0:0:0:0:
352,128,38243,2,0,L|400:192,1,72,2|8,0:0|0:0,0:0:0:0:
256,192,38618,6,0,L|96:192,1,144,4|2,0:0|0:0,0:0:0:0:
160,288,39181,1,8,0:0:0:0:
352,288,39556,2,0,L|448:288,1,72,2|0,0:0|0:0,0:0:0:0:
352,208,39931,1,8,0:0:0:0:
144,208,40306,6,0,L|64:176,1,72,0|2,0:0|0:3,0:0:0:0:
144,96,40681,2,0,L|224:96,1,72,8|2,0:0|0:3,0:0:0:0:
144,176,41056,2,0,L|96:256,1,72,2|2,0:3|0:3,0:0:0:0:
256,240,41431,1,12,0:1:0:0:
160,240,41806,5,4,0:0:0:0:
96,160,41993,2,0,L|256:160,1,144,2|2,0:0|0:0,0:0:0:0:
448,160,42743,2,0,L|496:224,1,72,2|0,0:0|0:0,0:0:0:0:
384,272,43118,1,2,0:0:0:0:
272,272,43306,6,0,L|48:272,1,216,2|0,0:0|0:0,0:0:0:0:
208,128,44806,5,0,0:0:0:0:
320,128,44993,2,0,L|416:128,2,72,2|0|2,0:0|0:0|0:0,0:0:0:0:
208,128,45556,2,0,L|48:128,1,144,0|0,0:0|0:0,0:0:0:0:
144,208,46118,1,2,0:0:0:0:
256,256,46306,6,0,L|416:256,1,144,2|2,0:0|0:0,0:0:0:0:
272,192,46868,1,0,0:0:0:0:
112,192,47243,1,2,0:0:0:0:
216,152,47431,1,0,0:0:0:0:
176,64,47618,1,2,0:0:0:0:
64,128,47806,6,0,L|32:304,1,144,4|8,0:0|0:0,0:0:0:0:
256,256,48556,2,0,L|352:256,3,72,0|2|8|2,0:0|0:0|0:0|0:0,0:0:0:0:
480,96,49493,6,0,L|384:96,1,72,2|8,0:0|0:0,0:0:0:0:
304,96,49868,2,0,L|144:96,1,144,2|0,0:0|0:0,0:0:0:0:
272,192,50431,1,8,0:0:0:0:
128,192,50806,6,0,L|288:192,1,144,4|8,0:0|0:0,0:0:0:0:
480,256,51556,2,0,L|384:256,3,72,0|2|8|2,0:0|0:0|0:0|0:0,0:0:0:0:
192,256,52493,6,0,L|96:256,1,72,2|8,0:0|0:0,0:0:0:0:
224,160,52868,2,0,L|48:160,1,144,2|0,0:0|0:0,0:0:0:0:
192,256,53431,1,8,0:0:0:0:
464,192,53806,5,4,0:0:0:0:
352,192,53993,2,0,L|208:192,1,144,2|2,0:0|0:0,0:0:0:0:
416,256,54743,1,2,0:0:0:0:
304,256,54931,2,0,L|224:256,1,72,0|2,0:0|0:0,0:0:0:0:
128,176,55306,6,0,L|352:176,1,216,2|0,0:0|0:0,0:0:0:0:
160,272,56806,5,0,0:0:0:0:
48,272,56993,2,0,L|16:192,1,72,2|0,0:0|0:0,0:0:0:0:
112,160,57368,1,2,0:0:0:0:
224,144,57556,2,0,L|384:144,1,144,0|0,0:0|0:0,0:0:0:0:
288,208,58118,1,2,0:0:0:0:
432,208,58306,6,0,P|464:240|416:336,1,144,0|0,0:0|0:0,0:0:0:0:
336,320,58868,1,2,0:0:0:0:
496,176,59243,1,2,0:0:0:0:
400,160,59431,1,0,0:0:0:0:
304,144,59618,1,2,0:0:0:0:
128,144,59806,6,0,P|80:176|128:224,1,144,4|8,0:0|0:0,0:0:0:0:
336,224,60556,2,0,L|432:224,3,72,0|2|8|2,0:0|0:0|0:0|0:0,0:0:0:0:
224,112,61493,6,0,L|144:112,1,72,2|8,0:0|0:0,0:0:0:0:
288,160,61868,2,0,P|336:192|272:240,1,144,2|0,0:0|0:0,0:0:0:0:
184,240,62431,1,8,0:0:0:0:
304,144,62806,6,0,P|352:176|304:224,1,144,4|8,0:0|0:0,0:0:0:0:
104,224,63556,2,0,L|8:224,3,72,0|2|8|2,0:0|0:0|0:0|0:0,0:0:0:0:
256,112,64493,5,2,0:0:0:0:
352,112,64681,2,0,L|432:112,1,72,8|8,0:0|0:0,0:0:0:0:
352,192,65056,2,0,L|288:256,1,72,8|0,0:0|0:0,0:0:0:0:
400,272,65431,2,0,L|464:320,1,72,8|8,0:0|0:0,0:0:0:0:
256,320,65806,6,0,L|96:320,1,144,4|0,0:0|0:0,0:0:0:0:
256,240,66368,2,0,L|400:240,1,144,2|2,0:0|0:0,0:0:0:0:
288,160,66931,1,0,0:0:0:0:
128,160,67306,5,0,0:0:0:0:
368,160,67681,1,0,0:0:0:0:
176,160,68056,1,2,0:0:0:0:
368,208,68431,1,4,0:0:0:0:
176,208,68806,6,0,P|128:224|240:320,1,288,0|0,0:0|0:0,0:0:0:0:
432,336,69931,1,0,0:0:0:0:
304,272,70118,2,0,L|64:272,1,216,0|0,0:0|0:0,0:0:0:0:
160,176,70868,1,2,0:0:0:0:
336,176,71243,2,0,L|480:176,1,144,0|0,0:0|0:0,0:0:0:0:
336,128,71806,6,0,L|264:128,2,72,4|0|0,0:0|0:0|0:0,0:0:0:0:
136,192,72556,1,0,0:0:0:0:
336,288,72931,1,8,0:1:0:0:
136,192,73306,6,0,P|104:128|168:96,1,144,0|2,0:0|0:0,0:0:0:0:
328,80,74056,2,0,L|472:80,1,144,2|2,0:0|0:0,0:0:0:0:
200,176,74806,6,0,L|24:176,1,144,4|0,0:0|0:0,0:0:0:0:
256,288,75556,1,0,0:0:0:0:
112,288,75931,1,0,0:0:0:0:
368,224,76306,6,0,L|400:64,1,144,2|0,0:0|0:0,0:0:0:0:
112,224,77056,2,0,L|96:80,1,144,2|0,0:0|0:0,0:0:0:0:
328,192,77806,6,0,L|408:192,1,72,2|0,0:0|0:0,0:0:0:0:
328,272,78181,2,0,L|248:272,1,72,2|0,0:0|0:0,0:0:0:0:
152,272,78556,2,0,L|72:272,2,72,0|2|0,0:0|0:0|0:0,0:0:0:0:
296,272,79118,1,4,0:0:0:0:
376,144,79493,5,4,0:0:0:0:
184,128,79681,1,4,0:0:0:0:
128,128,80806,6,0,P|64:160|96:240,1,158.400004833985,4|8,0:0|0:0,0:0:0:0:
272,240,81556,2,0,L|432:240,1,158.400004833985,0|8,0:0|0:0,0:0:0:0:
256,144,82306,6,0,L|80:144,2,158.400004833985,0|8|2,0:0|0:0|0:0,0:0:0:0:
432,144,83431,2,0,L|464:240,1,79.2000024169923,10|2,0:0|0:0,0:0:0:0:
352,256,83806,6,0,L|176:256,1,158.400004833985,2|8,0:0|0:0,0:0:0:0:
32,144,84556,1,0,0:0:0:0:
224,144,84931,2,0,L|336:144,1,79.2000024169923,8|2,0:0|0:0,0:0:0:0:
192,240,85306,6,0,L|368:240,2,158.400004833985,0|8|0,0:0|0:0|0:0,0:0:0:0:
400,144,86431,1,10,0:0:0:0:
208,144,86806,6,0,L|64:224,1,158.400004833985,2|8,0:0|0:0,0:0:0:0:
160,256,87368,1,2,0:0:0:0:
256,288,87556,1,0,0:0:0:0:
448,224,87931,1,8,0:0:0:0:
352,208,88118,1,2,0:0:0:0:
256,176,88306,6,0,L|80:128,2,158.400004833985,2|8|0,0:0|0:0|0:0,0:0:0:0:
120,192,89431,1,8,0:0:0:0:
208,192,89618,1,2,0:0:0:0:
352,192,89806,6,0,P|384:144|336:64,1,158.400004833985,2|8,0:0|0:0,0:0:0:0:
240,64,90368,1,0,0:0:0:0:
144,64,90556,2,0,B|58:99|48:192|48:192,1,158.400004833985,2|8,0:0|0:0,0:0:0:0:
144,176,91118,1,2,3:2:0:0:
240,176,91306,6,0,L|416:176,1,158.400004833985,0|8,0:0|0:0,0:0:0:0:
296,144,91868,1,0,3:0:0:0:
176,144,92056,2,0,P|107:185|96:272,1,158.400004833985,0|8,0:0|3:2,0:0:0:0:
208,256,92618,1,2,3:2:0:0:
384,288,92806,6,0,L|432:128,1,158.400004833985,4|8,0:0|0:0,0:0:0:0:
240,144,93556,1,0,0:0:0:0:
48,176,93931,2,0,L|96:248,1,79.2000024169923,8|2,0:0|0:0,0:0:0:0:
184,240,94306,6,0,L|360:240,1,158.400004833985,0|8,0:0|0:0,0:0:0:0:
224,160,95056,1,0,0:0:0:0:
432,160,95431,1,10,0:0:0:0:
176,272,95806,6,0,L|16:272,1,158.400004833985,4|8,0:0|0:0,0:0:0:0:
144,192,96368,1,2,0:0:0:0:
336,144,96743,1,2,0:0:0:0:
80,96,97118,6,0,L|320:96,1,237.600007250977,4|8,0:0|0:0,0:0:0:0:
160,160,98056,1,2,0:0:0:0:
384,160,98431,2,0,L|448:240,1,79.2000024169923,8|2,0:0|0:0,0:0:0:0:
320,256,98806,6,0,L|128:256,1,158.400004833985,4|8,0:0|0:0,0:0:0:0:
336,192,99556,2,0,P|400:128|368:80,1,158.400004833985,2|8,0:0|0:0,0:0:0:0:
224,80,100118,1,2,0:0:0:0:
96,192,100306,6,0,L|224:304,1,158.400004833985,0|8,0:0|0:0,0:0:0:0:
416,192,101056,2,0,P|464:224|400:288,1,158.400004833985,2|8,0:0|0:0,0:0:0:0:
328,288,101618,1,2,0:0:0:0:
160,288,101806,6,0,L|48:288,1,79.2000024169923,0|0,3:0|0:0,0:0:0:0:
0,224,102181,2,0,L|112:224,1,79.2000024169923,8|0,3:2|0:0,0:0:0:0:
176,224,102556,2,0,L|256:224,1,79.2000024169923,0|0,3:0|0:0,0:0:0:0:
336,176,102931,2,0,L|240:176,1,79.2000024169923,8|0,3:2|3:0,0:0:0:0:
128,176,103306,5,4,0:0:0:0:
384,192,103681,2,0,L|432:272,1,79.2000024169923,0|4,0:0|0:0,0:0:0:0:
192,256,104243,2,0,L|112:256,2,79.2000024169923,4|0|0,0:0|0:0|0:0,0:0:0:0:
368,256,104806,6,0,L|512:160,1,172.799994726563,4|8,0:0|0:0,0:0:0:0:
304,160,105556,2,0,L|208:160,1,72,2|0,0:0|0:0,0:0:0:0:
352,224,105931,1,8,0:0:0:0:
160,256,106306,6,0,L|0:256,1,144,2|8,0:3|0:0,0:0:0:0:
208,128,107056,1,2,0:3:0:0:
280,128,107243,1,0,0:0:0:0:
352,128,107431,1,8,0:0:0:0:
160,192,107806,5,2,0:0:0:0:
400,192,108181,1,8,0:0:0:0:
192,272,108556,2,0,L|112:272,2,72,2|2|8,0:0|0:0|0:0,0:0:0:0:
416,272,109306,5,2,0:3:0:0:
160,272,109681,1,8,0:0:0:0:
352,176,110056,1,2,0:3:0:0:
272,176,110243,1,0,0:0:0:0:
192,176,110431,1,8,0:0:0:0:
448,176,110806,6,0,L|480:320,1,144,4|8,0:3|0:0,0:0:0:0:
224,192,111556,2,0,L|208:288,1,72,0|2,0:0|0:0,0:0:0:0:
320,192,111931,1,8,0:0:0:0:
64,176,112306,6,0,L|32:320,1,144,0|8,0:0|0:0,0:0:0:0:
240,192,113056,2,0,L|256:288,1,72,2|0,0:0|0:0,0:0:0:0:
120,192,113431,2,0,L|104:288,1,72,8|0,0:0|0:0,0:0:0:0:
288,192,113806,6,0,L|464:192,1,144,4|8,0:0|0:0,0:0:0:0:
256,96,114556,2,0,L|176:96,2,72,0|0|8,0:0|0:0|0:0,0:0:0:0:
96,192,115306,6,0,L|192:192,2,72,0|0|8,0:0|0:0|0:0,0:0:0:0:
240,96,116056,2,0,L|320:96,1,72,0|2,0:0|0:0,0:0:0:0:
416,96,116431,2,0,L|480:160,1,72,8|2,3:2|3:2,0:0:0:0:
288,272,116806,6,0,L|112:272,1,144,4|8,0:0|0:0,0:0:0:0:
272,192,117368,2,0,L|432:192,1,144,0|2,0:0|0:0,0:0:0:0:
304,112,117931,1,8,0:0:0:0:
96,112,118306,5,2,0:3:0:0:
304,112,118681,1,8,0:0:0:0:
144,176,119056,2,0,L|80:224,1,72,0|2,0:0|0:0,0:0:0:0:
128,304,119431,2,0,L|224:336,1,72,8|2,0:0|0:0,0:0:0:0:
368,320,119806,6,0,P|448:288|384:176,1,216,4|2,0:3|0:0,0:0:0:0:
256,192,120743,1,2,0:0:0:0:
448,112,121118,1,4,0:0:0:0:
192,112,121493,6,0,L|112:112,2,72,0|8|2,0:0|0:0|0:0,0:0:0:0:
320,160,122056,2,0,L|400:160,2,72,0|2|10,0:0|0:0|0:0,0:0:0:0:
112,160,122806,6,0,L|64:320,1,144,4|10,0:0|0:0,0:0:0:0:
304,160,123556,2,0,L|352:304,1,144,2|8,0:0|0:0,0:0:0:0:
224,296,124118,1,0,0:0:0:0:
352,192,124493,6,0,L|432:192,2,72,0|8|0,0:0|0:0|0:0,0:0:0:0:
240,192,125056,2,0,L|176:256,1,72,2|0,0:0|0:0,0:0:0:0:
272,272,125431,2,0,L|344:344,1,72,12|0,0:0|0:0,0:0:0:0:
160,320,125806,6,0,L|80:320,1,72,0|0,3:0|0:0,0:0:0:0:
200,256,126181,2,0,L|272:256,1,72,8|0,3:2|0:0,0:0:0:0:
368,168,126556,2,0,L|288:168,1,72,0|0,3:0|0:0,0:0:0:0:
176,216,126931,2,0,L|248:216,1,72,8|0,3:2|0:0,0:0:0:0:
416,208,127306,5,4,0:0:0:0:
256,136,127868,1,4,0:0:0:0:
432,136,128243,1,4,0:0:0:0:
112,128,128806,6,0,P|64:192|96:240,1,144,4|8,0:0|0:0,0:0:0:0:
272,240,129556,2,0,L|352:240,2,72,0|0|8,0:0|0:0|0:0,0:0:0:0:
400,160,130306,5,0,0:0:0:0:
160,160,130681,1,8,0:0:0:0:
304,160,131056,2,0,L|448:224,1,144,0|8,0:0|0:0,0:0:0:0:
176,192,131806,6,0,P|112:224|80:288,1,144,0|8,0:0|0:0,0:0:0:0:
256,288,132556,2,0,L|352:288,2,72,0|0|8,0:0|0:0|0:0,0:0:0:0:
112,288,133118,1,0,0:0:0:0:
272,208,133493,6,0,L|352:208,1,72,0|8,0:0|0:0,0:0:0:0:
144,144,134056,2,0,L|48:144,2,72,0|0|8,0:0|0:0|0:0,0:0:0:0:
416,64,134806,5,0,0:0:0:0:
256,192,134993,12,0,140806,0:0:0:0:
