osu file format v14

[General]
AudioFilename: Sora o Koete.mp3
AudioLeadIn: 0
PreviewTime: 79967
Countdown: 0
SampleSet: Soft
StackLeniency: 0.7
Mode: 2
LetterboxInBreaks: 0
EpilepsyWarning: 1
WidescreenStoryboard: 1

[Editor]
DistanceSpacing: 1.4
BeatDivisor: 4
GridSize: 16
TimelineZoom: 1.9

[Metadata]
Title:Wings of Courage -Sora o Koete-
TitleUnicode:Wings of Courage -空を超えて-
Artist:Mami Kawada
ArtistUnicode:川田まみ
Creator:examination
Version:Rain
Source:蒼の彼方のフォーリズム
Tags:Ao no kanata four rhythm galgame eroge Sprite opening Aokana 4Rhythm 4 Across the blue Beyond the Sky, into the Firmament Visual novel SUBSTAC9 yf_bmp
BeatmapID:654678
BeatmapSetID:245160

[Difficulty]
HPDrainRate:7
CircleSize:4
OverallDifficulty:9
ApproachRate:9
SliderMultiplier:1.6
SliderTickRate:2

[Events]
//Background and Video events
0,0,"BG.jpg",0,0
//Break Periods
2,6011,8250
2,9050,11206
//Storyboard Layer 0 (Background)
//Storyboard Layer 1 (Fail)
//Storyboard Layer 2 (Pass)
//Storyboard Layer 3 (Foreground)
//Storyboard Sound Samples

[TimingPoints]
5811,375,4,2,1,50,1,0
8850,375,4,2,1,50,1,0
11806,375,4,2,1,40,1,0
13306,-100,4,2,1,45,0,0
14806,-100,4,2,1,50,0,0
16118,-100,4,2,1,25,0,0
16306,-100,4,2,3,30,0,0
16681,-100,4,2,3,25,0,0
16774,-100,4,2,3,30,0,0
17477,-100,4,2,1,25,0,0
17806,-100,4,2,1,50,0,0
23806,-100,4,2,1,40,0,0
23899,-100,4,2,1,50,0,0
29806,-100,4,2,1,40,0,0
29899,-100,4,2,1,50,0,0
35806,-100,4,2,1,40,0,0
35899,-100,4,2,1,50,0,0
38618,-100,4,2,1,40,0,0
38712,-100,4,2,2,50,0,0
40493,-100,4,2,1,10,0,0
40681,-100,4,2,2,50,0,0
40868,-100,4,2,1,15,0,0
41431,-100,4,2,0,30,0,0
41806,-100,4,2,1,40,0,0
47806,-100,4,2,2,50,0,0
53806,-100,4,2,1,40,0,0
59806,-100,4,2,2,50,0,0
64681,-100,4,2,4,40,0,0
65806,-100,4,2,1,40,0,0
65899,-100,4,2,1,50,0,0
68431,-100,4,2,1,30,0,0
68524,-100,4,2,1,50,0,0
71806,-100,4,2,1,40,0,0
72931,-100,4,2,1,20,0,0
73024,-100,4,2,1,40,0,0
79118,-100,4,2,1,50,0,0
80056,-90.9090909090909,4,2,1,50,0,0
80806,-90.9090909090909,4,2,1,70,0,1
95806,-90.9090909090909,4,2,1,50,0,1
95899,-90.9090909090909,4,2,1,70,0,1
97118,-90.9090909090909,4,2,1,50,0,1
97212,-90.9090909090909,4,2,1,70,0,1
98806,-90.9090909090909,4,2,1,50,0,1
98899,-90.9090909090909,4,2,1,70,0,1
103306,-90.9090909090909,4,2,1,60,0,1
104806,-90.9090909090909,4,2,1,60,0,0
105181,-100,4,2,1,60,0,0
106306,-100,4,2,1,30,0,0
106399,-100,4,2,1,60,0,0
107056,-100,4,2,1,35,0,0
107243,-100,4,2,1,45,0,0
107337,-100,4,2,1,60,0,0
109306,-100,4,2,1,20,0,0
109399,-100,4,2,1,60,0,0
110056,-100,4,2,1,35,0,0
110149,-100,4,2,1,60,0,0
113806,-100,4,2,1,40,0,0
113899,-100,4,2,1,60,0,0
116806,-100,4,2,1,60,0,1
118306,-100,4,2,1,30,0,1
118399,-100,4,2,1,60,0,1
121118,-100,4,2,1,40,0,1
121212,-100,4,2,1,60,0,1
122806,-100,4,2,1,40,0,1
122899,-100,4,2,1,60,0,1
124306,-100,4,2,1,30,0,1
124399,-100,4,2,1,60,0,1
125056,-100,4,2,1,40,0,1
125149,-100,4,2,1,60,0,1
125431,-100,4,2,1,50,0,1
127306,-100,4,2,1,50,0,0
128806,-100,4,2,3,30,0,0
128993,-100,4,2,1,30,0,0
129087,-100,4,2,3,30,0,0
134806,-100,4,2,1,40,0,0
136306,-100,4,2,1,30,0,0
137806,-100,4,2,1,20,0,0
139306,-100,4,2,1,10,0,0
140806,-100,4,2,1,5,0,0

[Colours]
Combo1 : 255,128,255
Combo2 : 255,128,128
Combo3 : 140,140,181
Combo4 : 245,224,137

[HitObjects]
256,192,5811,5,4,0:3:0:0:
256,192,8850,5,4,0:3:0:0:
64,96,11806,6,0,L|144:96,2,80,2|0|2,0:0|0:0|0:0,0:0:0:0:
176,176,12368,1,0,0:0:0:0:
304,176,12556,2,0,L|400:176,1,80,0|2,0:0|0:0,0:0:0:0:
272,288,12931,2,0,L|352:288,1,80,0|0,0:0|0:0,0:0:0:0:
448,96,13306,6,0,L|368:96,2,80,2|0|0,0:0|0:0|0:0,0:0:0:0:
336,176,13868,1,2,0:0:0:0:
208,176,14056,2,0,L|112:176,1,80,0|2,0:0|0:0,0:0:0:0:
240,288,14431,2,0,L|160:288,1,80,0|2,0:0|0:0,0:0:0:0:
288,112,14806,6,0,L|368:112,1,80,2|0,0:0|0:0,0:0:0:0:
208,192,15181,1,2,0:0:0:0:
464,192,15368,1,2,0:0:0:0:
256,272,15743,1,0,0:0:0:0:
144,256,15931,5,0,0:0:0:0:
96,224,16024,1,0,0:0:0:0:
64,176,16118,1,2,0:3:0:0:
80,112,16212,1,2,0:3:0:0:
256,112,16306,2,0,L|352:112,1,80
464,192,16681,5,8,0:0:0:0:
496,240,16774,1,0,0:0:0:0:
480,304,16868,1,0,0:0:0:0:
432,336,16962,1,0,0:0:0:0:
256,336,17056,2,0,L|160:336,1,80
304,128,17431,5,8,3:2:0:0:
352,160,17524,1,2,0:3:0:0:
352,224,17618,1,2,0:3:0:0:
304,256,17712,1,2,0:3:0:0:
96,256,17806,6,0,L|16:256,2,80,4|2|8,0:0|0:0|0:0,0:0:0:0:
240,256,18368,2,0,L|336:256,1,80,2|0,0:0|0:0,0:0:0:0:
464,160,18743,2,0,L|368:160,1,80,2|8,0:0|0:0,0:0:0:0:
128,160,19118,1,2,0:0:0:0:
336,160,19493,6,0,L|416:160,2,80,2|8|2,0:0|0:0|0:0,0:0:0:0:
192,160,20056,2,0,L|96:160,1,80,2|2,0:0|0:0,0:0:0:0:
416,240,20431,1,10,0:0:0:0:
192,192,20806,6,0,L|112:192,2,80,4|2|8,0:3|0:0|0:0,0:0:0:0:
336,256,21368,2,0,L|240:256,1,80,2|0,0:0|0:0,0:0:0:0:
96,160,21743,2,0,L|192:160,1,80,2|8,0:0|0:0,0:0:0:0:
448,160,22118,1,2,0:0:0:0:
256,160,22493,6,0,L|176:160,2,80,2|8|2,0:0|0:0|0:0,0:0:0:0:
384,160,23056,2,0,L|432:256,1,80,0|2,0:0|0:0,0:0:0:0:
112,240,23431,1,8,0:0:0:0:
64,208,23524,1,0,0:0:0:0:
48,144,23618,1,0,0:0:0:0:
96,96,23712,1,0,0:0:0:0:
304,96,23806,6,0,L|400:96,2,80,4|2|8,0:0|0:0|0:0,0:0:0:0:
144,192,24368,2,0,L|32:192,2,80,2|0|2,0:0|0:0|0:0,0:0:0:0:
304,192,24931,1,8,0:0:0:0:
32,288,25118,6,0,L|208:288,1,160,2|2,0:0|0:0,0:0:0:0:
304,112,25681,2,0,L|192:112,1,80,8|2,0:0|0:0,0:0:0:0:
352,192,26056,2,0,L|448:192,2,80,2|2|10,0:0|0:0|0:0,0:0:0:0:
112,192,26806,6,0,L|0:192,1,80,4|2,0:3|0:0,0:0:0:0:
160,80,27181,1,8,3:2:0:0:
208,112,27274,1,0,3:0:0:0:
256,144,27368,1,2,3:2:0:0:
304,176,27462,1,0,3:0:0:0:
208,256,27556,6,0,L|96:256,1,80,0|2,0:0|0:0,0:0:0:0:
256,144,27931,1,8,0:0:0:0:
304,176,28024,1,8,0:0:0:0:
352,208,28118,1,2,3:2:0:0:
400,240,28212,1,0,3:0:0:0:
304,320,28306,6,0,L|192:320,1,80,0|2,0:0|0:0,0:0:0:0:
352,208,28681,1,8,3:2:0:0:
400,240,28774,1,0,3:0:0:0:
448,272,28868,1,0,3:0:0:0:
496,304,28962,1,0,3:0:0:0:
256,320,29056,6,0,L|160:320,2,80,2|0|8,0:0|3:0|0:0,0:0:0:0:
368,320,29618,2,0,L|416:320,1,40,0|0,0:0|0:0,0:0:0:0:
128,144,29806,6,0,L|32:144,2,80,4|2|8,0:0|0:0|0:0,0:0:0:0:
256,144,30368,2,0,L|336:144,1,80,2|0,0:0|0:0,0:0:0:0:
176,240,30743,2,0,L|80:240,1,80,2|8,0:0|0:0,0:0:0:0:
240,336,31118,2,0,L|336:336,1,80,2|0,0:0|0:0,0:0:0:0:
176,240,31493,5,2,0:0:0:0:
304,240,31681,2,0,L|416:240,1,80,8|2,0:0|0:0,0:0:0:0:
240,144,32056,2,0,L|160:144,1,80,2|2,0:0|0:0,0:0:0:0:
416,144,32431,1,10,0:0:0:0:
176,256,32806,6,0,L|96:256,2,80,4|2|8,0:3|0:0|0:0,0:0:0:0:
288,256,33368,2,0,L|368:256,1,80,2|0,0:0|0:0,0:0:0:0:
240,144,33743,2,0,L|128:144,1,80,2|8,0:0|0:0,0:0:0:0:
320,240,34118,1,2,0:0:0:0:
160,240,34306,6,0,L|80:240,2,80,0|2|8,0:0|0:0|0:0,0:0:0:0:
272,240,34868,1,2,0:0:0:0:
128,128,35056,2,0,L|32:128,1,80,0|2,0:0|0:0,0:0:0:0:
320,128,35431,1,10,0:0:0:0:
80,128,35806,6,0,L|0:128,2,80,4|2|8,0:0|0:0|0:0,0:0:0:0:
224,128,36368,2,0,L|320:128,1,80,2|0,0:0|0:0,0:0:0:0:
128,240,36743,2,0,L|32:240,1,80,0|8,0:0|0:0,0:0:0:0:
352,192,37118,6,0,L|384:272,1,80,4|0,0:3|0:0,0:0:0:0:
176,192,37493,2,0,L|144:304,1,80,2|8,0:0|0:0,0:0:0:0:
320,192,37868,2,0,L|352:272,1,80,2|0,0:0|0:0,0:0:0:0:
144,192,38243,2,0,L|112:272,1,80,2|8,0:0|0:0,0:0:0:0:
432,112,38618,6,0,L|272:112,1,160,4|2,0:0|0:0,0:0:0:0:
400,192,39181,1,8,0:0:0:0:
208,192,39556,2,0,L|256:256,1,80,2|0,0:0|0:0,0:0:0:0:
400,192,39931,1,8,0:0:0:0:
128,96,40306,5,0,0:0:0:0:
48,176,40493,1,0,3:0:0:0:
45,195,40539,1,0,3:0:0:0:
47,215,40586,1,0,3:0:0:0:
52,234,40633,1,0,3:0:0:0:
61,253,40680,1,8,0:0:0:0:
192,256,40868,2,0,L|240:256,1,40,2|0,0:3|0:0,0:0:0:0:
160,176,41056,2,0,L|64:176,1,80,2|2,0:3|0:3,0:0:0:0:
400,176,41431,1,12,0:1:0:0:
160,176,41806,5,4,0:0:0:0:
272,176,41993,2,0,L|352:176,2,80,2|0|2,0:0|0:0|0:0,0:0:0:0:
160,176,42556,2,0,L|112:256,1,80,0|2,0:0|0:0,0:0:0:0:
320,176,42931,2,0,L|368:256,1,80,0|2,0:0|0:0,0:0:0:0:
160,112,43306,6,0,L|256:112,2,80,2|0|2,0:0|0:0|0:0,0:0:0:0:
320,112,43868,1,0,0:0:0:0:
64,240,44056,2,0,L|32:336,1,80,2|0,0:0|0:0,0:0:0:0:
208,240,44431,2,0,L|240:320,1,80,2|0,0:0|0:0,0:0:0:0:
112,192,44806,5,0,0:0:0:0:
384,192,44993,2,0,L|480:192,2,80,2|0|2,0:0|0:0|0:0,0:0:0:0:
256,192,45556,2,0,L|176:192,1,80,0|2,0:0|0:0,0:0:0:0:
304,112,45931,1,0,0:0:0:0:
128,112,46118,1,2,0:0:0:0:
96,160,46212,1,0,0:0:0:0:
64,208,46306,6,0,L|144:208,2,80,2|0|2,0:0|0:0|0:0,0:0:0:0:
240,208,46868,1,0,0:0:0:0:
144,288,47056,2,0,L|48:288,1,80,0|2,0:0|0:0,0:0:0:0:
192,192,47431,1,0,0:0:0:0:
32,192,47618,1,2,0:0:0:0:
336,112,47806,6,0,L|224:112,2,80,4|2|8,0:0|0:0|0:0,0:0:0:0:
80,240,48556,2,0,L|160:240,2,80,0|2|8,0:0|0:0|0:0,0:0:0:0:
352,240,49118,1,2,0:0:0:0:
160,160,49493,6,0,L|64:160,1,80,2|8,0:0|0:0,0:0:0:0:
256,80,49868,2,0,L|416:80,1,160,2|0,0:0|0:0,0:0:0:0:
160,192,50431,2,0,L|128:192,6,20,8|0|0|0|0|0|0,0:0|0:0|0:0|0:0|0:0|0:0|0:0,0:0:0:0:
320,192,50806,6,0,L|432:192,2,80,4|2|8,0:0|0:0|0:0,0:0:0:0:
128,192,51556,2,0,L|240:192,2,80,0|2|8,0:0|0:0|0:0,0:0:0:0:
400,192,52118,1,2,0:0:0:0:
112,192,52493,6,0,L|208:192,1,80,2|8,0:0|0:0,0:0:0:0:
352,80,52868,2,0,L|192:80,1,160,2|0,0:0|0:0,0:0:0:0:
448,192,53431,2,0,L|468:192,6,20,8|0|0|0|0|0|0,0:0|0:0|0:0|0:0|0:0|0:0|0:0,0:0:0:0:
144,192,53806,5,4,0:0:0:0:
240,192,53993,2,0,L|320:192,2,80,2|0|2,0:0|0:0|0:0,0:0:0:0:
144,192,54556,2,0,L|48:192,1,80,0|2,0:0|0:0,0:0:0:0:
224,96,54931,2,0,L|304:96,1,80,0|2,0:0|0:0,0:0:0:0:
112,96,55306,6,0,L|64:192,1,80,2|0,0:0|0:0,0:0:0:0:
256,96,55681,2,0,L|304:176,1,80,2|0,0:0|0:0,0:0:0:0:
48,256,56056,1,2,0:0:0:0:
160,256,56243,1,0,0:0:0:0:
288,256,56431,2,0,L|336:256,2,40,2|0|0,0:0|0:0|0:0,0:0:0:0:
160,256,56806,5,0,0:0:0:0:
416,256,56993,2,0,L|512:256,2,80,2|0|2,0:0|0:0|0:0,0:0:0:0:
288,256,57556,2,0,L|256:160,1,80,0|2,0:0|0:0,0:0:0:0:
416,256,57931,2,0,L|448:176,1,80,0|2,0:0|0:0,0:0:0:0:
384,160,58212,1,0,0:0:0:0:
128,160,58306,6,0,L|16:160,2,80,0|2|0,0:0|0:0|0:0,0:0:0:0:
240,160,58868,1,2,0:0:0:0:
96,256,59056,2,0,L|16:256,1,80,0|2,0:0|0:0,0:0:0:0:
288,96,59431,1,0,0:0:0:0:
336,128,59524,1,0,0:0:0:0:
358,183,59618,1,2,0:0:0:0:
326,234,59712,1,0,0:0:0:0:
128,192,59806,6,0,L|32:192,2,80,4|2|8,0:0|0:0|0:0,0:0:0:0:
368,192,60556,2,0,L|272:192,2,80,0|2|8,0:0|0:0|0:0,0:0:0:0:
48,192,61118,1,2,0:0:0:0:
288,192,61493,6,0,L|368:192,1,80,2|8,0:0|0:0,0:0:0:0:
192,80,61868,2,0,L|64:176,1,160,2|0,0:0|0:0,0:0:0:0:
368,64,62431,2,0,L|400:64,6,20,8|0|0|0|0|0|0,0:0|0:0|0:0|0:0|0:0|0:0|0:0,0:0:0:0:
208,64,62806,6,0,L|112:64,2,80,4|2|8,0:0|0:0|0:0,0:0:0:0:
464,64,63556,2,0,L|384:64,2,80,0|2|8,0:0|0:0|0:0,0:0:0:0:
128,192,64118,1,2,0:0:0:0:
368,192,64493,6,0,L|416:272,1,80,2|8,0:0|0:0,0:0:0:0:
272,192,64868,2,0,L|208:192,2,40,8|8|8,0:0|0:0|0:0,0:0:0:0:
400,192,65243,1,0,0:0:0:0:
112,80,65431,1,8,0:0:0:0:
62,113,65524,1,8,0:0:0:0:
46,171,65618,1,8,0:0:0:0:
72,225,65712,1,8,0:0:0:0:
304,224,65806,6,0,L|384:224,1,80,4|2,0:0|0:0,0:0:0:0:
240,224,66181,2,0,L|208:144,1,80,0|2,0:0|0:0,0:0:0:0:
384,144,66556,2,0,L|432:240,1,80,0|2,0:0|0:0,0:0:0:0:
304,208,66931,2,0,L|224:208,1,80
368,144,67306,6,0,L|448:144,2,80
208,144,67868,1,0,0:0:0:0:
368,144,68056,2,0,L|448:192,1,80,2|0,0:0|0:0,0:0:0:0:
176,144,68431,2,0,L|80:192,1,80,4|0,0:0|0:0,0:0:0:0:
448,304,68806,6,0,L|368:304,1,80,0|2,0:0|0:0,0:0:0:0:
240,304,69181,2,0,L|144:304,1,80,0|2,0:0|0:0,0:0:0:0:
288,192,69556,2,0,L|368:192,2,80,0|0|0,0:0|0:0|0:0,0:0:0:0:
144,192,70118,1,0,0:0:0:0:
432,96,70306,5,0,0:0:0:0:
320,96,70493,2,0,L|240:96,2,80,2|0|2,0:0|0:0|0:0,0:0:0:0:
448,96,71056,2,0,L|496:192,1,80,0|0,0:0|0:0,0:0:0:0:
304,176,71431,1,0,0:0:0:0:
192,176,71618,1,0,0:0:0:0:
448,320,71806,5,4,0:0:0:0:
288,320,71993,2,0,L|368:320,1,80,0|2,0:0|0:0,0:0:0:0:
208,240,72368,1,0,0:0:0:0:
336,192,72556,2,0,L|368:112,1,80,2|0,0:0|0:0,0:0:0:0:
96,192,72931,2,0,L|64:96,1,80,8|2,0:1|0:0,0:0:0:0:
208,112,73306,6,0,L|288:112,2,80,0|0|2,0:0|0:0|0:0,0:0:0:0:
80,112,73868,1,0,0:0:0:0:
272,192,74056,2,0,L|352:192,1,80,2|0,0:0|0:0,0:0:0:0:
208,288,74431,2,0,L|288:288,1,80,2|2,0:0|0:0,0:0:0:0:
416,288,74806,5,4,0:0:0:0:
457,245,74899,1,0,0:0:0:0:
474,187,74993,1,2,0:0:0:0:
453,130,75087,1,0,0:0:0:0:
256,288,75181,1,0,0:0:0:0:
215,245,75274,1,0,0:0:0:0:
198,187,75368,1,2,0:0:0:0:
219,130,75462,1,0,0:0:0:0:
320,288,75556,5,0,0:0:0:0:
361,245,75649,1,0,0:0:0:0:
378,187,75743,1,2,0:0:0:0:
357,130,75837,1,0,0:0:0:0:
160,288,75931,1,0,0:0:0:0:
119,245,76024,1,0,0:0:0:0:
102,187,76118,1,2,0:0:0:0:
123,130,76212,1,0,0:0:0:0:
288,128,76306,6,0,L|352:128,1,40,2|0,0:0|0:0,0:0:0:0:
208,80,76587,2,0,L|160:80,1,40,2|0,0:0|0:0,0:0:0:0:
448,80,76868,1,2,0:0:0:0:
320,80,77056,6,0,L|256:80,1,40,2|0,0:0|0:0,0:0:0:0:
96,80,77337,2,0,L|144:80,1,40,2|0,0:0|0:0,0:0:0:0:
400,160,77618,1,0,0:0:0:0:
272,160,77806,6,0,L|160:160,1,80,2|0,0:0|0:0,0:0:0:0:
384,256,78181,1,2,0:0:0:0:
128,256,78368,1,2,0:0:0:0:
320,160,78743,2,0,L|416:160,1,80,2|0,0:0|0:0,0:0:0:0:
144,208,79118,1,4,0:0:0:0:
416,208,79493,5,4,0:0:0:0:
144,208,79681,1,4,0:0:0:0:
432,128,80618,5,0,0:0:0:0:
368,128,80712,1,0,0:0:0:0:
320,208,80806,2,0,L|408:208,1,88.000002685547,4|0,0:0|0:0,0:0:0:0:
256,272,81181,2,0,L|160:272,1,88.000002685547,8|0,0:0|0:0,0:0:0:0:
32,208,81556,2,0,L|128:208,1,88.000002685547,0|2,0:0|0:0,0:0:0:0:
272,208,81931,2,0,L|360:208,1,88.000002685547,8|2,0:0|0:0,0:0:0:0:
112,288,82306,6,0,L|24:288,1,88.000002685547
192,192,82681,2,0,L|320:192,1,88.000002685547,8|0,0:0|0:0,0:0:0:0:
432,128,83056,2,0,L|336:128,1,88.000002685547,2|0,0:0|0:0,0:0:0:0:
192,128,83431,2,0,L|80:128,1,88.000002685547,10|2,0:0|0:0,0:0:0:0:
464,192,83806,6,0,L|352:192,1,88.000002685547,2|0,0:0|0:0,0:0:0:0:
224,192,84181,2,0,L|112:192,1,88.000002685547,8|0,0:0|0:0,0:0:0:0:
304,192,84556,2,0,L|336:96,1,88.000002685547,0|2,0:0|0:0,0:0:0:0:
176,112,84931,1,8,0:0:0:0:
336,112,85118,1,2,0:0:0:0:
64,112,85306,6,0,L|16:208,1,88.000002685547,0|0,0:0|0:0,0:0:0:0:
176,112,85681,2,0,L|224:208,1,88.000002685547,8|0,0:0|0:0,0:0:0:0:
80,272,86056,2,0,L|192:272,1,88.000002685547,0|2,0:0|0:0,0:0:0:0:
320,272,86431,1,10,0:0:0:0:
176,192,86618,1,0,0:0:0:0:
208,160,86712,1,0,0:0:0:0:
384,160,86806,6,0,L|496:160,2,88.000002685547,2|0|8,0:0|0:0|0:0,0:0:0:0:
224,160,87368,1,2,0:0:0:0:
352,160,87556,2,0,L|368:256,1,88.000002685547,0|2,0:0|0:0,0:0:0:0:
208,240,87931,1,8,0:0:0:0:
368,240,88118,1,2,0:0:0:0:
384,272,88212,1,0,0:0:0:0:
128,288,88306,6,0,L|32:288,2,88.000002685547,2|0|8,0:0|0:0|0:0,0:0:0:0:
288,288,88868,1,2,0:0:0:0:
160,208,89056,2,0,L|112:96,1,88.000002685547,0|2,0:0|0:0,0:0:0:0:
288,128,89431,1,8,0:0:0:0:
128,128,89618,1,2,0:0:0:0:
96,160,89712,1,0,0:0:0:0:
304,160,89806,6,0,L|400:160,1,88.000002685547,2|2,0:0|0:0,0:0:0:0:
256,224,90181,1,8,0:0:0:0:
224,256,90274,1,0,0:0:0:0:
192,288,90368,1,0,0:0:0:0:
160,320,90462,1,0,0:0:0:0:
336,160,90556,6,0,L|432:160,1,88.000002685547,2|0,0:0|0:0,0:0:0:0:
240,224,90931,1,8,0:0:0:0:
208,256,91024,1,0,0:0:0:0:
176,288,91118,1,2,3:2:0:0:
144,320,91212,1,0,3:0:0:0:
368,160,91306,6,0,L|464:160,1,88.000002685547,0|0,0:0|0:0,0:0:0:0:
208,224,91681,1,8,0:0:0:0:
176,256,91774,1,0,0:0:0:0:
144,288,91868,1,0,3:0:0:0:
112,320,91962,1,0,3:0:0:0:
304,320,92056,6,0,L|400:320,2,88.000002685547,0|2|8,0:0|0:0|3:2,0:0:0:0:
144,320,92618,2,0,L|112:272,1,44.0000013427735,2|0,3:2|3:0,0:0:0:0:
384,112,92806,6,0,L|448:192,1,88.000002685547,4|0,0:0|0:0,0:0:0:0:
288,176,93181,2,0,L|192:176,1,88.000002685547,8|0,0:0|0:0,0:0:0:0:
336,256,93556,2,0,L|400:336,1,88.000002685547,0|2,0:0|0:0,0:0:0:0:
224,256,93931,2,0,L|128:256,1,88.000002685547,8|2,0:0|0:0,0:0:0:0:
256,160,94306,6,0,L|368:160,2,88.000002685547,0|0|8,0:0|0:0|0:0,0:0:0:0:
96,160,94868,1,2,0:0:0:0:
432,112,95056,2,0,L|320:112,1,88.000002685547,0|2,0:0|0:0,0:0:0:0:
192,112,95431,2,0,L|80:112,1,88.000002685547,10|2,0:0|0:0,0:0:0:0:
368,272,95806,6,0,L|192:272,1,176.000005371094,4|8,0:0|0:0,0:0:0:0:
384,144,96368,2,0,L|480:144,2,88.000002685547,2|0|2,0:0|0:0|0:0,0:0:0:0:
224,144,96931,1,8,0:0:0:0:
480,240,97118,6,0,L|368:240,1,88.000002685547,4|0,0:0|0:0,0:0:0:0:
224,144,97493,2,0,L|336:144,1,88.000002685547,0|8,0:0|0:0,0:0:0:0:
464,144,97868,1,0,0:0:0:0:
80,144,98056,6,0,L|192:144,1,88.000002685547,2|0,0:0|0:0,0:0:0:0:
288,240,98431,2,0,L|176:240,1,88.000002685547,8|2,0:0|0:0,0:0:0:0:
448,240,98806,6,0,L|480:128,1,88.000002685547,4|0,0:0|0:0,0:0:0:0:
144,112,99181,2,0,L|48:112,1,88.000002685547,8|0,0:0|0:0,0:0:0:0:
192,192,99556,2,0,L|304:192,2,88.000002685547,2|0|8,0:0|0:0|0:0,0:0:0:0:
32,192,100118,1,2,0:0:0:0:
432,128,100306,6,0,L|480:224,1,88.000002685547,0|0,0:0|0:0,0:0:0:0:
320,128,100681,2,0,L|288:224,1,88.000002685547,8|0,0:0|0:0,0:0:0:0:
432,288,101056,2,0,L|336:288,1,88.000002685547,2|0,0:0|0:0,0:0:0:0:
208,288,101431,2,0,L|96:288,1,88.000002685547,8|2,0:0|0:0,0:0:0:0:
320,112,101806,5,0,3:0:0:0:
355,137,101899,1,0,3:0:0:0:
374,176,101993,1,0,3:0:0:0:
363,218,102087,1,0,3:0:0:0:
256,112,102181,1,8,3:2:0:0:
221,137,102274,1,0,3:0:0:0:
202,176,102368,1,0,3:0:0:0:
213,218,102462,1,0,3:0:0:0:
400,112,102556,6,0,L|272:112,1,88.000002685547
192,112,102931,1,8,3:2:0:0:
64,176,103118,2,0,L|32:224,1,44.0000013427735
304,224,103306,6,0,L|480:224,1,176.000005371094,4|0,0:0|0:0,0:0:0:0:
224,112,103868,2,0,L|32:112,1,176.000005371094,4|4,0:0|0:0,0:0:0:0:
352,112,104431,2,0,L|400:208,1,88.000002685547,0|0,0:0|0:0,0:0:0:0:
128,112,104806,6,0,L|80:192,1,88.000002685547,4|0,0:0|0:0,0:0:0:0:
224,192,105181,2,0,L|304:192,1,80,8|0,0:0|0:0,0:0:0:0:
96,112,105556,2,0,L|48:192,1,80,2|0,0:0|0:0,0:0:0:0:
192,192,105931,2,0,L|272:192,1,80,8|2,0:0|0:0,0:0:0:0:
64,112,106306,6,0,L|16:192,1,80,2|0,0:3|0:0,0:0:0:0:
160,192,106681,2,0,L|240:192,1,80,8|0,0:0|0:0,0:0:0:0:
80,272,107056,2,0,L|-32:272,1,80,2|0,0:3|0:0,0:0:0:0:
160,272,107431,2,0,L|256:272,1,80,8|0,0:0|0:0,0:0:0:0:
512,128,107806,6,0,L|416:128,1,80,2|0,0:0|0:0,0:0:0:0:
288,128,108181,2,0,L|352:176,1,80,8|0,0:0|0:0,0:0:0:0:
464,160,108556,2,0,L|368:160,1,80,2|2,0:0|0:0,0:0:0:0:
240,160,108931,2,0,L|304:208,1,80,8|2,0:0|0:0,0:0:0:0:
416,192,109306,6,0,L|320:192,1,80,2|0,0:3|0:0,0:0:0:0:
192,192,109681,2,0,L|256:240,1,80,8|0,0:0|0:0,0:0:0:0:
400,240,110056,2,0,L|480:240,1,80,2|0,0:3|0:0,0:0:0:0:
336,336,110431,2,0,L|416:336,1,80,8|0,0:0|0:0,0:0:0:0:
128,240,110806,6,0,L|80:160,1,80,4|0,0:3|0:0,0:0:0:0:
256,192,111181,2,0,L|288:112,1,80,8|2,0:0|0:0,0:0:0:0:
112,240,111556,2,0,L|64:160,1,80,0|2,0:0|0:0,0:0:0:0:
224,192,111931,2,0,L|256:112,1,80,8|2,0:0|0:0,0:0:0:0:
96,240,112306,6,0,L|48:160,1,80,0|0,0:0|0:0,0:0:0:0:
416,240,112681,2,0,L|480:176,1,80,8|0,0:0|0:0,0:0:0:0:
224,144,113056,2,0,L|320:144,2,80,2|0|8,0:0|0:0|0:0,0:0:0:0:
80,144,113618,1,0,0:0:0:0:
384,144,113806,6,0,L|416:224,1,80,4|0,0:0|0:0,0:0:0:0:
256,144,114181,1,8,0:0:0:0:
215,169,114274,1,0,0:0:0:0:
206,216,114368,1,0,3:0:0:0:
238,251,114462,1,0,3:0:0:0:
416,256,114556,6,0,L|316:257,1,80,0|0,0:0|0:0,0:0:0:0:
176,144,114931,1,8,0:0:0:0:
134,171,115024,1,0,0:0:0:0:
120,216,115118,1,0,3:0:0:0:
150,253,115212,1,0,3:0:0:0:
368,144,115306,6,0,L|464:144,1,80,0|0,0:0|0:0,0:0:0:0:
272,192,115681,1,8,0:0:0:0:
312,217,115774,1,0,0:0:0:0:
326,262,115868,1,0,3:0:0:0:
299,301,115962,1,0,3:0:0:0:
112,304,116056,6,0,L|32:304,1,80,0|2,0:0|0:0,0:0:0:0:
176,160,116431,1,8,3:2:0:0:
136,185,116524,1,0,3:0:0:0:
122,230,116618,1,2,3:2:0:0:
149,269,116712,1,0,3:0:0:0:
384,272,116806,6,0,L|480:272,1,80,4|0,0:0|0:0,0:0:0:0:
288,192,117181,2,0,L|208:192,1,80,8|0,0:0|0:0,0:0:0:0:
384,144,117556,2,0,L|432:64,1,80,0|2,0:0|0:0,0:0:0:0:
256,160,117931,2,0,L|208:80,1,80,8|2,0:0|0:0,0:0:0:0:
384,224,118306,6,0,L|464:224,1,80,2|0,0:3|0:0,0:0:0:0:
320,128,118681,2,0,L|400:128,1,80,8|0,0:0|0:0,0:0:0:0:
128,96,119056,2,0,L|96:192,1,80,0|2,0:0|0:0,0:0:0:0:
288,96,119431,2,0,L|304:176,1,80,8|2,0:0|0:0,0:0:0:0:
112,256,119806,6,0,L|16:256,2,80,4|0|8,0:3|0:0|0:0,0:0:0:0:
272,256,120368,1,2,0:0:0:0:
128,192,120556,2,0,L|80:112,1,80,0|2,0:0|0:0,0:0:0:0:
368,128,120931,1,8,0:0:0:0:
48,128,121118,6,0,L|16:208,1,80,4|0,0:0|0:0,0:0:0:0:
160,192,121493,2,0,L|192:272,1,80,0|8,0:0|0:0,0:0:0:0:
48,272,121868,1,2,0:0:0:0:
192,272,122056,2,0,L|304:272,1,80,0|2,0:0|0:0,0:0:0:0:
144,176,122431,2,0,L|48:176,1,80,10|0,0:0|0:0,0:0:0:0:
416,192,122806,6,0,L|448:304,1,80,4|0,0:0|0:0,0:0:0:0:
160,192,123181,2,0,L|128:288,1,80,10|2,0:0|0:0,0:0:0:0:
288,192,123556,2,0,L|384:192,2,80,2|2|8,0:0|0:0|0:0,0:0:0:0:
32,192,124118,1,0,0:0:0:0:
160,192,124306,6,0,L|256:176,2,80,2|0|8,0:3|0:0|0:0,0:0:0:0:
288,96,124868,1,0,0:0:0:0:
160,256,125056,2,0,L|80:208,1,80,2|0,0:0|0:0,0:0:0:0:
352,256,125431,2,0,L|432:208,1,80,12|0,0:0|0:0,0:0:0:0:
224,128,125806,5,0,3:0:0:0:
176,156,125899,1,0,3:0:0:0:
159,209,125993,1,0,3:0:0:0:
194,252,126087,1,0,3:0:0:0:
304,128,126181,1,8,3:2:0:0:
352,156,126274,1,0,3:0:0:0:
369,209,126368,1,0,3:0:0:0:
334,252,126462,1,0,3:0:0:0:
160,128,126556,5,0,3:0:0:0:
112,156,126649,1,0,3:0:0:0:
95,209,126743,1,0,3:0:0:0:
130,252,126837,1,0,3:0:0:0:
352,128,126931,1,8,3:2:0:0:
400,156,127024,1,0,3:0:0:0:
417,209,127118,1,0,3:0:0:0:
382,252,127212,1,0,3:0:0:0:
112,128,127306,5,4,0:0:0:0:
400,128,127868,2,0,L|432:288,1,160,4|4,0:0|0:0,0:0:0:0:
144,112,128806,6,0,P|48:128|48:192,1,160,4|8,0:0|0:0,0:0:0:0:
306,127,129368,1,0,0:0:0:0:
359,145,129462,1,0,0:0:0:0:
389,191,129556,1,0,0:0:0:0:
400,245,129649,1,0,0:0:0:0:
372,294,129743,1,0,0:0:0:0:
324,323,129837,1,0,0:0:0:0:
272,320,129931,1,8,0:0:0:0:
160,320,130118,6,0,L|112:320,2,40
384,320,130681,1,8,0:0:0:0:
256,128,130868,1,0,0:0:0:0:
203,146,130962,1,0,0:0:0:0:
173,192,131056,1,0,0:0:0:0:
162,246,131149,1,0,0:0:0:0:
190,295,131243,1,0,0:0:0:0:
238,324,131337,1,0,0:0:0:0:
288,336,131431,1,8,0:0:0:0:
400,320,131618,2,0,L|448:288,1,40,0|0,0:0|0:0,0:0:0:0:
256,240,131806,5,0,0:0:0:0:
48,160,132181,1,8,0:0:0:0:
176,160,132368,1,0,0:0:0:0:
229,178,132462,1,0,0:0:0:0:
259,224,132556,1,0,0:0:0:0:
270,278,132649,1,0,0:0:0:0:
242,327,132743,1,0,0:0:0:0:
194,356,132837,1,0,0:0:0:0:
144,352,132931,1,8,0:0:0:0:
432,336,133118,1,0,0:0:0:0:
208,336,133493,6,0,L|160:336,2,40,0|0|8,0:0|0:0|0:0,0:0:0:0:
336,128,133868,1,0,0:0:0:0:
389,146,133962,1,0,0:0:0:0:
419,192,134056,1,0,0:0:0:0:
430,246,134149,1,0,0:0:0:0:
402,295,134243,1,0,0:0:0:0:
354,324,134337,1,0,0:0:0:0:
304,320,134431,1,8,0:0:0:0:
80,320,134806,5,0,0:0:0:0:
256,192,134993,12,0,140806,0:0:0:0:
