osu file format v14

[General]
AudioFilename: audio.mp3
AudioLeadIn: 0
PreviewTime: 49564
Countdown: 0
SampleSet: Normal
StackLeniency: 0.7
Mode: 0
LetterboxInBreaks: 0
WidescreenStoryboard: 1

[Editor]
Bookmarks: 4635,53314,63078,67748
DistanceSpacing: 1
BeatDivisor: 4
GridSize: 16
TimelineZoom: 2.2

[Metadata]
Title:Serment (TV Size)
TitleUnicode:Serment(TVサイズ)
Artist:Mami Kawada
ArtistUnicode:川田まみ
Creator:Gaia
Version:wkykyk
Source:灼眼のシャナⅢ-FINAL-
Tags:Shakugan no Shana III opening op
BeatmapID:1297136
BeatmapSetID:591232

[Difficulty]
HPDrainRate:6
CircleSize:4
OverallDifficulty:6
ApproachRate:8
SliderMultiplier:1.92
SliderTickRate:2

[Events]
//Background and Video events
0,0,"serment.jpg",0,0
//Break Periods
2,731,1904
2,5259,6432
//Storyboard Layer 0 (Background)
//Storyboard Layer 1 (Fail)
//Storyboard Layer 2 (Pass)
//Storyboard Layer 3 (Foreground)
//Storyboard Sound Samples

[TimingPoints]
390,283.018867924528,4,1,1,60,1,0
390,-200,4,1,1,60,0,0
10578,-100,4,1,1,60,0,0
19635,-133.333333333333,4,1,1,60,0,0
23314,-133.333333333333,4,1,1,60,0,0
37748,-200,4,1,1,60,0,0
47088,-142.857142857143,4,1,1,60,0,0
48503,-100,4,1,1,60,0,0
49069,-83.3333333333333,4,1,1,60,0,0
55861,-66.6666666666667,4,1,1,60,0,0
56993,-100,4,1,1,60,0,0
58125,-83.3333333333333,4,1,1,60,0,0
80908,-100,4,1,1,60,0,0

[Colours]
Combo1 : 236,19,19
Combo2 : 206,206,206
Combo3 : 255,121,121
Combo4 : 255,255,128
Combo5 : 255,149,43

[HitObjects]
256,172,390,6,0,B|264:192|264:192|256:217,1,48
60,48,2654,6,0,L|72:104,1,48
100,248,2937,2,0,L|160:244,1,48
344,208,3220,2,0,L|364:304,1,96
440,180,3644,2,0,P|440:120|384:56,1,144
160,179,4352,2,0,L|264:171,1,96
256,172,4918,6,0,B|248:192|248:192|255:217,1,48
452,48,7182,6,0,L|440:104,1,48
412,248,7465,2,0,L|352:244,1,48
168,208,7748,2,0,L|148:304,1,96
72,180,8172,2,0,P|72:120|128:56,1,144
352,92,8880,2,0,L|404:80,1,48
456,144,9163,2,0,L|508:132,1,48
256,192,9446,12,0,10437,0:0:0:0:
408,44,10578,6,0,P|432:92|424:140,1,96
304,288,10861,2,0,P|280:240|288:192,1,96,8|0,0:0|0:0,0:0:0:0:
468,236,11144,2,0,L|356:224,2,96,0|0|8,0:0|0:0|0:0,0:0:0:0:
156,344,11569,2,0,P|212:296|332:312,1,192
488,348,11993,2,0,L|276:324,1,192,8|0,0:0|0:0,0:0:0:0:
260,228,12418,2,0,P|308:204|372:216,1,96,0|8,0:0|0:0,0:0:0:0:
464,160,12701,2,0,P|428:112|292:96,1,192
36,152,13125,6,0,P|16:104|112:28,1,192,8|0,0:0|0:0,0:0:0:0:
192,72,13550,2,0,L|208:188,1,96,0|8,0:0|0:0,0:0:0:0:
220,264,13833,2,0,P|152:256|72:352,1,192
73,340,14257,6,0,L|168:348,1,96,8|0,0:0|0:0,0:0:0:0:
404,374,14540,2,0,L|412:280,1,96
438,43,14823,2,0,L|344:36,1,96,8|0,0:0|0:0,0:0:0:0:
107,9,15106,2,0,L|100:104,1,96,4|0,0:0|0:0,0:0:0:0:
164,176,15389,6,0,P|232:152|324:228,1,192,8|0,0:0|0:0,0:0:0:0:
228,252,15814,2,0,P|208:304|216:380,1,96,0|8,0:0|0:0,0:0:0:0:
304,320,16097,2,0,P|364:292|488:300,1,192
464,84,16522,2,0,P|404:112|280:104,1,192,8|0,0:0|0:0,0:0:0:0:
196,60,16946,2,0,P|144:40|100:44,1,96,0|8,0:0|0:0,0:0:0:0:
56,184,17229,2,0,P|36:236|40:280,2,96
184,368,17654,6,0,P|148:316|176:180,1,192,8|0,0:0|0:0,0:0:0:0:
248,148,18078,2,0,L|360:164,1,96,0|8,0:0|0:0,0:0:0:0:
472,280,18361,2,0,B|452:208|452:208|460:164|460:164|436:76,1,192
343,161,18786,2,0,L|327:273,1,96,8|8,0:0|0:0,0:0:0:0:
108,52,19069,2,0,L|92:164,1,96,8|8,0:0|0:0,0:0:0:0:
184,260,19352,2,0,L|168:372,1,96,8|8,0:0|0:0,0:0:0:0:
448,328,19635,6,0,L|460:244,1,72.0000027465821,8|0,0:0|0:0,0:0:0:0:
458,256,20059,2,0,P|400:284|352:160,1,216.000008239746,0|8,0:0|0:0,0:0:0:0:
452,44,20767,2,0,P|472:96|476:196,1,144.000005493164,0|8,0:0|0:0,0:0:0:0:
236,304,21333,2,0,P|216:252|212:152,1,144.000005493164,0|8,0:0|0:0,0:0:0:0:
348,12,21899,6,0,P|341:49|336:104,1,72.0000027465821
348,168,22182,2,0,P|324:120|92:80,1,288.000010986329,8|8,0:0|0:0,0:0:0:0:
28,216,23031,6,0,B|92:252|92:252|176:224,1,144.000005493164,0|8,0:0|0:0,0:0:0:0:
353,154,23597,2,0,B|420:132|420:132|484:168,1,144.000005493164,0|8,0:0|0:0,0:0:0:0:
324,336,24163,6,0,P|257:360|192:334,1,144.000005493164,0|8,0:0|0:0,0:0:0:0:
168,256,24588,2,0,P|256:203|345:255,1,216.000008239746,0|8,0:0|0:0,0:0:0:0:
484,148,25295,2,0,P|500:92|456:8,1,144.000005493164,0|8,0:0|0:0,0:0:0:0:
328,120,25861,2,0,L|164:120,1,144.000005493164,0|8,0:0|0:0,0:0:0:0:
45,16,26427,6,0,P|12:79|28:148,1,144.000005493164,0|8,0:0|0:0,0:0:0:0:
88,212,26852,2,0,L|72:308,1,72.0000027465821
160,300,27135,2,0,L|176:396,1,72.0000027465821,0|8,0:0|0:0,0:0:0:0:
256,344,27418,6,0,P|336:328|408:372,1,144.000005493164
476,348,27842,2,0,L|456:192,1,144.000005493164,8|0,0:0|0:0,0:0:0:0:
332,84,28408,2,0,L|341:155,1,72.0000027465821,8|0,0:0|0:0,0:0:0:0:
252,280,28691,6,0,L|242:208,1,72.0000027465821,8|0,0:0|0:0,0:0:0:0:
242,208,29116,2,0,P|182:240|102:128,1,216.000008239746,0|8,0:0|0:0,0:0:0:0:
256,72,29823,6,0,P|300:80|396:52,1,144.000005493164,0|8,0:0|0:0,0:0:0:0:
488,200,30389,2,0,P|444:192|348:220,1,144.000005493164,0|8,0:0|0:0,0:0:0:0:
220,332,30956,6,0,P|180:336|128:352,1,72.0000027465821
80,292,31239,2,0,B|60:320|64:360|64:360|8:304|12:212|68:160,1,288.000010986329,8|8,0:0|0:0,0:0:0:0:
204,64,32088,6,0,B|268:56|268:56|280:60|280:60|356:52,1,144.000005493164,0|8,0:0|0:0,0:0:0:0:
496,140,32654,2,0,B|432:148|432:148|420:144|420:144|344:152,1,144.000005493164,0|8,0:0|0:0,0:0:0:0:
256,292,33220,6,0,P|308:296|400:352,1,144.000005493164,0|8,0:0|0:0,0:0:0:0:
400,252,33644,2,0,P|377:204|379:97,1,144.000005493164
292,144,34069,2,0,P|262:187|168:238,2,144.000005493164,8|0|8,0:0|0:0|0:0,0:0:0:0:
148,8,34776,2,0,P|200:12|292:68,1,144.000005493164
100,204,35201,2,0,P|77:156|79:49,1,144.000005493164,8|0,0:0|0:0,0:0:0:0:
256,192,35625,12,0,37606,0:0:0:0:
44,104,37748,6,0,L|100:96,1,48
172,132,38031,2,0,L|228:124,1,48
164,48,38314,2,0,L|220:40,1,48
292,76,38597,2,0,L|348:68,1,48
52,188,38880,6,0,L|108:180,1,48
300,160,39163,2,0,L|347:153,1,48
172,132,39446,2,0,L|228:124,1,48
180,216,39729,2,0,L|227:209,1,48
424,268,40012,6,0,L|437:221,1,48
416,288,40295,2,0,L|444:249,1,48
400,308,40578,2,0,L|439:281,1,48
381,318,40861,2,0,L|427:306,1,48
88,268,41144,6,0,L|74:221,1,48
96,288,41427,2,0,L|67:249,1,48
112,308,41710,2,0,L|72:281,1,48
131,318,41993,2,0,L|84:306,1,48
212,196,42276,6,0,L|196:256,1,48
268,92,42559,2,0,L|208:76,1,48
376,144,42842,2,0,L|392:84,1,48
320,248,43125,2,0,L|380:264,1,48
68,280,43408,6,0,L|52:340,1,48
124,176,43691,2,0,L|64:160,1,48
232,228,43974,2,0,L|248:168,1,48
176,332,44257,2,0,L|236:348,1,48
256,192,44540,12,0,46805,0:0:0:0:
108,168,46946,5,0,0:0:0:0:
108,168,47088,2,0,B|152:172|184:140|184:140|244:180|304:140|304:140|388:212|324:332,1,403.199987695313
333,313,48078,6,0,P|304:348|200:340,1,134.399995898438
219,353,48503,6,0,P|280:324|416:356,1,192
484,376,48927,2,0,L|500:248,2,96,0|4|0,0:0|0:0|0:0,0:0:0:0:
320,220,49352,2,0,P|368:188|440:196,1,115.199996484375,8|0,0:0|0:0,0:0:0:0:
219,353,49635,2,0,P|175:293|43:317,1,172.799994726563
64,300,49918,2,0,L|52:168,1,115.199996484375,8|0,0:0|0:0,0:0:0:0:
296,4,50201,6,0,L|308:136,2,115.199996484375,0|0|8,0:0|0:0|0:0,0:0:0:0:
188,136,50625,2,0,P|256:120|384:216,1,230.39999296875
192,332,51050,2,0,P|176:276|172:196,1,115.199996484375,8|0,0:0|0:0,0:0:0:0:
308,44,51333,6,0,P|292:128|280:236,1,172.799994726563
328,296,51616,2,0,P|384:284|464:280,1,115.199996484375,8|0,0:0|0:0,0:0:0:0:
240,344,51899,2,0,P|182:339|126:327,1,115.199996484375
395,198,52182,2,0,P|338:210|281:214,1,115.199996484375,8|0,0:0|0:0,0:0:0:0:
432,0,52465,6,0,P|444:56|448:113,1,115.199996484375
172,32,52748,2,0,P|184:104|196:228,1,172.799994726563,8|0,0:0|0:0,0:0:0:0:
136,268,53031,2,0,P|133:325|122:382,1,115.199996484375
0,208,53314,2,0,L|120:180,1,115.199996484375,8|0,0:0|0:0,0:0:0:0:
504,184,53597,6,0,P|444:176|344:308,1,230.39999296875,4|8,0:0|0:0,0:0:0:0:
294,5,54022,2,0,P|284:62|280:120,1,115.199996484375
452,272,54305,2,0,P|395:261|337:257,1,115.199996484375,0|8,0:0|0:0,0:0:0:0:
204,220,54588,2,0,P|146:224|89:234,2,115.199996484375
380,164,55012,2,0,P|400:112|392:52,1,115.199996484375,8|0,0:0|0:0,0:0:0:0:
16,180,55295,2,0,P|4:240|80:332,1,172.799994726563
140,368,55578,2,0,P|192:340|288:344,1,115.199996484375,8|0,0:0|0:0,0:0:0:0:
452,284,55861,6,0,B|492:224|464:136|464:136|372:120|320:200,1,288.000010986329,0|8,0:0|0:0,0:0:0:0:
128,340,56286,2,0,B|60:316|92:236|128:204|216:248|248:340,1,288.000010986329
380,294,56710,2,0,L|460:282,2,72.0000027465821,8|0|4,0:0|0:0|0:0,0:0:0:0:
272,44,56993,6,0,L|392:64,1,96
435,157,57276,2,0,L|315:177,1,96,8|0,0:0|0:0,0:0:0:0:
144,244,57559,2,0,L|264:264,1,96
307,357,57842,2,0,L|187:377,1,96,8|0,0:0|0:0,0:0:0:0:
56,168,58125,6,0,P|104:240|80:376,1,230.39999296875,4|8,0:0|0:0,0:0:0:0:
136,268,58550,2,0,P|145:155|229:81,1,230.39999296875
476,240,58974,2,0,L|344:228,1,115.199996484375,8|0,0:0|0:0,0:0:0:0:
229,81,59257,6,0,B|272:124|264:192|264:192|240:248|293:321,1,230.39999296875,0|8,0:0|0:0,0:0:0:0:
336,121,59682,2,0,B|312:177|252:185|252:185|189:212|173:270,1,230.39999296875
413,376,60106,2,0,P|386:326|340:293,1,115.199996484375,8|0,0:0|0:0,0:0:0:0:
308,104,60389,6,0,P|272:164|348:296,1,230.39999296875,0|8,0:0|0:0,0:0:0:0:
388,188,60814,2,0,P|283:224|199:153,1,230.39999296875
294,35,61239,2,0,L|410:15,1,115.199996484375,8|4,0:0|0:0,0:0:0:0:
188,188,61522,6,0,P|172:128|192:52,1,115.199996484375
324,196,61805,2,0,P|340:256|320:332,1,115.199996484375,8|0,0:0|0:0,0:0:0:0:
136,136,62088,2,0,P|152:76|207:20,1,115.199996484375
376,248,62371,2,0,P|359:307|304:363,1,115.199996484375,8|0,0:0|0:0,0:0:0:0:
96,72,62654,6,0,P|160:16|328:48,1,230.39999296875,0|8,0:0|0:0,0:0:0:0:
416,312,63078,2,0,L|440:168,1,115.199996484375
352,120,63361,2,0,B|314:163|314:163|328:256,1,115.199996484375,0|8,0:0|0:0,0:0:0:0:
304,340,63644,6,0,P|224:276|80:292,1,230.39999296875
24,328,64069,2,0,P|-9:259|8:168,1,172.799994726563,8|0,0:0|0:0,0:0:0:0:
60,104,64352,2,0,L|180:124,1,115.199996484375
264,12,64635,2,0,L|306:125,1,115.199996484375,8|0,0:0|0:0,0:0:0:0:
480,112,64918,6,0,L|402:205,1,115.199996484375
216,328,65201,2,0,L|289:239,1,115.199996484375,8|0,0:0|0:0,0:0:0:0:
360,8,65484,6,0,L|340:128,1,115.199996484375
460,372,65767,2,0,L|479:252,1,115.199996484375,8|0,0:0|0:0,0:0:0:0:
104,52,66050,6,0,L|146:165,1,115.199996484375
352,360,66333,2,0,L|392:252,1,115.199996484375
408,52,66616,2,0,L|365:165,1,115.199996484375
160,360,66899,2,0,L|119:252,1,115.199996484375
232,4,67182,6,0,P|248:76|192:188,1,172.799994726563
140,216,67465,2,0,P|84:200|4:204,1,115.199996484375,8|0,0:0|0:0,0:0:0:0:
336,240,67748,2,0,P|278:240|223:256,1,115.199996484375
440,344,68031,2,0,P|454:288|453:230,1,115.199996484375,8|0,0:0|0:0,0:0:0:0:
332,48,68314,6,0,P|364:95|383:150,1,115.199996484375
216,332,68597,2,0,P|270:313|315:278,1,115.199996484375,8|0,0:0|0:0,0:0:0:0:
280,184,68880,2,0,P|220:140|116:156,1,172.799994726563
48,112,69163,2,0,L|32:232,1,115.199996484375,8|0,0:0|0:0,0:0:0:0:
392,360,69446,6,0,P|364:300|372:212,1,115.199996484375
464,8,69729,2,0,P|432:76|316:124,1,172.799994726563,8|0,0:0|0:0,0:0:0:0:
264,124,70012,2,0,L|144:112,1,115.199996484375
32,256,70295,2,0,L|146:267,1,115.199996484375,8|0,0:0|0:0,0:0:0:0:
472,272,70578,6,0,P|412:256|304:336,1,172.799994726563
336,328,70861,2,0,L|348:208,1,115.199996484375,8|0,0:0|0:0,0:0:0:0:
408,8,71144,2,0,L|419:122,1,115.199996484375
352,352,71427,2,0,L|302:242,1,115.199996484375,8|0,0:0|0:0,0:0:0:0:
132,76,71710,6,0,P|64:80|64:228,1,230.39999296875,0|8,0:0|0:0,0:0:0:0:
252,72,72135,2,0,L|224:-8,2,57.5999982421876
104,152,72418,2,0,L|216:178,2,115.199996484375,0|8|0,0:0|0:0|0:0,0:0:0:0:
308,208,72842,6,0,P|236:220|108:256,1,172.799994726563
48,328,73125,2,0,P|112:336|240:360,1,172.799994726563,8|0,0:0|0:0,0:0:0:0:
408,384,73408,2,0,P|396:328|388:252,1,115.199996484375
304,156,73691,2,0,P|297:213|285:269,1,115.199996484375,8|0,0:0|0:0,0:0:0:0:
336,16,73974,6,0,P|396:56|428:160,1,172.799994726563
464,164,74257,2,0,P|400:184|328:216,1,115.199996484375,8|0,0:0|0:0,0:0:0:0:
152,320,74540,2,0,P|216:340|288:372,2,115.199996484375,0|0|8,0:0|0:0|0:0,0:0:0:0:
260,236,74965,6,0,P|232:172|224:12,1,230.39999296875,4|0,0:0|0:0,0:0:0:0:
220,128,75389,2,0,P|188:184|120:240,1,115.199996484375,8|0,0:0|0:0,0:0:0:0:
0,96,75673,2,0,P|64:95|146:126,1,115.199996484375
88,300,75956,2,0,P|55:244|41:157,1,115.199996484375,8|0,0:0|0:0,0:0:0:0:
336,8,76239,6,0,P|380:72|400:204,1,172.799994726563
368,248,76522,2,0,P|356:308|348:376,1,115.199996484375,8|0,0:0|0:0,0:0:0:0:
240,60,76805,2,0,P|219:162|206:277,1,172.799994726563
277,313,77088,2,0,P|284:256|296:199,1,115.199996484375,8|0,0:0|0:0,0:0:0:0:
56,296,77371,6,0,P|113:303|169:314,1,115.199996484375
116,64,77654,2,0,P|108:121|97:177,1,115.199996484375,8|0,0:0|0:0,0:0:0:0:
342,314,77937,6,0,P|398:303|456:296,1,115.199996484375
396,63,78220,2,0,P|403:121|414:177,1,115.199996484375,8|0,0:0|0:0,0:0:0:0:
112,233,78503,6,0,L|92:161,4,57.5999982421876,8|0|0|0|0,0:0|0:0|0:0|0:0|0:0,0:0:0:0:
256,112,78927,2,0,L|256:32,4,57.5999982421876,8|0|0|0|0,0:0|0:0|0:0|0:0|0:0,0:0:0:0:
400,233,79352,2,0,L|420:161,3,57.5999982421876,8|0|0|0,0:0|0:0|0:0|0:0,0:0:0:0:
256,192,79635,12,0,80767,0:0:0:0:
91,333,80908,6,0,L|63:126,1,192
267,326,81333,2,0,L|60:354,1,192
261,146,81757,2,0,L|289:353,1,192
85,153,82182,2,0,L|292:125,1,192
350,68,82606,2,0,P|400:85|466:76,1,96
498,179,82889,2,0,P|450:177|405:194,1,96
350,274,83173,6,0,P|305:291|171:201,1,192
277,202,83597,2,0,P|277:250|147:345,1,192
62,98,84022,2,0,P|103:73|250:138,1,192
87,335,84446,2,0,P|45:311|27:150,1,192
62,98,84871,2,0,P|105:73|181:80,1,96
233,109,85154,2,0,L|250:232,1,96
312,44,85437,6,0,L|339:240,1,192
404,248,85861,2,0,L|207:275,1,192
200,340,86286,2,0,L|172:143,1,192
108,136,86710,2,0,L|304:108,1,192
386,71,87135,6,0,L|490:86,1,96
481,299,87418,2,0,L|386:313,1,96
126,313,87701,2,0,L|30:299,2,96
256,368,88125,6,0,L|256:176,1,192
154,68,88550,2,0,B|81:96|81:96|115:232,1,192
403,206,88974,2,0,B|431:96|431:96|358:68,1,192
210,287,89399,2,0,P|255:299|301:287,1,96
256,80,89682,5,0,0:0:0:0:
