osu file format v14

[General]
AudioFilename: audio.mp3
AudioLeadIn: 0
PreviewTime: 49564
Countdown: 0
SampleSet: Normal
StackLeniency: 0.7
Mode: 0
LetterboxInBreaks: 0
WidescreenStoryboard: 1

[Editor]
DistanceSpacing: 1
BeatDivisor: 4
GridSize: 4
TimelineZoom: 2.1

[Metadata]
Title:Serment (TV Size)
TitleUnicode:Serment(TVサイズ)
Artist:Mami Kawada
ArtistUnicode:川田まみ
Creator:Gaia
Version:Extra
Source:灼眼のシャナⅢ-FINAL-
Tags:Shakugan no Shana III opening op
BeatmapID:1251482
BeatmapSetID:591232

[Difficulty]
HPDrainRate:6
CircleSize:4.2
OverallDifficulty:8.2
ApproachRate:9.3
SliderMultiplier:2
SliderTickRate:2

[Events]
//Background and Video events
0,0,"serment.jpg",0,0
//Break Periods
//Storyboard Layer 0 (Background)
//Storyboard Layer 1 (Fail)
//Storyboard Layer 2 (Pass)
//Storyboard Layer 3 (Foreground)
//Storyboard Sound Samples

[TimingPoints]
390,283.018867924528,4,3,1,60,1,0
2654,-100,4,1,1,60,0,0
3078,-100,4,1,1,40,0,0
3220,-100,4,1,1,60,0,0
3361,-100,4,1,1,40,0,0
3503,-100,4,1,1,60,0,0
3927,-100,4,1,1,40,0,0
4069,-100,4,1,1,60,0,0
4210,-100,4,1,1,40,0,0
4352,-100,4,1,1,60,0,0
4847,-100,4,2,1,60,0,0
4918,-100,4,1,1,60,0,0
5555,-100,4,1,1,40,0,0
6616,-100,4,1,1,60,0,0
6687,-100,4,1,1,40,0,0
7182,-100,4,1,1,60,0,0
7606,-100,4,1,1,40,0,0
7748,-100,4,1,1,60,0,0
7889,-100,4,1,1,40,0,0
8031,-100,4,1,1,60,0,0
8243,-100,4,1,1,40,0,0
8597,-100,4,1,1,60,0,0
8809,-100,4,2,1,60,0,0
8880,-100,4,1,1,60,0,0
9022,-100,4,1,1,40,0,0
9163,-100,4,1,1,60,0,0
9446,-100,4,2,1,60,0,0
10437,-100,4,1,1,60,0,0
10578,-100,4,2,1,70,0,0
10649,-100,4,1,1,70,0,0
19776,-100,4,1,1,50,0,0
27984,-100,4,2,0,30,0,0
28125,-100,4,1,1,60,0,0
37748,-100,4,3,1,60,0,0
42276,-100,4,3,1,65,0,0
46805,-100,4,1,1,65,0,0
47088,-500,4,1,1,60,0,0
47158,-500,4,1,1,30,0,0
47937,-166.666666666667,4,1,1,30,0,0
48078,-166.666666666667,4,1,1,60,0,0
48503,-111.111111111111,4,1,1,60,0,0
49069,-83.3333333333333,4,1,1,70,0,0
49352,-125,4,1,1,70,0,0
49635,-76.9230769230769,4,1,1,70,0,0
50059,-111.111111111111,4,1,1,70,0,0
50484,-83.3333333333333,4,1,1,70,0,0
50767,-76.9230769230769,4,1,1,70,0,0
51333,-166.666666666667,4,1,1,70,0,0
51616,-90.9090909090909,4,1,1,70,0,0
51899,-76.9230769230769,4,1,1,70,0,0
52323,-83.3333333333333,4,1,1,70,0,0
52748,-125,4,1,1,70,0,0
53597,-83.3333333333333,4,1,1,70,0,0
53880,-100,4,1,1,70,0,0
54163,-71.4285714285714,4,1,1,70,0,0
54588,-83.3333333333333,4,1,1,70,0,0
55295,-76.9230769230769,4,1,1,70,0,0
55861,-166.666666666667,4,1,1,70,0,0
56427,-76.9230769230769,4,1,1,70,0,0
57559,-71.4285714285714,4,1,1,70,0,0
58125,-83.3333333333333,4,1,1,70,0,0
58408,-76.9230769230769,4,1,1,70,0,0
61380,-111.111111111111,4,1,1,70,0,0
61805,-90.9090909090908,4,1,1,70,0,0
62088,-76.9230769230769,4,1,1,70,0,0
62654,-83.3333333333333,4,1,1,70,0,0
62937,-166.666666666666,4,1,1,70,0,0
63220,-76.9230769230769,4,1,1,70,0,0
63644,-83.3333333333333,4,1,1,70,0,0
64069,-111.111111111111,4,1,1,70,0,0
64352,-76.9230769230769,4,1,1,70,0,0
64918,-166.666666666667,4,1,1,70,0,0
65201,-71.4285714285714,4,1,1,70,0,0
65625,-71.4285714285714,4,1,1,50,0,0
65767,-71.4285714285714,4,1,1,70,0,0
65908,-125,4,1,1,70,0,0
66333,-100,4,1,1,60,0,0
66616,-83.3333333333333,4,1,1,60,0,0
66899,-66.6666666666667,4,1,1,60,0,0
67182,-83.3333333333333,4,1,1,70,0,0
67465,-125,4,1,1,70,0,0
67748,-76.9230769230769,4,1,1,70,0,0
68173,-111.111111111111,4,1,1,70,0,0
68597,-83.3333333333333,4,1,1,70,0,0
68880,-71.4285714285714,4,1,1,70,0,0
69729,-125,4,1,1,70,0,0
70012,-76.9230769230769,4,1,1,70,0,0
70437,-142.857142857143,4,1,1,70,0,0
71144,-71.4285714285714,4,1,1,70,0,0
71710,-83.3333333333333,4,1,1,70,0,0
71993,-125,4,1,1,70,0,0
72276,-71.4285714285714,4,1,1,70,0,0
72701,-100,4,1,1,70,0,0
72984,-76.9230769230769,4,1,1,70,0,0
73125,-83.3333333333333,4,1,1,70,0,0
73408,-71.4285714285714,4,1,1,70,0,0
73974,-83.3333333333333,4,1,1,70,0,0
74257,-125,4,1,1,70,0,0
74540,-71.4285714285714,4,1,1,70,0,0
74965,-76.9230769230769,4,1,1,70,0,0
75389,-142.857142857143,4,1,1,70,0,0
76239,-76.923076923077,4,1,1,70,0,0
76522,-90.9090909090909,4,1,1,70,0,0
76805,-66.6666666666667,4,1,1,70,0,0
77229,-125,4,1,1,70,0,0
77654,-74.0740740740741,4,1,1,70,0,0
77937,-66.6666666666667,4,1,1,70,0,0
78503,-62.5,4,1,1,70,0,0
78644,-200,4,1,1,70,0,0
78927,-62.5,4,1,1,70,0,0
79069,-200,4,1,1,70,0,0
79352,-58.8235294117647,4,1,1,70,0,0
79493,-500,4,1,1,60,0,0
80059,-83.3333333333333,4,1,1,60,0,0
80767,-62.5,4,1,1,70,0,0
80908,-166.666666666667,4,1,1,60,0,0
81757,-133.333333333333,4,1,1,60,0,0
83031,-71.4285714285714,4,1,1,60,0,0
83314,-83.3333333333333,4,1,1,60,0,0
83597,-71.4285714285714,4,1,1,60,0,0
84022,-166.666666666667,4,1,1,60,0,0
84729,-71.4285714285714,4,1,1,60,0,0
85295,-62.5,4,1,1,60,0,0
85437,-166.666666666667,4,1,1,60,0,0
86286,-133.333333333333,4,1,1,60,0,0
87559,-71.4285714285714,4,1,1,60,0,0
87842,-83.3333333333333,4,1,1,60,0,0
88125,-71.4285714285714,4,1,1,60,0,0
88550,-133.333333333333,4,1,1,60,0,0
89257,-71.4285714285714,4,1,1,60,0,0

[Colours]
Combo1 : 236,19,19
Combo2 : 206,206,206
Combo3 : 255,121,121
Combo4 : 255,255,128
Combo5 : 255,149,43

[HitObjects]
203,226,46805,5,2,1:3:0:0:
203,226,46946,1,2,1:3:0:0:
203,226,47088,2,0,P|246:240|305:247,1,100,2|0,1:3|0:0,0:0:0:0:
313,242,48078,6,0,L|295:312,1,59.9999981689454,0|0,0:0|0:0,0:0:0:0:
321,322,48503,6,0,P|330:281|343:234,1,89.9999972534181,2|2,1:3|1:3,0:0:0:0:
480,73,48786,5,8,0:0:0:0:
430,103,48856,1,8,0:0:0:0:
372,116,48927,1,8,0:0:0:0:
314,104,48998,1,8,0:0:0:0:
267,41,49069,6,0,B|220:28|220:28|238:98|247:172,1,179.999994506836,4|0,0:0|0:0,0:0:0:0:
291,219,49352,2,0,P|247:206|169:194,1,120,8|0,0:0|0:0,0:0:0:0:
99,217,49635,6,0,P|122:215|182:199,1,64.9999970245363,2|0,1:3|2:0,0:0:0:0:
364,246,49776,2,0,P|332:238|300:235,1,64.9999970245363,2|0,1:3|2:0,0:0:0:0:
27,211,49918,2,0,P|53:220|110:228,1,64.9999970245363,8|0,0:0|2:0,0:0:0:0:
202,102,50059,6,0,B|170:187|234:197|187:313,1,179.999994506836,2|0,1:3|0:0,0:0:0:0:
320,145,50484,2,0,B|427:109|427:109|384:144|389:196,1,179.999994506836,8|0,0:0|0:0,0:0:0:0:
467,241,50767,6,0,P|477:209|465:166,1,64.9999970245363,2|0,1:3|2:0,0:0:0:0:
384,45,50908,2,0,L|305:71,1,64.9999970245363,2|0,1:3|2:0,0:0:0:0:
245,156,51050,2,0,P|213:148|153:134,1,64.9999970245363,8|0,0:0|2:0,0:0:0:0:
56,86,51191,2,0,P|72:118|84:154,1,64.9999970245363,2|0,1:3|2:0,0:0:0:0:
110,310,51333,6,0,P|119:264|142:209,1,89.9999972534181,2|0,1:3|0:0,0:0:0:0:
81,145,51616,2,0,L|259:123,1,165.000005035401,8|0,0:0|0:0,0:0:0:0:
322,65,51899,6,0,P|293:38|244:34,1,64.9999970245363,2|0,1:3|2:0,0:0:0:0:
327,174,52040,2,0,P|357:174|401:158,1,64.9999970245363,2|0,1:3|2:0,0:0:0:0:
246,125,52182,2,0,P|231:158|224:203,1,64.9999970245363,8|0,0:0|2:0,0:0:0:0:
360,326,52323,6,0,B|200:284|200:284|232:318|244:357,1,239.999992675781,2|2,1:3|1:3,0:0:0:0:
284,256,52748,2,0,P|301:190|227:120,1,160,8|2,0:0|1:3,0:0:0:0:
36,113,53173,1,2,1:3:0:0:
205,39,53314,1,8,0:0:0:0:
51,107,53456,1,2,1:3:0:0:
215,204,53597,6,0,B|341:187|341:187|350:162|375:127,1,179.999994506836,4|0,0:0|0:0,0:0:0:0:
457,68,53880,2,0,L|429:225,1,150,8|0,0:0|0:0,0:0:0:0:
378,295,54163,6,0,P|412:306|448:306,1,69.9999978637696,2|0,1:3|2:0,0:0:0:0:
365,139,54305,2,0,P|347:175|336:212,1,69.9999978637696,2|0,1:3|2:0,0:0:0:0:
311,372,54446,1,8,0:0:0:0:
215,204,54588,6,0,B|226:88|158:62|158:62|139:112|168:143,1,239.999992675781,2|2,1:3|1:3,0:0:0:0:
267,285,55012,2,0,B|184:315|158:252|74:284,1,179.999994506836,8|0,0:0|0:0,0:0:0:0:
39,350,55295,6,0,P|60:328|83:287,1,64.9999970245363,2|0,1:3|2:0,0:0:0:0:
72,111,55437,2,0,P|76:144|88:181,1,64.9999970245363,2|0,1:3|2:0,0:0:0:0:
203,291,55578,2,0,P|235:292|267:285,1,64.9999970245363,8|0,0:0|2:0,0:0:0:0:
430,215,55720,2,0,L|520:236,1,64.9999970245363,2|0,1:3|2:0,0:0:0:0:
477,125,55861,6,0,L|448:-3,1,119.999996337891,2|8,1:3|0:0,0:0:0:0:
450,7,56427,6,0,L|443:86,1,64.9999970245363,2|0,1:3|2:0,0:0:0:0:
338,203,56569,2,0,P|296:201|272:184,1,64.9999970245363,2|0,1:3|2:0,0:0:0:0:
223,82,56710,2,0,P|190:95|138:110,1,64.9999970245363,8|0,0:0|2:0,0:0:0:0:
24,161,56852,6,0,B|54:162|84:134|84:134|118:197|192:179|192:179|204:143|236:123,1,259.999988098145,4|2,1:1|1:3,0:0:0:0:
379,39,57276,2,0,B|305:6|305:6|348:143,1,194.999991073609,8|0,0:0|0:0,0:0:0:0:
411,159,57559,6,0,P|423:193|406:256,1,69.9999978637696,2|0,1:3|2:0,0:0:0:0:
442,341,57701,2,0,L|347:317,1,69.9999978637696,2|0,1:3|2:0,0:0:0:0:
243,254,57842,2,0,L|168:277,1,69.9999978637696,12|0,1:0|2:0,0:0:0:0:
52,337,57984,2,0,P|35:305|48:257,1,69.9999978637696,8|0,0:0|2:0,0:0:0:0:
24,161,58125,6,0,B|132:189|132:189|112:154|124:108,1,179.999994506836,4|0,1:2|0:0,0:0:0:0:
178,48,58408,2,0,P|145:43|92:27,1,64.9999970245363,8|0,0:0|2:0,0:0:0:0:
211,138,58550,2,0,B|297:120|297:120|299:98|313:67,1,129.999994049073,0|2,0:0|1:3,0:0:0:0:
494,106,58833,1,2,1:3:0:0:
312,47,58974,1,8,0:0:0:0:
507,95,59116,1,2,1:3:0:0:
312,149,59257,6,0,B|287:183|287:183|299:249|332:280,1,129.999994049073,0|2,1:3|1:3,0:0:0:0:
494,106,59540,1,8,0:0:0:0:
324,279,59682,2,0,B|275:264|230:258|230:258|209:206,1,129.999994049073,0|2,0:0|1:3,0:0:0:0:
119,37,59965,1,2,1:3:0:0:
210,214,60106,1,8,0:0:0:0:
132,21,60248,1,2,1:3:0:0:
62,170,60389,6,0,B|78:227|96:311|96:311|149:328,1,194.999991073609,2|0,1:3|0:0,0:0:0:0:
214,366,60673,2,0,L|291:351,1,64.9999970245363,8|0,0:0|2:0,0:0:0:0:
441,284,60814,2,0,B|362:255|362:255|344:272|317:281,1,129.999994049073,0|2,0:0|1:3,0:0:0:0:
80,240,61097,1,2,1:3:0:0:
297,195,61239,1,8,0:0:0:0:
115,101,61380,6,0,B|208:122|195:55|292:72,1,179.999994506836,4|2,1:0|1:3,0:0:0:0:
496,188,61805,2,0,B|403:171|416:238|323:217,1,165.000005035401,8|0,0:0|0:0,0:0:0:0:
260,172,62088,6,0,P|248:206|251:262,1,64.9999970245363,2|0,1:3|2:0,0:0:0:0:
115,101,62229,2,0,P|110:62|101:28,1,64.9999970245363,4|0,1:0|2:0,0:0:0:0:
246,234,62371,2,0,P|259:274|266:321,1,64.9999970245363,8|0,0:0|2:0,0:0:0:0:
103,164,62512,2,0,P|104:137|126:78,1,64.9999970245363,2|0,1:3|2:0,0:0:0:0:
88,269,62654,6,0,B|151:271|189:284|189:284|206:247|263:227,1,179.999994506836,4|0,1:2|0:0,0:0:0:0:
261,216,62937,2,0,P|214:208|164:198,1,89.9999972534181,8|0,0:0|0:0,0:0:0:0:
71,125,63220,6,0,P|84:154|93:185,1,64.9999970245363,2|0,1:3|2:0,0:0:0:0:
177,349,63361,2,0,P|181:316|188:285,1,64.9999970245363,2|0,1:3|2:0,0:0:0:0:
273,137,63503,2,0,P|232:130|188:121,1,64.9999970245363,8|0,0:0|2:0,0:0:0:0:
351,237,63644,6,0,B|399:247|432:195|432:195|458:225|505:218|505:218|515:263|431:270,1,239.999992675781,2|2,1:3|1:3,0:0:0:0:
303,357,64069,2,0,B|267:376|267:376|164:345,1,134.999995880127,8|0,0:0|0:0,0:0:0:0:
159,265,64352,6,0,P|166:296|175:342,1,64.9999970245363,2|0,1:3|2:0,0:0:0:0:
5,253,64493,2,0,P|14:214|21:169,1,64.9999970245363,2|0,1:3|2:0,0:0:0:0:
78,41,64635,2,0,P|113:52|162:91,1,64.9999970245363,8|0,0:0|2:0,0:0:0:0:
273,137,64776,2,0,L|357:121,1,64.9999970245363,2|0,1:3|2:0,0:0:0:0:
425,80,64918,6,0,P|416:132|412:187,1,89.9999972534181,0|0,0:0|0:0,0:0:0:0:
355,253,65201,6,0,B|302:213|209:211|209:211|211:173|171:122,1,209.999993591309,12|0,0:2|0:0,0:0:0:0:
101,100,65484,2,0,L|122:176,1,69.9999978637696,2|0,1:3|2:0,0:0:0:0:
188,276,65625,2,0,P|199:247|213:195,1,69.9999978637696,4|0,0:0|2:0,0:0:0:0:
111,30,65767,2,0,L|99:107,1,69.9999978637696,8|0,1:0|2:0,0:0:0:0:
216,362,65908,6,0,B|206:318|188:276|188:276|201:242|210:208,1,160,2|2,1:3|1:3,0:0:0:0:
119,167,66333,6,0,L|45:153,1,50,8|0,0:0|2:0,0:0:0:0:
60,248,66474,2,0,L|-9:265,1,50,8|0,0:0|2:0,0:0:0:0:
232,128,66616,6,0,P|210:106|181:86,1,59.9999981689454,8|0,0:0|2:0,0:0:0:0:
113,268,66757,2,0,L|44:285,1,59.9999981689454,8|0,0:0|2:0,0:0:0:0:
328,88,66899,6,0,P|338:125|342:162,1,75.0000028610231,8|0,0:0|0:0,0:0:0:0:
99,341,67040,2,0,P|102:303|112:267,1,75.0000028610231,8|0,0:0|0:0,0:0:0:0:
358,282,67182,6,0,B|230:254|230:254|224:232|202:198,1,179.999994506836,4|0,1:2|0:0,0:0:0:0:
116,157,67465,2,0,P|176:140|252:125,1,120,8|0,0:0|0:0,0:0:0:0:
341,161,67748,6,0,P|309:157|249:145,1,64.9999970245363,2|0,1:3|2:0,0:0:0:0:
168,28,67889,2,0,P|170:62|160:104,1,64.9999970245363,2|0,1:3|2:0,0:0:0:0:
30,153,68031,2,0,P|37:185|48:216,1,64.9999970245363,8|0,0:0|2:0,0:0:0:0:
192,320,68173,6,0,B|240:312|272:356|272:356|320:372|352:300,1,179.999994506836,2|2,1:3|1:3,0:0:0:0:
490,180,68597,2,0,B|442:188|378:212|378:212|326:140,1,179.999994506836,8|0,0:0|0:0,0:0:0:0:
284,104,68880,6,0,P|262:142|264:188,1,69.9999978637696,2|0,1:3|2:0,0:0:0:0:
342,319,69022,2,0,P|378:309|454:299,1,69.9999978637696,2|0,1:3|2:0,0:0:0:0:
212,280,69163,2,0,B|148:260|84:336|84:336|100:300|92:248,1,209.999993591309,8|0,0:0|0:0,0:0:0:0:
93,181,69446,6,0,P|63:172|29:153,1,69.9999978637696,2|0,1:3|2:0,0:0:0:0:
168,28,69588,2,0,P|184:64|184:104,1,69.9999978637696,2|0,1:3|2:0,0:0:0:0:
212,280,69729,6,0,P|236:216|284:212,1,120,8|0,0:0|2:0,0:0:0:0:
368,240,70012,6,0,P|330:242|300:240,1,64.9999970245363,2|0,1:3|2:0,0:0:0:0:
93,181,70154,2,0,P|83:218|81:257,1,64.9999970245363,2|0,1:3|2:0,0:0:0:0:
229,342,70295,2,0,P|223:311|209:274,1,64.9999970245363,8|0,0:0|2:0,0:0:0:0:
185,94,70437,6,0,B|211:121|216:140|216:140|258:119|320:124,1,139.999995727539,2|2,1:3|1:3,0:0:0:0:
404,160,70861,1,8,0:0:0:0:
404,160,71144,6,0,P|394:202|388:260,1,69.9999978637696,2|0,1:3|2:0,0:0:0:0:
264,332,71286,2,0,P|254:303|244:244,1,69.9999978637696,2|0,1:3|2:0,0:0:0:0:
282,116,71427,2,0,P|243:128|198:152,1,69.9999978637696,8|0,0:0|2:0,0:0:0:0:
93,181,71569,2,0,P|64:171|17:165,1,69.9999978637696,2|0,1:3|2:0,0:0:0:0:
44,272,71710,6,0,B|81:326|96:380|96:380|144:312,1,179.999994506836,4|0,0:0|0:0,0:0:0:0:
246,264,71993,2,0,P|198:268|182:192,1,120,8|0,0:0|0:0,0:0:0:0:
93,181,72276,6,0,P|58:170|-9:161,1,69.9999978637696,2|0,1:3|2:0,0:0:0:0:
184,64,72418,2,0,P|215:49|249:39,1,69.9999978637696,2|0,1:3|2:0,0:0:0:0:
416,8,72559,2,0,P|412:44|392:88,1,69.9999978637696,8|0,0:0|2:0,0:0:0:0:
320,184,72701,6,0,P|337:267|360:360,1,150,2|0,1:3|2:0,0:0:0:0:
432,340,72984,2,0,P|433:303|400:264,1,64.9999970245363,2|0,1:3|2:0,0:0:0:0:
246,264,73125,6,0,B|138:308|138:308|154:280|147:247,1,179.999994506836,8|0,0:0|0:0,0:0:0:0:
68,264,73408,6,0,L|-8:248,1,69.9999978637696,2|0,1:3|2:0,0:0:0:0:
144,112,73550,2,0,P|172:152|176:196,1,69.9999978637696,2|0,1:3|2:0,0:0:0:0:
200,360,73691,2,0,L|276:332,1,69.9999978637696,8|0,0:0|2:0,0:0:0:0:
419,279,73833,2,0,P|420:240|395:203,1,69.9999978637696,2|0,1:3|2:0,0:0:0:0:
282,116,73974,6,0,B|396:136|396:136|380:108|380:68,1,179.999994506836,4|0,0:0|0:0,0:0:0:0:
304,212,74257,2,0,P|288:264|340:328,1,120,8|0,0:0|0:0,0:0:0:0:
419,279,74540,6,0,P|420:240|395:203,1,69.9999978637696,2|0,1:3|2:0,0:0:0:0:
282,116,74682,2,0,P|242:135|174:152,1,69.9999978637696,2|0,1:3|2:0,0:0:0:0:
68,264,74823,2,0,P|105:274|144:288,1,69.9999978637696,8|0,0:0|2:0,0:0:0:0:
64,148,74965,6,0,B|8:96|44:28|44:28|100:8|124:88,1,194.999991073609,4|0,1:2|2:0,0:0:0:0:
217,143,75248,2,0,P|203:191|197:231,1,64.9999970245363,2|0,1:3|2:0,0:0:0:0:
304,212,75389,6,0,L|448:176,1,139.999995727539,8|2,0:0|1:3,0:0:0:0:
217,143,75814,1,2,1:3:0:0:
444,292,75956,1,12,0:0:0:0:
56,232,76097,1,2,1:3:0:0:
392,76,76239,6,0,P|284:76|264:-12,1,194.999991073609,4|0,1:2|0:0,0:0:0:0:
217,143,76522,2,0,P|234:237|252:312,1,165.000005035401,8|0,0:0|0:0,0:0:0:0:
336,356,76805,6,0,P|316:332|244:308,1,75.0000028610231,2|0,1:3|2:0,0:0:0:0:
68,264,76946,2,0,P|101:259|168:228,1,75.0000028610231,2|0,1:3|2:0,0:0:0:0:
439,178,77088,2,0,P|404:164|356:160,1,75.0000028610231,8|0,0:0|2:0,0:0:0:0:
217,143,77229,6,0,B|184:88|220:32|220:32|252:40|252:80,1,160,2|2,1:3|1:3,0:0:0:0:
328,232,77654,2,0,B|213:275|213:275|176:248|136:243,1,202.500000772476,8|0,0:0|0:0,0:0:0:0:
78,164,77937,6,0,P|55:204|62:248,1,75.0000028610231,2|0,1:3|2:0,0:0:0:0:
225,348,78078,2,0,P|225:308|201:256,1,75.0000028610231,2|0,1:3|2:0,0:0:0:0:
164,90,78220,2,0,P|188:120|248:158,1,75.0000028610231,8|0,0:0|2:0,0:0:0:0:
398,252,78361,2,0,P|360:234|300:238,1,75.0000028610231,8|0,0:0|2:0,0:0:0:0:
55,231,78503,6,0,P|95:227|147:215,1,80,4|0,0:0|2:0,0:0:0:0:
249,59,78644,2,0,L|237:-1,1,50,2|2,1:3|1:3,0:0:0:0:
476,264,78927,6,0,P|435:260|384:248,1,80,4|0,0:0|2:0,0:0:0:0:
256,52,79069,2,0,L|244:-8,1,50,2|2,1:3|1:3,0:0:0:0:
236,264,79352,6,0,L|224:364,1,85.0000016212464,4|0,1:2|2:0,0:0:0:0:
272,60,79493,2,0,L|260:0,1,60,4|0,0:0|0:0,0:0:0:0:
288,140,80059,5,8,0:0:0:0:
288,140,80130,1,8,0:0:0:0:
288,140,80201,1,8,1:0:0:0:
236,264,80342,1,8,1:0:0:0:
104,212,80484,1,8,0:0:0:0:
164,90,80625,1,8,1:0:0:0:
417,170,80767,6,0,P|379:192|329:198,1,80,4|0,1:2|2:0,0:0:0:0:
311,60,80908,6,0,P|371:114|335:206,1,179.999994506836,2|8,1:3|0:0,0:0:0:0:
344,200,81616,1,2,1:3:0:0:
139,120,81757,6,0,P|221:133|300:140,1,150.000005722046,2|2,1:3|1:3,0:0:0:0:
404,268,82182,2,0,P|329:275|255:287,1,150.000005722046,2|8,1:3|0:0,0:0:0:0:
256,288,83031,6,0,P|267:330|272:368,1,69.9999978637696,2|0,1:3|2:0,0:0:0:0:
136,256,83173,2,0,P|139:219|160:176,1,69.9999978637696,2|0,1:3|2:0,0:0:0:0:
287,139,83314,2,0,B|242:143|200:160|200:160|144:160|115:99,1,179.999994506836,2|0,1:3|2:0,0:0:0:0:
208,48,83597,6,0,P|241:39|296:32,1,69.9999978637696,8|0,0:0|2:0,0:0:0:0:
424,84,83739,2,0,P|436:124|404:196,1,69.9999978637696,0|0,0:0|2:0,0:0:0:0:
460,296,83880,2,0,L|364:276,1,69.9999978637696,2|0,1:3|2:0,0:0:0:0:
256,288,84022,6,0,P|191:307|116:324,1,119.999996337891,2|2,1:3|1:3,0:0:0:0:
140,319,84729,6,0,P|174:311|208:302,1,69.9999978637696,8|0,0:0|2:0,0:0:0:0:
308,203,84871,2,0,P|304:171|280:131,1,69.9999978637696,2|0,1:3|2:0,0:0:0:0:
136,48,85012,2,0,P|131:83|120:140,1,69.9999978637696,4|0,1:2|2:0,0:0:0:0:
64,284,85154,2,0,P|98:288|133:291,1,69.9999978637696,8|0,0:0|2:0,0:0:0:0:
391,281,85295,6,0,P|350:290|307:313,1,80,4|0,1:1|2:0,0:0:0:0:
460,363,85437,6,0,P|412:303|310:310,1,179.999994506836,2|8,0:3|0:0,0:0:0:0:
315,306,86144,1,2,1:3:0:0:
388,196,86286,6,0,P|369:119|352:32,1,150.000005722046,2|8,1:3|0:0,0:0:0:0:
240,156,86710,2,0,P|224:229|207:302,1,150.000005722046,2|8,1:3|0:0,0:0:0:0:
207,302,87276,1,2,1:3:0:0:
207,302,87418,1,2,1:3:0:0:
207,302,87559,6,0,P|242:318|284:320,1,69.9999978637696,2|0,1:3|2:0,0:0:0:0:
388,196,87701,2,0,P|349:201|300:216,1,69.9999978637696,2|0,1:3|2:0,0:0:0:0:
120,192,87842,2,0,B|145:169|172:160|172:160|156:116|144:32,1,179.999994506836,12|0,0:2|2:0,0:0:0:0:
240,12,88125,6,0,P|236:48|236:92,1,69.9999978637696,2|0,1:3|2:0,0:0:0:0:
207,302,88267,2,0,P|200:268|183:226,1,69.9999978637696,2|0,1:3|2:0,0:0:0:0:
12,96,88408,2,0,P|38:111|84:120,1,69.9999978637696,8|0,0:0|2:0,0:0:0:0:
300,176,88550,6,0,P|232:136|152:188,1,150.000005722046,2|4,1:3|1:0,0:0:0:0:
170,160,88974,1,2,1:3:0:0:
170,160,89257,6,0,P|181:191|196:252,1,69.9999978637696,8|0,0:0|2:0,0:0:0:0:
320,312,89399,2,0,P|353:293|392:256,1,69.9999978637696,8|0,0:0|2:0,0:0:0:0:
404,112,89540,2,0,P|370:108|308:92,1,69.9999978637696,12|0,1:2|2:0,0:0:0:0:
150,93,89682,6,0,P|160:124|175:184,1,69.9999978637696,8|0,0:0|2:0,0:0:0:0:
