osu file format v14

[General]
AudioFilename: audio.mp3
AudioLeadIn: 0
PreviewTime: 190726
Countdown: 0
SampleSet: Soft
StackLeniency: 0.3
Mode: 0
LetterboxInBreaks: 0
WidescreenStoryboard: 1

[Editor]
Bookmarks: 108722,190231,246127
DistanceSpacing: 1
BeatDivisor: 4
GridSize: 32
TimelineZoom: 3.2

[Metadata]
Title:Serment
TitleUnicode:Serment
Artist:Mami Kawada
ArtistUnicode:川田まみ
Creator:Kyuukai
Version:Wings of Crimson
Source:灼眼のシャナIII-FINAL-
Tags:shakugan no shana III -best- 3rd season 2nd opening full version generasia square the circle anime jrock j-rock rock japanese pop kin my angel ram
BeatmapID:3600158
BeatmapSetID:1759055

[Difficulty]
HPDrainRate:5.3
CircleSize:4.7
OverallDifficulty:8.8
ApproachRate:9.2
SliderMultiplier:1.8
SliderTickRate:1

[Events]
//Background and Video events
0,0,"Shana.jpg",0,0
//Break Periods
//Storyboard Layer 0 (Background)
//Storyboard Layer 1 (Fail)
//Storyboard Layer 2 (Pass)
//Storyboard Layer 3 (Foreground)
//Storyboard Layer 4 (Overlay)
//Storyboard Sound Samples

[TimingPoints]
1175,283.018867924528,4,2,1,50,1,0
1175,-100,4,2,1,50,0,0
5703,-125,4,2,1,50,0,0
9665,-333.333333333333,4,2,1,50,0,0
10231,-125,4,2,1,55,0,0
19288,-250,4,2,1,40,0,0
20420,-100,4,2,1,60,0,0
20632,-100,4,2,1,5,0,0
20703,-100,4,2,1,60,0,0
25160,-100,4,2,1,5,0,0
25231,-100,4,2,1,60,0,0
28415,-100,4,2,1,5,0,0
28486,-100,4,2,1,60,0,0
29689,-100,4,2,1,5,0,0
29760,-100,4,2,1,60,0,0
34217,-100,4,2,1,5,0,0
34288,-100,4,2,1,60,0,0
38533,-200,4,2,1,45,0,0
45325,-166.666666666667,4,2,1,45,0,0
47590,-200,4,2,1,45,0,0
52118,-166.666666666667,4,2,1,45,0,0
53250,-142.857142857143,4,2,1,50,0,0
54382,-125,4,2,1,55,0,0
55514,-100,4,2,1,60,0,0
56646,-250,4,2,1,50,0,0
61174,-166.666666666667,4,2,1,55,0,0
63439,-133.333333333333,4,2,1,60,0,0
65703,-200,4,2,1,65,0,0
65774,-200,4,2,1,5,0,0
65844,-200,4,2,1,65,0,0
65915,-200,4,2,1,5,0,0
65986,-333.333333333333,4,2,1,50,0,0
67684,-200,4,2,1,55,0,0
67967,-83.3333333333333,4,2,1,70,0,1
68179,-83.3333333333333,4,2,1,5,0,1
68250,-83.3333333333333,4,2,1,70,0,1
69028,-83.3333333333333,4,2,1,5,0,1
69099,-83.3333333333333,4,2,1,70,0,1
71434,-83.3333333333333,4,2,1,5,0,1
71505,-83.3333333333333,4,2,1,70,0,1
72708,-83.3333333333333,4,2,1,5,0,1
72779,-83.3333333333333,4,2,1,70,0,1
74406,-83.3333333333333,4,2,1,5,0,1
74477,-83.3333333333333,4,2,1,70,0,1
76811,-83.3333333333333,4,2,1,5,0,1
76882,-83.3333333333333,4,2,1,70,0,1
76953,-83.3333333333333,4,2,1,5,0,1
77024,-83.3333333333333,4,2,1,70,0,1
77236,-83.3333333333333,4,2,1,5,0,1
77307,-83.3333333333333,4,2,1,70,0,1
77377,-83.3333333333333,4,2,1,5,0,1
77448,-83.3333333333333,4,2,1,70,0,1
77660,-83.3333333333333,4,2,1,5,0,1
77731,-83.3333333333333,4,2,1,70,0,1
77802,-83.3333333333333,4,2,1,5,0,1
77873,-83.3333333333333,4,2,1,70,0,1
78368,-83.3333333333333,4,2,1,5,0,1
78439,-83.3333333333333,4,2,1,70,0,1
78934,-83.3333333333333,4,2,1,5,0,1
79005,-83.3333333333333,4,2,1,70,0,1
79217,-83.3333333333333,4,2,1,5,0,1
79288,-83.3333333333333,4,2,1,70,0,1
79924,-83.3333333333333,4,2,1,5,0,1
79995,-83.3333333333333,4,2,1,70,0,1
80491,-83.3333333333333,4,2,1,5,0,1
80562,-83.3333333333333,4,2,1,70,0,1
81764,-83.3333333333333,4,2,1,5,0,1
81835,-83.3333333333333,4,2,1,70,0,1
84028,-83.3333333333333,4,2,1,5,0,1
84099,-83.3333333333333,4,2,1,70,0,1
84311,-83.3333333333333,4,2,1,5,0,1
84382,-83.3333333333333,4,2,1,70,0,1
86292,-83.3333333333333,4,2,1,5,0,1
86363,-83.3333333333333,4,2,1,70,0,1
87141,-83.3333333333333,4,2,1,5,0,1
87212,-83.3333333333333,4,2,1,70,0,1
89547,-83.3333333333333,4,2,1,5,0,1
89618,-83.3333333333333,4,2,1,70,0,1
90821,-83.3333333333333,4,2,1,5,0,1
90892,-83.3333333333333,4,2,1,70,0,1
92377,-83.3333333333333,4,2,1,5,0,1
92448,-83.3333333333333,4,2,1,70,0,1
93085,-83.3333333333333,4,2,1,5,0,1
93156,-83.3333333333333,4,2,1,70,0,1
94075,-83.3333333333333,4,2,1,5,0,1
94146,-83.3333333333333,4,2,1,70,0,1
95066,-83.3333333333333,4,2,1,5,0,1
95137,-83.3333333333333,4,2,1,70,0,1
95349,-83.3333333333333,4,2,1,5,0,1
95420,-83.3333333333333,4,2,1,70,0,1
96340,-83.3333333333333,4,2,1,5,0,1
96411,-83.3333333333333,4,2,1,70,0,1
97118,-83.3333333333333,4,2,1,70,0,0
97401,-100,4,2,1,70,0,1
97472,-100,4,2,1,5,0,1
97542,-100,4,2,1,70,0,0
97825,-83.3333333333333,4,2,1,70,0,1
97896,-100,4,2,1,5,0,1
97967,-100,4,2,1,70,0,0
98250,-71.4285714285714,4,2,1,70,0,1
98321,-71.4285714285714,4,2,1,5,0,1
98391,-500,4,2,1,70,0,0
99099,-71.4285714285714,4,2,1,70,0,1
99382,-62.5,4,2,1,70,0,1
99453,-62.5,4,2,1,5,0,1
99524,-62.5,4,2,1,70,0,1
99594,-62.5,4,2,1,5,0,1
99665,-100,4,2,1,50,0,0
99877,-100,4,2,1,5,0,0
99948,-100,4,2,1,50,0,0
108722,-166.666666666667,4,2,1,45,0,0
117778,-250.000000000001,4,2,1,40,0,0
119476,-100,4,2,1,40,0,0
119759,-250,4,2,1,45,0,0
119972,-250,4,2,1,5,0,0
120042,-166.666666666667,4,2,1,45,0,0
122307,-142.857142857143,4,2,1,45,0,0
123439,-142.857142857143,4,2,1,50,0,0
124571,-125,4,2,1,55,0,0
125703,-100,4,2,1,60,0,0
126835,-250,4,2,1,50,0,0
131363,-166.666666666667,4,2,1,55,0,0
133627,-133.333333333333,4,2,1,60,0,0
135891,-200,4,2,1,65,0,0
135962,-200,4,2,1,5,0,0
136032,-200,4,2,1,65,0,0
136103,-200,4,2,1,5,0,0
136174,-333.333333333333,4,2,1,50,0,0
137024,-166.666666666667,4,2,1,50,0,0
137872,-125,4,2,1,55,0,0
138156,-83.3333333333333,4,2,1,70,0,1
138368,-83.3333333333333,4,2,1,5,0,1
138439,-83.3333333333333,4,2,1,70,0,1
139217,-83.3333333333333,4,2,1,5,0,1
139288,-83.3333333333333,4,2,1,70,0,1
139924,-83.3333333333333,4,2,1,5,0,1
139995,-83.3333333333333,4,2,1,70,0,1
140632,-83.3333333333333,4,2,1,5,0,1
140703,-83.3333333333333,4,2,1,70,0,1
141623,-83.3333333333333,4,2,1,5,0,1
141693,-83.3333333333333,4,2,1,70,0,1
142896,-83.3333333333333,4,2,1,5,0,1
142967,-83.3333333333333,4,2,1,70,0,1
144594,-83.3333333333333,4,2,1,5,0,1
144665,-83.3333333333333,4,2,1,70,0,1
147000,-83.3333333333333,4,2,1,5,0,1
147071,-83.3333333333333,4,2,1,70,0,1
147141,-83.3333333333333,4,2,1,5,0,1
147212,-83.3333333333333,4,2,1,70,0,1
147424,-83.3333333333333,4,2,1,5,0,1
147495,-83.3333333333333,4,2,1,70,0,1
147565,-83.3333333333333,4,2,1,5,0,1
147636,-83.3333333333333,4,2,1,70,0,1
147848,-83.3333333333333,4,2,1,5,0,1
147919,-83.3333333333333,4,2,1,70,0,1
147990,-83.3333333333333,4,2,1,5,0,1
148061,-83.3333333333333,4,2,1,70,0,1
148132,-83.3333333333333,4,2,1,5,0,1
148203,-83.3333333333333,4,2,1,70,0,1
148274,-83.3333333333333,4,2,1,5,0,1
148344,-83.3333333333333,4,2,1,70,0,1
148556,-83.3333333333333,4,2,1,5,0,1
148627,-83.3333333333333,4,2,1,70,0,1
148698,-83.3333333333333,4,2,1,5,0,1
148769,-83.3333333333333,4,2,1,70,0,1
149122,-83.3333333333333,4,2,1,5,0,1
149193,-83.3333333333333,4,2,1,70,0,1
149405,-83.3333333333333,4,2,1,5,0,1
149476,-83.3333333333333,4,2,1,70,0,1
149689,-83.3333333333333,4,2,1,5,0,1
149759,-83.3333333333333,4,2,1,70,0,1
149830,-83.3333333333333,4,2,1,5,0,1
149901,-83.3333333333333,4,2,1,70,0,1
150113,-83.3333333333333,4,2,1,5,0,1
150184,-83.3333333333333,4,2,1,70,0,1
151953,-83.3333333333333,4,2,1,5,0,1
152024,-83.3333333333333,4,2,1,70,0,1
154217,-83.3333333333333,4,2,1,5,0,1
154287,-83.3333333333333,4,2,1,70,0,1
154499,-83.3333333333333,4,2,1,5,0,1
154570,-83.3333333333333,4,2,1,70,0,1
155208,-83.3333333333333,4,2,1,5,0,1
155278,-83.3333333333333,4,2,1,70,0,1
156481,-83.3333333333333,4,2,1,5,0,1
156552,-83.3333333333333,4,2,1,70,0,1
157330,-83.3333333333333,4,2,1,5,0,1
157401,-83.3333333333333,4,2,1,70,0,1
158038,-83.3333333333333,4,2,1,5,0,1
158108,-83.3333333333333,4,2,1,70,0,1
158745,-83.3333333333333,4,2,1,5,0,1
158815,-83.3333333333333,4,2,1,70,0,1
159736,-83.3333333333333,4,2,1,5,0,1
159807,-83.3333333333333,4,2,1,70,0,1
161010,-83.3333333333333,4,2,1,5,0,1
161081,-83.3333333333333,4,2,1,70,0,1
162566,-83.3333333333333,4,2,1,5,0,1
162637,-83.3333333333333,4,2,1,70,0,1
163274,-83.3333333333333,4,2,1,5,0,1
163345,-83.3333333333333,4,2,1,70,0,1
164264,-83.3333333333333,4,2,1,5,0,1
164335,-83.3333333333333,4,2,1,70,0,1
165538,-83.3333333333333,4,2,1,5,0,1
165609,-83.3333333333333,4,2,1,70,0,1
166529,-83.3333333333333,4,2,1,5,0,1
166600,-83.3333333333333,4,2,1,70,0,1
167307,-83.3333333333333,4,2,1,70,0,0
167590,-100,4,2,1,70,0,1
167660,-100,4,2,1,5,0,1
167731,-100,4,2,1,70,0,0
168014,-83.3333333333333,4,2,1,70,0,1
168085,-100,4,2,1,5,0,1
168156,-100,4,2,1,70,0,0
168439,-71.4285714285714,4,2,1,70,0,1
168509,-71.4285714285714,4,2,1,5,0,1
168580,-500,4,2,1,70,0,0
169288,-71.4285714285714,4,2,1,70,0,1
169641,-71.4285714285714,4,2,1,5,0,1
169712,-71.4285714285714,4,2,1,70,0,1
169783,-71.4285714285714,4,2,1,5,0,1
169854,-125,4,2,1,50,0,0
187967,-250,4,2,1,30,0,0
188958,-500,4,2,1,20,0,0
190231,-333.333333333333,4,2,1,30,0,0
200137,-250,4,2,1,55,0,0
200420,-83.3333333333333,4,2,1,70,0,1
200632,-83.3333333333333,4,2,1,5,0,1
200703,-83.3333333333333,4,2,1,70,0,1
200773,-83.3333333333333,4,2,1,5,0,1
200844,-83.3333333333333,4,2,1,70,0,1
201056,-83.3333333333333,4,2,1,5,0,1
201127,-83.3333333333333,4,2,1,70,0,1
201198,-83.3333333333333,4,2,1,5,0,1
201269,-83.3333333333333,4,2,1,70,0,1
201764,-83.3333333333333,4,2,1,5,0,1
201835,-83.3333333333333,4,2,1,70,0,1
202330,-83.3333333333333,4,2,1,5,0,1
202401,-83.3333333333333,4,2,1,70,0,1
202613,-83.3333333333333,4,2,1,5,0,1
202684,-83.3333333333333,4,2,1,70,0,1
202896,-83.3333333333333,4,2,1,5,0,1
202967,-83.3333333333333,4,2,1,70,0,1
203038,-83.3333333333333,4,2,1,5,0,1
203108,-83.3333333333333,4,2,1,70,0,1
203320,-83.3333333333333,4,2,1,5,0,1
203391,-83.3333333333333,4,2,1,70,0,1
203887,-83.3333333333333,4,2,1,5,0,1
203958,-83.3333333333333,4,2,1,70,0,1
204594,-83.3333333333333,4,2,1,5,0,1
204665,-83.3333333333333,4,2,1,70,0,1
205160,-83.3333333333333,4,2,1,5,0,1
205231,-83.3333333333333,4,2,1,70,0,1
207424,-83.3333333333333,4,2,1,5,0,1
207495,-83.3333333333333,4,2,1,70,0,1
207707,-83.3333333333333,4,2,1,5,0,1
207778,-83.3333333333333,4,2,1,70,0,1
208202,-83.3333333333333,4,2,1,70,0,1
208415,-83.3333333333333,4,2,1,5,0,1
208486,-83.3333333333333,4,2,1,70,0,1
208698,-83.3333333333333,4,2,1,5,0,1
208769,-83.3333333333333,4,2,1,70,0,1
208840,-83.3333333333333,4,2,1,5,0,1
208911,-83.3333333333333,4,2,1,70,0,1
208981,-83.3333333333333,4,2,1,5,0,1
209052,-83.3333333333333,4,2,1,70,0,1
209123,-83.3333333333333,4,2,1,5,0,1
209194,-83.3333333333333,4,2,1,70,0,1
209264,-83.3333333333333,4,2,1,5,0,1
209335,-83.3333333333333,4,2,1,70,0,1
209406,-83.3333333333333,4,2,1,5,0,1
209477,-83.3333333333333,4,2,1,70,0,1
209689,-83.3333333333333,4,2,1,5,0,1
209760,-83.3333333333333,4,2,1,70,0,1
210538,-83.3333333333333,4,2,1,5,0,1
210608,-83.3333333333333,4,2,1,70,0,1
211245,-83.3333333333333,4,2,1,5,0,1
211315,-83.3333333333333,4,2,1,70,0,1
212943,-83.3333333333333,4,2,1,5,0,1
213013,-83.3333333333333,4,2,1,70,0,1
214217,-83.3333333333333,4,2,1,5,0,1
214287,-83.3333333333333,4,2,1,70,0,1
215349,-83.3333333333333,4,2,1,5,0,1
215419,-83.3333333333333,4,2,1,70,0,1
216481,-83.3333333333333,4,2,1,5,0,1
216551,-83.3333333333333,4,2,1,70,0,1
217472,-83.3333333333333,4,2,1,5,0,1
217542,-83.3333333333333,4,2,1,70,0,1
218745,-83.3333333333333,4,2,1,5,0,1
218815,-83.3333333333333,4,2,1,70,0,1
219736,-83.3333333333333,4,2,1,5,0,1
219806,-83.3333333333333,4,2,1,70,0,1
220514,-83.3333333333333,4,2,1,70,0,0
220797,-83.3333333333333,4,2,1,70,0,1
220867,-83.3333333333333,4,2,1,5,0,1
220939,-83.3333333333333,4,2,1,70,0,0
221222,-71.4285714285714,4,2,1,70,0,1
221292,-71.4285714285714,4,2,1,5,0,1
221363,-71.4285714285714,4,2,1,70,0,0
221646,-62.5,4,2,1,70,0,1
221717,-62.5,4,2,1,5,0,1
221788,-500,4,2,1,70,0,0
222212,-71.4285714285714,4,2,1,70,0,1
222283,-71.4285714285714,4,2,1,5,0,1
222354,-71.4285714285714,4,2,1,70,0,1
222424,-71.4285714285714,4,2,1,5,0,1
222495,-111.111111111111,4,2,1,70,0,1
222566,-111.111111111111,4,2,1,5,0,1
222637,-111.111111111111,4,2,1,70,0,1
222708,-111.111111111111,4,2,1,5,0,1
222778,-55.5555555555556,4,2,1,70,0,1
222849,-55.5555555555556,4,2,1,5,0,1
222920,-55.5555555555556,4,2,1,70,0,1
222991,-55.5555555555556,4,2,1,5,0,1
223061,-83.3333333333333,4,2,1,60,0,0
223274,-83.3333333333333,4,2,1,5,0,0
223344,-83.3333333333333,4,2,1,60,0,0
224264,-83.3333333333333,4,2,1,5,0,0
224334,-83.3333333333333,4,2,1,60,0,0
225538,-83.3333333333333,4,2,1,5,0,0
225608,-83.3333333333333,4,2,1,60,0,0
226528,-83.3333333333333,4,2,1,5,0,0
226598,-83.3333333333333,4,2,1,60,0,0
227802,-83.3333333333333,4,2,1,5,0,0
227872,-83.3333333333333,4,2,1,60,0,0
228792,-83.3333333333333,4,2,1,5,0,0
228862,-83.3333333333333,4,2,1,60,0,0
230066,-83.3333333333333,4,2,1,5,0,0
230136,-83.3333333333333,4,2,1,60,0,0
231057,-83.3333333333333,4,2,1,5,0,0
231127,-83.3333333333333,4,2,1,60,0,0
232330,-83.3333333333333,4,2,1,5,0,0
232400,-83.3333333333333,4,2,1,60,0,0
233321,-83.3333333333333,4,2,1,5,0,0
233391,-83.3333333333333,4,2,1,60,0,0
234382,-100,4,2,1,70,0,1
234453,-100,4,2,1,5,0,0
234524,-100,4,2,1,70,0,0
234807,-83.3333333333333,4,2,1,70,0,1
234877,-83.3333333333333,4,2,1,5,0,0
234948,-83.3333333333333,4,2,1,70,0,0
235231,-71.4285714285714,4,2,1,70,0,1
235302,-71.4285714285714,4,2,1,5,0,1
235373,-500,4,2,1,70,0,0
236080,-71.4285714285714,4,2,1,70,0,1
236363,-62.5,4,2,1,70,0,1
236434,-62.5,4,2,1,5,0,1
236505,-62.5,4,2,1,70,0,1
236575,-62.5,4,2,1,5,0,1
236646,-142.857142857143,4,2,1,50,0,0
245703,-100,4,2,1,60,0,0

[Colours]
Combo1 : 255,168,81
Combo2 : 255,128,128
Combo3 : 192,192,192
Combo4 : 179,102,102

[HitObjects]
96,96,5703,5,8,0:0:0:0:
192,128,5844,1,8,0:0:0:0:
199,141,7967,5,8,0:0:0:0:
96,192,8108,1,8,0:0:0:0:
224,256,8391,5,8,0:0:0:0:
217,268,8674,5,8,0:0:0:0:
320,224,8816,1,8,0:0:0:0:
384,320,8958,1,8,0:0:0:0:
384,320,9665,6,0,P|410:326|436:331,1,53.9999983520508,2|0,0:0|0:0,0:0:0:0:
436,331,10231,5,8,0:0:0:0:
512,288,10373,2,0,P|512:245|480:224,1,72,8|0,0:0|0:0,0:0:0:0:
406,258,10656,1,2,0:1:0:0:
420,178,10797,2,0,P|448:152|493:140,1,72,8|0,0:0|0:0,0:0:0:0:
406,258,11080,1,0,0:0:0:0:
492,227,11222,1,0,0:0:0:0:
396,269,11363,6,0,B|362:278|362:278|319:250,1,72,2|0,0:1|0:0,0:0:0:0:
169,113,11646,2,0,B|199:92|199:92|233:101,1,72,2|0,0:1|0:0,0:0:0:0:
355,168,11929,2,0,L|189:189,1,144,8|0,0:0|0:0,0:0:0:0:
212,186,12495,5,8,0:0:0:0:
331,257,12637,1,8,0:0:0:0:
160,320,12778,2,0,L|167:245,1,72,8|0,0:0|0:0,0:0:0:0:
51,200,13061,2,0,L|58:272,1,72,8|0,0:0|0:0,0:0:0:0:
154,241,13344,1,0,0:0:0:0:
134,155,13486,2,0,P|71:104|11:116,1,144,8|0,0:0|0:0,0:0:0:0:
20,126,13910,5,2,0:1:0:0:
136,49,14193,5,8,0:0:0:0:
19,12,14476,5,2,0:1:0:0:
131,61,14618,1,2,0:0:0:0:
24,0,14759,5,8,0:0:0:0:
136,49,14901,2,0,L|207:43,1,72,8|0,0:0|0:0,0:0:0:0:
178,132,15184,1,2,0:1:0:0:
355,102,15325,2,0,L|284:96,1,72,8|0,0:0|0:0,0:0:0:0:
326,13,15608,1,0,0:0:0:0:
207,42,15750,1,0,0:0:0:0:
264,185,15891,6,0,P|272:219|264:254,1,72,2|0,0:1|0:0,0:0:0:0:
98,165,16174,2,0,P|90:130|98:95,1,72,2|0,0:1|0:0,0:0:0:0:
174,224,16458,2,0,P|96:256|32:288,1,144,8|0,0:0|0:0,0:0:0:0:
42,282,17024,5,8,0:0:0:0:
98,165,17165,1,8,0:0:0:0:
194,297,17307,2,0,P|155:314|98:344,1,72,8|0,0:0|0:0,0:0:0:0:
264,185,17590,2,0,P|303:202|360:232,1,72,8|0,0:0|0:0,0:0:0:0:
178,209,17873,1,0,0:0:0:0:
284,112,18014,2,0,P|362:144|426:176,1,144,8|0,0:0|0:0,0:0:0:0:
422,183,18439,1,2,0:1:0:0:
422,183,18722,5,8,0:0:0:0:
512,128,18863,1,2,0:0:0:0:
457,38,19005,1,8,0:0:0:0:
367,93,19146,1,0,0:0:0:0:
422,183,19288,6,0,P|456:193|501:212,2,72,2|2|2,0:0|0:0|0:0,0:0:0:0:
332,103,20137,2,0,P|349:97|367:93,1,36,2|2,0:0|0:1,0:0:0:0:
373,85,20349,1,2,0:1:0:0:
379,78,20420,6,0,P|288:64|224:51,1,135,4|0,0:0|0:0,0:0:0:0:
235,67,20703,2,0,P|224:128|256:160,1,90,10|0,0:0|0:0,0:0:0:0:
352,224,20986,1,2,0:0:0:0:
256,320,21127,1,2,0:0:0:0:
352,384,21269,1,8,0:0:0:0:
246,234,21410,6,0,P|184:261|192:373,1,180,2|0,0:0|0:0,0:0:0:0:
424,318,21835,2,0,P|380:313|335:303,1,90,8|0,0:0|0:0,0:0:0:0:
416,224,22118,1,2,0:0:0:0:
335,303,22259,1,2,0:0:0:0:
505,316,22401,2,0,P|461:325|417:331,1,90,8|2,0:0|0:0,0:0:0:0:
246,234,22684,5,2,0:1:0:0:
246,234,22967,2,0,B|256:203|256:203|234:137,1,90,10|0,0:0|0:0,0:0:0:0:
67,188,23250,2,0,P|112:194|157:201,2,90,2|2|8,0:0|0:0|0:0,0:0:0:0:
185,84,23674,6,0,P|247:66|319:155,1,180,2|0,0:0|0:0,0:0:0:0:
92,99,24099,2,0,P|47:104|2:111,1,90,8|0,0:0|0:0,0:0:0:0:
157,201,24382,1,2,0:0:0:0:
185,84,24524,1,2,0:0:0:0:
126,20,24665,1,8,0:0:0:0:
96,32,24807,1,2,0:0:0:0:
225,155,24948,6,0,P|293:164|376:178,1,135,2|0,0:1|0:0,0:0:0:0:
367,186,25231,2,0,P|374:252|345:279,1,90,10|0,0:0|0:0,0:0:0:0:
256,384,25514,1,2,0:0:0:0:
224,256,25656,1,2,0:0:0:0:
352,352,25797,1,8,0:0:0:0:
151,315,25939,6,0,P|133:230|204:165,1,180,2|0,0:0|0:0,0:0:0:0:
11,107,26363,2,0,P|26:149|35:193,1,90,8|0,0:0|0:0,0:0:0:0:
117,97,26646,1,2,0:0:0:0:
35,193,26788,1,2,0:0:0:0:
43,8,26929,2,0,P|27:50|19:95,1,90,8|2,0:0|0:0,0:0:0:0:
96,256,27212,5,2,0:1:0:0:
96,256,27495,2,0,B|131:228|131:228|188:240,1,90,10|0,0:0|0:0,0:0:0:0:
96,384,27778,2,0,P|43:375|0:371,2,90,2|2|8,0:0|0:0|0:0,0:0:0:0:
224,320,28203,6,0,P|288:310|387:301,1,135,2|0,0:0|0:0,0:0:0:0:
367,313,28486,1,4,0:0:0:0:
256,224,28627,1,8,0:0:0:0:
320,160,28769,1,8,0:0:0:0:
487,252,28910,2,0,P|444:240|400:232,1,90,4|2,0:0|0:0,0:0:0:0:
246,93,29193,2,0,P|289:81|333:72,1,90,12|8,0:0|0:0,0:0:0:0:
192,288,29476,6,0,P|125:274|59:263,1,135,4|0,0:0|0:0,0:0:0:0:
47,271,29759,2,0,P|33:230|48:188,1,90,10|0,0:0|0:0,0:0:0:0:
160,93,30042,1,2,0:0:0:0:
32,32,30184,1,2,0:0:0:0:
130,167,30325,1,8,0:0:0:0:
242,97,30467,6,0,P|160:9|101:36,1,180,2|0,0:0|0:0,0:0:0:0:
48,187,30891,2,0,P|85:163|129:166,1,90,8|0,0:0|0:0,0:0:0:0:
224,256,31174,1,2,0:0:0:0:
128,320,31316,1,2,0:0:0:0:
236,248,31458,2,0,P|280:244|317:268,1,90,8|2,0:0|0:0,0:0:0:0:
416,384,31741,5,2,0:1:0:0:
416,384,32024,2,0,P|450:377|514:370,1,90,10|0,0:0|0:0,0:0:0:0:
416,256,32307,2,0,P|427:202|467:190,2,90,2|2|8,0:0|0:0|0:0,0:0:0:0:
320,352,32731,6,0,P|269:345|126:327,1,180,2|0,0:0|0:0,0:0:0:0:
10,372,33156,2,0,B|37:339|37:339|32:288,1,90,8|0,0:0|0:0,0:0:0:0:
128,160,33439,1,2,0:0:0:0:
0,224,33580,1,2,0:0:0:0:
106,255,33722,1,8,0:0:0:0:
128,235,33863,1,2,0:0:0:0:
24,109,34005,6,0,P|48:50|112:43,1,135,4|0,0:0|0:0,0:0:0:0:
122,55,34288,2,0,P|168:66|222:50,1,90,10|0,0:0|0:0,0:0:0:0:
320,0,34571,1,2,0:0:0:0:
256,128,34712,1,2,0:0:0:0:
352,192,34854,1,8,0:0:0:0:
509,107,34995,6,0,P|416:100|331:86,1,180,2|0,0:0|0:0,0:0:0:0:
424,211,35420,2,0,P|380:215|336:225,1,90,8|0,0:0|0:0,0:0:0:0:
288,320,35703,1,2,0:0:0:0:
176,225,35844,1,2,0:0:0:0:
278,330,35986,2,0,P|233:325|189:316,1,90,8|2,0:0|0:0,0:0:0:0:
97,175,36269,6,0,P|156:128|253:175,1,180,2|8,0:1|0:0,0:0:0:0:
245,162,36835,1,2,0:0:0:0:
139,248,36976,1,2,0:0:0:0:
258,170,37118,1,8,0:0:0:0:
192,32,37259,6,0,P|82:52|0:64,1,180,4|8,0:0|0:0,0:0:0:0:
96,0,37684,1,8,0:0:0:0:
192,117,37825,1,8,0:0:0:0:
32,192,37967,1,12,0:0:0:0:
181,109,38108,1,10,0:0:0:0:
128,256,38250,1,10,0:0:0:0:
96,128,38391,1,10,0:0:0:0:
192,32,38533,5,12,0:0:0:0:
320,64,38674,1,8,0:0:0:0:
332,73,39241,5,2,0:1:0:0:
256,192,39382,1,10,0:0:0:0:
352,256,39524,1,8,0:0:0:0:
362,245,39807,5,2,0:1:0:0:
245,203,39948,2,0,P|202:213|157:219,1,90,8|2,0:0|0:1,0:0:0:0:
89,202,40373,1,2,0:1:0:0:
160,128,40514,1,8,0:0:0:0:
128,64,40656,1,2,0:0:0:0:
32,128,40797,5,8,0:0:0:0:
96,0,40939,1,8,0:0:0:0:
83,8,41505,5,2,0:1:0:0:
160,96,41646,1,10,0:0:0:0:
256,32,41788,1,8,0:0:0:0:
263,45,42071,5,2,0:1:0:0:
352,96,42212,2,0,P|370:90|396:81,1,45,8|0,0:0|0:0,0:0:0:0:
448,18,42495,2,0,P|468:26|490:32,1,45,2|0,0:0|0:0,0:0:0:0:
512,160,42778,2,0,P|491:151|469:145,1,45,8|0,0:0|0:0,0:0:0:0:
384,224,43061,5,8,0:0:0:0:
512,288,43203,1,8,0:0:0:0:
507,299,43769,5,2,0:1:0:0:
417,324,43910,1,10,0:0:0:0:
328,350,44052,1,8,0:0:0:0:
336,359,44335,5,2,0:1:0:0:
388,252,44476,2,0,P|385:220|391:161,1,90,8|8,0:0|0:0,0:0:0:0:
448,110,44901,1,8,0:0:0:0:
320,32,45042,1,8,0:0:0:0:
384,0,45184,1,8,0:0:0:0:
320,116,45325,6,0,P|300:152|291:178,1,53.9999983520508,2|2,0:1|0:1,0:0:0:0:
339,249,45608,2,0,P|395:222|451:253,2,107.999996704102,8|2|8,0:0|0:1|0:0,0:0:0:0:
395,303,46316,1,2,0:1:0:0:
392,315,46599,5,2,0:1:0:0:
512,288,46741,1,8,0:0:0:0:
430,149,46882,1,2,0:0:0:0:
511,127,47024,6,0,L|503:192,1,53.9999983520508,2|2,0:1|0:1,0:0:0:0:
416,64,47307,1,12,0:0:0:0:
512,0,47448,1,8,0:0:0:0:
424,160,47590,5,12,0:0:0:0:
303,112,47731,1,8,0:0:0:0:
310,101,48297,5,2,0:1:0:0:
384,224,48439,1,10,0:0:0:0:
320,288,48580,1,8,0:0:0:0:
327,299,48863,5,2,0:1:0:0:
256,224,49005,2,0,P|206:234|163:246,1,90,8|2,0:0|0:1,0:0:0:0:
103,287,49429,1,2,0:1:0:0:
192,384,49571,1,8,0:0:0:0:
261,345,49712,1,8,0:0:0:0:
168,317,49854,5,8,0:0:0:0:
32,384,49995,1,8,0:0:0:0:
38,373,50561,5,2,0:1:0:0:
0,275,50703,1,10,0:0:0:0:
82,210,50844,1,8,0:0:0:0:
89,220,51127,5,2,0:1:0:0:
26,132,51269,2,0,P|29:112|34:71,1,45,8|0,0:0|0:0,0:0:0:0:
128,64,51552,2,0,P|124:41|121:19,1,45,2|0,0:0|0:0,0:0:0:0:
192,160,51835,2,0,P|169:157|147:153,1,45,8|0,0:0|0:0,0:0:0:0:
224,64,52118,6,0,P|277:55|331:49,1,107.999996704102,2|8,0:0|0:0,0:0:0:0:
392,10,52542,2,0,P|445:16|498:24,1,107.999996704102,2|2,0:0|0:1,0:0:0:0:
512,102,52967,2,0,P|482:97|454:93,1,53.9999983520508,10|8,0:0|0:0,0:0:0:0:
352,128,53250,6,0,P|329:185|352:242,1,125.999996154785,2|8,0:0|0:0,0:0:0:0:
448,224,53674,2,0,P|470:281|447:338,1,125.999996154785,2|2,0:0|0:1,0:0:0:0:
320,357,54099,2,0,P|338:332|368:322,1,62.9999980773926,10|8,0:0|0:0,0:0:0:0:
512,384,54382,5,2,0:1:0:0:
367,322,54665,1,2,0:0:0:0:
509,371,54948,5,2,0:1:0:0:
364,309,55090,1,2,0:1:0:0:
480,256,55231,1,8,0:0:0:0:
424,369,55373,1,2,0:1:0:0:
330,227,55514,6,0,P|372:210|415:197,1,90,6|0,0:0|0:0,0:0:0:0:
208,328,55797,2,0,P|251:341|293:359,1,90,6|0,0:0|0:0,0:0:0:0:
160,256,56080,1,8,0:0:0:0:
64,320,56222,1,8,0:0:0:0:
170,248,56363,1,8,0:0:0:0:
96,192,56505,1,8,0:0:0:0:
192,96,56646,6,0,P|207:146|214:182,1,72,4|2,0:0|1:0,0:0:0:0:
274,207,57071,2,0,P|265:242|254:276,1,72,2|0,0:0|0:0,0:0:0:0:
224,384,57495,1,8,0:0:0:0:
320,320,57637,1,2,0:1:0:0:
210,381,57778,6,0,P|174:372|140:361,1,72,2|0,0:0|0:0,0:0:0:0:
69,384,58203,2,0,P|58:349|49:314,1,72,2|0,0:0|0:0,0:0:0:0:
0,257,58627,2,0,P|8:221|13:206,1,36,10|0,0:0|0:0,0:0:0:0:
67,146,58910,5,2,0:1:0:0:
131,210,59052,1,2,0:1:0:0:
64,160,59193,2,0,P|80:153|98:148,1,36,2|0,0:0|0:0,0:0:0:0:
128,224,59476,2,0,P|145:228|162:234,1,36,10|0,0:0|0:0,0:0:0:0:
128,320,59759,1,8,0:0:0:0:
256,288,59901,6,0,P|288:280|366:266,1,108,10|2,0:0|0:1,0:0:0:0:
434,297,60467,1,2,0:1:0:0:
438,184,60608,2,0,P|431:201|425:218,1,36,2|8,0:0|0:0,0:0:0:0:
512,281,60891,2,0,P|505:264|498:247,1,36,6|8,0:0|0:0,0:0:0:0:
384,122,61174,6,0,P|399:80|419:11,1,107.999996704102,4|2,0:0|0:1,0:0:0:0:
263,161,61599,2,0,P|254:117|237:47,1,107.999996704102,2|0,0:0|0:0,0:0:0:0:
333,0,62024,2,0,P|328:26|323:53,1,53.9999983520508,10|2,0:0|0:1,0:0:0:0:
253,179,62307,6,0,P|192:179|148:211,1,107.999996704102,2|2,0:0|0:1,0:0:0:0:
128,64,62731,2,0,P|74:66|28:39,1,107.999996704102,2|0,0:0|0:0,0:0:0:0:
7,195,63156,2,0,P|28:179|54:170,1,53.9999983520508,10|2,0:0|0:1,0:0:0:0:
194,271,63439,5,2,0:0:0:0:
132,319,63580,1,2,0:1:0:0:
187,261,63722,1,2,0:0:0:0:
187,261,64005,5,2,0:0:0:0:
256,352,64146,1,8,0:0:0:0:
352,288,64288,1,2,0:1:0:0:
259,162,64429,6,0,P|269:195|277:228,1,67.5000025749208,10|0,0:0|0:0,0:0:0:0:
384,192,64712,1,2,0:0:0:0:
436,342,64854,2,0,P|443:309|454:276,1,67.5000025749208,2|0,0:1|0:0,0:0:0:0:
350,111,65137,6,0,P|415:104|461:151,1,135.000005149842,10|0,0:0|0:0,0:0:0:0:
357,266,65561,1,10,0:0:0:0:
512,219,65703,6,0,L|490:215,1,22.5,2|0,0:1|0:0,0:0:0:0:
384,192,65844,2,0,L|362:188,1,22.5,2|0,0:1|0:0,0:0:0:0:
227,120,65986,6,0,B|263:100|263:100|236:219,1,161.999995056153,2|2,0:0|0:0,0:0:0:0:
236,219,67401,6,0,P|252:224|269:233,1,26.9999991760254,2|0,0:0|0:0,0:0:0:0:
352,288,67684,6,0,P|325:295|307:303,1,45,2|2,0:0|0:1,0:0:0:0:
306,311,67896,1,2,0:1:0:0:
301,320,67967,6,0,P|225:343|149:319,1,161.999995056153,4|0,0:0|0:0,0:0:0:0:
71,339,68250,2,0,P|68:285|64:232,1,107.999996704102,8|0,0:0|0:0,0:0:0:0:
171,107,68533,1,2,0:1:0:0:
64,32,68674,1,2,0:1:0:0:
0,160,68816,2,0,B|44:124|102:145|102:145|115:186|164:195,1,161.999995056153,8|0,0:0|0:0,0:0:0:0:
253,160,69099,6,0,P|273:111|246:66,1,107.999996704102,2|0,0:1|0:0,0:0:0:0:
175,118,69382,1,8,0:0:0:0:
288,256,69524,2,0,P|352:241|512:224,1,215.999993408203,2|2,0:0|0:1,0:0:0:0:
352,352,69948,2,0,P|410:364|474:381,1,107.999996704102,10|0,0:0|0:0,0:0:0:0:
263,150,70231,6,0,P|277:203|288:256,1,107.999996704102,2|0,0:0|0:0,0:0:0:0:
448,128,70514,2,0,P|458:75|472:22,1,107.999996704102,10|0,0:0|0:0,0:0:0:0:
358,162,70797,1,2,0:1:0:0:
480,256,70939,1,2,0:1:0:0:
416,320,71080,1,8,0:0:0:0:
246,99,71222,6,0,P|270:176|287:255,1,161.999995056153,2|0,0:0|0:0,0:0:0:0:
256,320,71505,1,2,0:1:0:0:
86,242,71646,2,0,P|140:247|191:266,1,107.999996704102,8|0,0:0|0:0,0:0:0:0:
115,134,71929,2,0,P|61:139|11:158,1,107.999996704102,2|0,0:0|0:0,0:0:0:0:
94,252,72212,1,8,0:0:0:0:
197,174,72354,1,2,0:1:0:0:
160,40,72495,6,0,P|81:22|1:16,1,161.999995056153,4|0,0:0|0:0,0:0:0:0:
8,26,72778,1,8,0:0:0:0:
8,26,73061,1,2,0:1:0:0:
115,134,73203,1,2,0:1:0:0:
32,224,73344,1,8,0:0:0:0:
219,160,73486,6,0,P|162:146|102:130,1,107.999996704102,2|0,0:0|0:0,0:0:0:0:
160,256,73769,1,2,0:1:0:0:
333,126,73910,2,0,P|281:140|228:153,1,107.999996704102,8|0,0:0|0:0,0:0:0:0:
370,23,74193,2,0,P|440:55|442:132,1,161.999995056153,2|0,0:0|0:0,0:0:0:0:
385,189,74476,2,0,P|376:242|385:296,1,107.999996704102,8|0,0:0|0:0,0:0:0:0:
512,384,74759,5,2,0:0:0:0:
480,288,74901,1,2,0:0:0:0:
384,320,75042,1,8,0:0:0:0:
224,192,75184,5,2,0:0:0:0:
320,128,75325,1,2,0:1:0:0:
256,64,75467,1,2,0:1:0:0:
317,227,75608,1,8,0:0:0:0:
192,320,75750,6,0,P|96:320|96:192,1,215.999993408203,4|2,0:0|0:1,0:0:0:0:
185,115,76174,1,8,0:0:0:0:
142,257,76316,1,2,0:0:0:0:
30,76,76458,1,8,0:0:0:0:
73,218,76600,1,2,0:0:0:0:
201,63,76741,6,0,P|187:102|185:114,1,53.9999983520508,14|0,0:0|0:0,0:0:0:0:
56,166,76882,2,0,P|66:191|73:218,1,53.9999983520508,2|0,0:0|0:0,0:0:0:0:
202,338,77024,6,0,P|281:302|384:288,1,161.999995056153,6|0,0:0|0:0,0:0:0:0:
430,310,77307,2,0,P|428:348|429:383,1,53.9999983520508,8|0,0:0|0:0,0:0:0:0:
511,196,77448,6,0,P|481:127|406:137,1,161.999995056153,2|0,0:0|0:0,0:0:0:0:
403,211,77731,2,0,P|427:224|450:239,1,53.9999983520508,2|0,0:0|0:0,0:0:0:0:
332,102,77873,2,0,P|282:114|188:152,1,107.999996704102,8|0,0:0|0:0,0:0:0:0:
352,0,78156,6,0,P|427:29|505:49,1,161.999995056153,2|0,0:0|0:0,0:0:0:0:
501,38,78439,1,8,0:0:0:0:
266,31,78580,2,0,P|213:43|162:61,1,107.999996704102,2|0,0:0|0:0,0:0:0:0:
246,223,78863,6,0,P|219:219|192:215,1,53.9999983520508,2|0,0:0|0:0,0:0:0:0:
33,95,79005,2,0,B|54:106|65:127|65:127|21:174|49:256,1,161.999995056153,8|0,0:0|0:0,0:0:0:0:
111,272,79288,6,0,P|122:325|112:378,1,107.999996704102,2|0,0:0|0:0,0:0:0:0:
0,300,79571,1,8,0:0:0:0:
112,378,79712,6,0,P|169:390|278:373,1,161.999995056153,2|0,0:0|0:0,0:0:0:0:
282,369,79995,1,2,0:0:0:0:
421,263,80137,1,8,0:0:0:0:
348,138,80278,6,0,B|363:229|306:203|332:311,1,161.999995056153,4|0,0:0|0:0,0:0:0:0:
338,303,80561,1,2,0:1:0:0:
480,384,80703,1,8,0:0:0:0:
480,384,80986,5,2,0:0:0:0:
338,303,81127,1,4,0:0:0:0:
512,192,81269,5,8,0:0:0:0:
416,224,81410,1,2,0:1:0:0:
320,96,81552,6,0,P|314:43|416:32,1,161.999995056153,4|0,0:0|0:0,0:0:0:0:
410,28,81835,2,0,P|456:42|517:35,1,107.999996704102,8|0,0:0|0:0,0:0:0:0:
442,141,82118,5,2,0:1:0:0:
402,17,82259,1,2,0:1:0:0:
450,130,82401,1,8,0:0:0:0:
352,224,82542,6,0,P|293:213|224:192,1,107.999996704102,2|0,0:0|0:0,0:0:0:0:
320,124,82825,1,2,0:1:0:0:
448,224,82967,1,8,0:0:0:0:
448,224,83250,5,2,0:1:0:0:
320,124,83392,1,2,0:1:0:0:
402,17,83533,1,8,0:0:0:0:
450,130,83674,1,2,0:0:0:0:
297,23,83816,6,0,P|211:30|128:48,1,161.999995056153,2|0,0:0|0:0,0:0:0:0:
0,0,84099,2,0,P|49:38|32:128,1,161.999995056153,4|0,0:0|0:0,0:0:0:0:
23,138,84382,5,2,0:0:0:0:
136,45,84524,1,4,0:0:0:0:
160,192,84665,1,8,0:0:0:0:
47,285,84807,1,2,0:0:0:0:
47,285,85090,5,2,0:1:0:0:
160,192,85232,1,8,0:0:0:0:
297,243,85373,1,2,0:1:0:0:
189,352,85514,5,8,0:0:0:0:
163,204,85656,1,8,0:0:0:0:
278,107,85797,1,8,0:0:0:0:
419,158,85939,1,8,0:0:0:0:
190,106,86080,6,0,P|210:32|286:20,1,161.999995056153,4|0,0:0|0:0,0:0:0:0:
350,68,86363,2,0,P|405:62|473:57,1,107.999996704102,8|0,0:0|0:0,0:0:0:0:
329,189,86646,1,2,0:1:0:0:
452,70,86788,1,2,0:1:0:0:
322,200,86929,2,0,P|184:175|152:174,1,161.999995056153,8|0,0:0|0:0,0:0:0:0:
34,280,87212,6,0,P|125:259|125:228,1,107.999996704102,2|0,0:1|0:0,0:0:0:0:
65,195,87495,1,8,0:0:0:0:
192,352,87637,2,0,P|330:327|426:324,1,215.999993408203,2|2,0:0|0:1,0:0:0:0:
512,256,88061,2,0,P|512:192|494:150,1,107.999996704102,10|0,0:0|0:0,0:0:0:0:
256,192,88344,6,0,P|308:212|371:223,1,107.999996704102,2|2,0:0|0:1,0:0:0:0:
512,44,88627,2,0,P|459:54|408:73,1,107.999996704102,8|0,0:0|0:0,0:0:0:0:
354,233,88910,1,2,0:1:0:0:
502,141,89052,1,2,0:1:0:0:
397,68,89193,1,8,0:0:0:0:
256,192,89335,6,0,P|178:168|96:160,1,161.999995056153,2|0,0:0|0:0,0:0:0:0:
27,180,89618,1,2,0:1:0:0:
224,0,89759,2,0,P|243:50|252:103,1,107.999996704102,8|0,0:0|0:0,0:0:0:0:
106,239,90042,2,0,P|160:244|211:258,1,107.999996704102,2|0,0:0|0:0,0:0:0:0:
172,90,90325,1,8,0:0:0:0:
22,168,90467,1,2,0:1:0:0:
76,328,90608,6,0,P|141:371|217:351,1,161.999995056153,4|0,0:0|0:0,0:0:0:0:
227,341,90891,1,8,0:0:0:0:
227,341,91174,1,2,0:1:0:0:
106,239,91316,1,2,0:1:0:0:
170,58,91458,2,0,P|194:106|192:160,1,107.999996704102,8|0,0:0|0:0,0:0:0:0:
367,218,91741,6,0,P|319:242|265:239,1,107.999996704102,2|2,0:0|0:1,0:0:0:0:
300,141,92024,1,8,0:0:0:0:
153,272,92165,2,0,P|83:232|4:242,1,161.999995056153,2|0,0:0|0:0,0:0:0:0:
11,254,92448,1,2,0:1:0:0:
115,121,92590,2,0,P|33:138|-2:169,1,107.999996704102,8|2,0:0|0:1,0:0:0:0:
177,359,92873,6,0,P|252:349|338:341,1,161.999995056153,6|0,0:0|0:0,0:0:0:0:
399,288,93156,2,0,P|459:300|515:315,1,107.999996704102,8|0,0:0|0:0,0:0:0:0:
320,224,93439,1,2,0:1:0:0:
448,384,93580,1,2,0:1:0:0:
512,242,93722,1,8,0:0:0:0:
369,161,93863,6,0,P|296:146|240:218,1,161.999995056153,6|0,0:0|0:0,0:0:0:0:
247,219,94146,1,2,0:1:0:0:
62,255,94288,2,0,P|116:255|159:287,1,107.999996704102,8|0,0:0|0:0,0:0:0:0:
241,372,94571,2,0,P|283:341|337:341,1,107.999996704102,2|2,0:1|0:1,0:0:0:0:
512,256,94854,2,0,P|431:244|351:235,1,161.999995056153,6|0,0:0|0:0,0:0:0:0:
368,49,95137,6,0,P|401:42|452:153,1,161.999995056153,6|0,0:0|0:0,0:0:0:0:
395,163,95420,2,0,P|329:156|257:150,1,107.999996704102,8|0,0:0|0:0,0:0:0:0:
160,192,95703,1,2,0:1:0:0:
288,69,95844,1,2,0:1:0:0:
192,0,95986,1,8,0:0:0:0:
42,127,96127,6,0,P|100:75|175:97,1,161.999995056153,2|0,0:0|0:0,0:0:0:0:
182,106,96410,1,2,0:1:0:0:
105,259,96552,2,0,P|45:241|-13:231,1,107.999996704102,8|0,0:0|0:0,0:0:0:0:
297,180,96835,2,0,P|244:191|193:206,1,107.999996704102,2|0,0:0|0:0,0:0:0:0:
119,155,97118,1,8,0:0:0:0:
224,32,97259,1,2,0:1:0:0:
67,151,97401,6,0,P|88:156|110:162,1,45,4|0,0:0|0:0,0:0:0:0:
193,206,97542,1,2,0:1:0:0:
105,259,97684,1,8,0:0:0:0:
288,96,97825,6,0,P|266:101|230:113,1,53.9999983520508,4|0,0:0|0:0,0:0:0:0:
111,163,97967,1,2,0:1:0:0:
224,288,98108,1,2,0:1:0:0:
352,160,98250,6,0,P|386:169|431:179,1,62.9999980773926,12|0,0:0|0:0,0:0:0:0:
441,366,98391,6,0,P|476:357|512:352,1,72,12|2,0:0|0:1,0:0:0:0:
509,360,99028,1,2,0:1:0:0:
507,368,99099,5,8,0:0:0:0:
384,256,99241,1,8,0:0:0:0:
491,129,99382,6,0,P|495:164|500:200,1,72,8|0,0:0|0:0,0:0:0:0:
280,375,99524,2,0,P|285:339|291:303,1,72,8|0,0:0|0:0,0:0:0:0:
192,160,99665,6,0,P|114:173|114:243,1,135,4|0,0:0|0:0,0:0:0:0:
109,230,99948,2,0,P|154:236|198:245,1,90,10|0,0:0|0:0,0:0:0:0:
360,322,100231,1,2,0:0:0:0:
299,193,100373,1,10,0:0:0:0:
212,325,100514,1,0,0:0:0:0:
309,202,100656,6,0,P|323:113|340:24,1,180,2|0,0:0|0:0,0:0:0:0:
448,0,101080,2,0,P|462:76|469:102,1,90,8|0,0:0|0:0,0:0:0:0:
384,192,101363,1,2,0:0:0:0:
512,256,101505,1,2,0:0:0:0:
477,96,101646,2,0,P|463:172|456:198,1,90,8|2,0:0|0:0,0:0:0:0:
384,320,101929,5,2,0:1:0:0:
384,320,102212,2,0,P|340:328|302:307,1,90,10|0,0:0|0:0,0:0:0:0:
192,352,102495,2,0,P|151:353|87:359,2,90,2|2|8,0:0|0:0|0:0,0:0:0:0:
256,224,102920,6,0,P|268:170|192:64,1,180,2|0,0:0|0:0,0:0:0:0:
66,177,103344,2,0,P|111:173|156:172,1,90,8|0,0:0|0:0,0:0:0:0:
301,306,103627,1,2,0:0:0:0:
173,261,103769,1,2,0:0:0:0:
256,224,103910,1,8,0:0:0:0:
273,241,104052,1,2,0:0:0:0:
109,138,104193,6,0,P|107:71|157:9,1,135,4|0,0:0|0:0,0:0:0:0:
156,26,104476,2,0,L|270:40,1,90,8|0,0:0|0:0,0:0:0:0:
384,128,104759,1,2,0:0:0:0:
256,160,104901,1,2,0:0:0:0:
352,32,105042,1,8,0:0:0:0:
512,96,105184,6,0,P|492:276|491:298,1,180,2|0,0:0|0:0,0:0:0:0:
352,224,105608,2,0,P|366:300|369:329,1,90,8|0,0:0|0:0,0:0:0:0:
256,384,105891,1,2,0:0:0:0:
192,224,106033,1,2,0:0:0:0:
376,323,106174,2,0,P|331:313|287:307,1,90,8|2,0:0|0:0,0:0:0:0:
93,229,106458,6,0,P|137:220|182:214,1,90,2|0,1:0|0:0,0:0:0:0:
112,39,106741,2,0,P|121:83|128:128,1,90,10|0,0:0|0:0,0:0:0:0:
0,256,107024,1,2,0:0:0:0:
128,320,107165,1,2,0:0:0:0:
26,168,107307,1,8,0:0:0:0:
64,384,107448,5,4,0:0:0:0:
192,288,107590,2,0,P|222:292|255:295,1,45,8|8,0:0|0:0,0:0:0:0:
288,352,107731,2,0,P|310:349|332:346,1,45,8|8,0:0|0:0,0:0:0:0:
416,320,107873,1,8,0:0:0:0:
288,224,108014,1,8,0:0:0:0:
384,192,108156,5,12,0:0:0:0:
185,299,108297,1,8,0:0:0:0:
393,202,108439,1,8,0:0:0:0:
192,128,108580,1,8,0:0:0:0:
361,280,108722,5,4,0:0:0:0:
512,224,108863,2,0,P|506:202|496:153,1,53.9999983520508,0|8,0:0|0:0,0:0:0:0:
384,192,109146,2,0,P|390:170|409:66,1,107.999996704102,0|2,0:0|0:1,0:0:0:0:
400,72,109571,1,8,0:0:0:0:
288,0,109712,2,0,P|293:26|300:52,1,53.9999983520508,8|0,0:0|0:0,0:0:0:0:
406,86,109995,5,0,0:0:0:0:
293,65,110137,2,0,P|241:65|175:81,1,107.999996704102,8|2,0:0|0:1,0:0:0:0:
52,156,110561,1,2,0:1:0:0:
113,39,110703,2,0,P|106:65|104:91,1,53.9999983520508,8|2,0:0|0:0,0:0:0:0:
160,224,110986,5,8,0:0:0:0:
45,168,111127,1,8,0:0:0:0:
153,237,111269,2,0,P|197:230|285:218,1,107.999996704102,8|0,0:0|0:0,0:0:0:0:
428,161,111835,1,8,0:0:0:0:
441,79,111976,2,0,P|355:121|346:146,1,107.999996704102,8|0,0:0|0:0,0:0:0:0:
335,238,112401,6,0,P|361:233|388:231,1,53.9999983520508,8|0,0:0|0:0,0:0:0:0:
450,302,112684,2,0,P|445:328|443:355,1,53.9999983520508,10|0,0:0|0:0,0:0:0:0:
512,232,112967,2,0,P|509:205|505:178,1,53.9999983520508,8|8,0:0|0:0,0:0:0:0:
392,10,113250,5,8,0:0:0:0:
396,24,113533,1,8,0:0:0:0:
512,96,113674,2,0,P|452:103|397:107,1,107.999996704102,0|2,0:0|0:1,0:0:0:0:
391,101,114099,1,8,0:0:0:0:
288,192,114241,2,0,P|341:196|395:202,1,107.999996704102,8|2,0:0|0:1,0:0:0:0:
290,44,114665,6,0,P|295:71|298:98,1,53.9999983520508,8|0,0:0|0:0,0:0:0:0:
282,205,114948,1,8,0:0:0:0:
309,108,115090,1,8,0:0:0:0:
160,133,115231,2,0,P|187:136|214:141,1,53.9999983520508,8|2,0:0|0:0,0:0:0:0:
320,288,115514,5,2,0:1:0:0:
211,247,115656,1,2,0:1:0:0:
330,299,115797,2,0,P|383:294|437:288,1,107.999996704102,8|2,0:0|0:1,0:0:0:0:
480,96,116363,1,8,0:0:0:0:
505,197,116505,2,0,P|482:184|456:177,1,53.9999983520508,8|0,0:0|0:0,0:0:0:0:
379,124,116788,5,2,0:1:0:0:
480,96,116929,1,8,0:0:0:0:
336,4,117071,2,0,P|330:31|328:58,1,53.9999983520508,2|2,0:0|0:0,0:0:0:0:
456,177,117354,1,2,0:1:0:0:
287,142,117495,2,0,P|292:168|295:195,1,53.9999983520508,4|2,0:0|0:1,0:0:0:0:
160,320,117778,5,4,0:0:0:0:
224,384,117920,1,0,0:0:0:0:
151,309,118061,2,0,P|115:315|80:320,3,72,2|2|2|2,0:0|0:0|0:0|0:0,0:0:0:0:
224,256,119193,5,2,0:0:0:0:
171,201,119476,6,0,P|169:189|166:166,6,22.5,2|2|2|2|2|2|0,0:1|0:1|0:1|0:1|0:1|0:1|0:0,0:0:0:0:
237,263,119759,6,0,L|233:323,1,54,4|0,0:0|0:0,0:0:0:0:
185,374,120042,5,8,0:0:0:0:
317,314,120184,1,8,0:0:0:0:
175,364,120325,1,8,0:0:0:0:
327,304,120467,2,0,P|375:315|433:324,1,107.999996704102,4|2,0:0|0:1,0:0:0:0:
351,162,120891,1,8,0:0:0:0:
283,209,121033,2,0,P|235:220|177:229,1,107.999996704102,8|2,0:0|0:1,0:0:0:0:
98,160,121458,6,0,P|98:133|89:92,1,53.9999983520508,8|0,0:0|0:0,0:0:0:0:
53,22,121741,2,0,L|-15:31,1,53.9999983520508,10|0,0:0|0:0,0:0:0:0:
186,89,122024,2,0,L|239:96,1,53.9999983520508,8|8,0:0|0:0,0:0:0:0:
352,0,122307,6,0,P|407:0|406:81,1,125.999996154785,2|8,0:0|0:0,0:0:0:0:
357,107,122731,2,0,P|350:160|363:233,1,125.999996154785,2|2,0:0|0:1,0:0:0:0:
437,265,123156,2,0,P|440:304|433:333,1,62.9999980773926,10|8,0:0|0:0,0:0:0:0:
320,384,123439,6,0,P|288:336|210:353,1,125.999996154785,2|8,0:0|0:0,0:0:0:0:
128,256,123863,2,0,P|67:251|33:301,1,125.999996154785,2|2,0:0|0:1,0:0:0:0:
82,384,124288,2,0,P|112:372|145:368,1,62.9999980773926,10|8,0:0|0:0,0:0:0:0:
231,235,124571,6,0,L|214:82,1,144,2|8,0:1|0:0,0:0:0:0:
215,91,125137,1,2,0:1:0:0:
115,124,125278,1,2,0:1:0:0:
229,0,125420,1,8,0:0:0:0:
329,33,125561,1,2,0:1:0:0:
141,34,125703,6,0,P|96:43|44:60,1,90,6|0,0:0|0:0,0:0:0:0:
305,119,125986,2,0,P|350:128|402:145,1,90,6|0,0:0|0:0,0:0:0:0:
256,288,126269,1,8,0:0:0:0:
160,224,126410,1,8,0:0:0:0:
249,301,126552,1,8,0:0:0:0:
329,250,126693,1,8,0:0:0:0:
151,319,126835,6,0,P|100:301|80:277,1,72,4|2,0:0|0:1,0:0:0:0:
16,273,127259,2,0,P|6:219|16:190,1,72,2|0,0:0|0:0,0:0:0:0:
65,146,127684,1,10,0:0:0:0:
15,84,127825,1,2,0:1:0:0:
74,156,127967,6,0,P|111:150|159:144,1,72,2|2,0:0|0:1,0:0:0:0:
204,91,128391,2,0,P|239:95|275:101,1,72,2|0,0:0|0:0,0:0:0:0:
333,150,128816,2,0,P|352:148|382:143,1,36,10|2,0:0|0:1,0:0:0:0:
480,64,129099,5,2,0:1:0:0:
403,10,129241,1,2,0:1:0:0:
489,75,129382,2,0,L|486:115,1,36,2|0,0:0|0:0,0:0:0:0:
380,155,129665,2,0,L|383:195,1,36,10|0,0:0|0:0,0:0:0:0:
471,245,129948,1,8,0:0:0:0:
378,300,130090,6,0,P|422:270|471:246,1,108,8|8,0:0|0:0,0:0:0:0:
436,361,130656,1,2,0:1:0:0:
335,384,130797,2,0,P|310:377|289:375,1,36,2|8,0:0|0:0,0:0:0:0:
250,296,131080,2,0,P|268:291|286:288,1,36,4|8,0:0|0:0,0:0:0:0:
158,226,131363,6,0,P|149:279|144:333,1,107.999996704102,4|2,0:0|0:1,0:0:0:0:
20,158,131788,2,0,P|28:212|34:266,1,107.999996704102,2|2,0:0|0:1,0:0:0:0:
157,132,132212,2,0,P|184:138|210:147,1,53.9999983520508,10|2,0:0|0:1,0:0:0:0:
126,33,132495,6,0,P|76:19|41:57,1,107.999996704102,2|2,0:0|0:1,0:0:0:0:
208,146,132920,2,0,P|257:132|292:170,1,107.999996704102,2|2,0:0|0:1,0:0:0:0:
229,0,133344,2,0,P|219:24|211:50,1,53.9999983520508,10|2,0:0|0:1,0:0:0:0:
64,160,133627,5,2,0:0:0:0:
160,224,133769,1,2,0:1:0:0:
96,288,133910,1,2,0:0:0:0:
96,288,134193,5,2,0:0:0:0:
160,224,134335,1,8,0:0:0:0:
256,384,134476,1,2,0:1:0:0:
286,284,134618,2,0,P|253:293|222:304,1,67.5000025749208,10|0,0:0|0:0,0:0:0:0:
148,384,134901,1,2,0:0:0:0:
160,224,135042,2,0,P|168:191|179:159,1,67.5000025749208,2|0,0:1|0:0,0:0:0:0:
72,295,135325,6,0,P|51:230|22:169,1,135.000005149842,10|0,0:0|0:0,0:0:0:0:
107,100,135750,1,10,0:0:0:0:
26,22,135891,6,0,L|31:45,1,22.5,2|0,0:1|0:0,0:0:0:0:
111,77,136033,2,0,L|107:100,1,22.5,2|0,0:1|0:0,0:0:0:0:
22,169,136174,6,0,P|60:180|98:194,1,80.9999975280763,2|2,0:0|0:1,0:0:0:0:
148,252,136741,2,0,P|163:247|175:243,1,26.9999991760254,8|0,0:0|0:0,0:0:0:0:
233,198,137024,5,2,0:1:0:0:
167,147,137165,1,2,0:1:0:0:
167,147,137236,1,2,0:1:0:0:
167,147,137307,2,0,P|169:121|177:95,1,53.9999983520508,8|2,0:0|0:1,0:0:0:0:
233,198,137590,2,0,P|241:223|243:250,1,53.9999983520508,8|2,0:0|0:1,0:0:0:0:
136,360,137873,6,0,P|159:333|194:331,1,72,8|2,0:0|0:1,0:0:0:0:
201,339,138085,1,0,0:0:0:0:
207,346,138156,6,0,P|286:335|369:325,1,161.999995056153,4|0,0:0|0:0,0:0:0:0:
405,257,138439,2,0,P|460:260|525:266,1,107.999996704102,8|0,0:0|0:0,0:0:0:0:
337,194,138722,1,2,0:1:0:0:
457,354,138863,1,2,0:1:0:0:
430,166,139005,2,0,P|379:105|275:119,1,161.999995056153,8|0,0:0|0:0,0:0:0:0:
294,116,139288,5,2,0:1:0:0:
458,59,139429,1,2,0:1:0:0:
337,194,139571,1,8,0:0:0:0:
189,140,139712,2,0,P|211:63|273:13,1,161.999995056153,2|0,0:0|0:0,0:0:0:0:
288,19,139995,1,2,0:1:0:0:
337,194,140137,2,0,P|293:225|240:226,1,107.999996704102,8|0,0:0|0:0,0:0:0:0:
56,80,140420,6,0,P|72:219|77:273,1,161.999995056153,2|0,0:0|0:0,0:0:0:0:
38,312,140703,2,0,P|86:331|127:300,1,107.999996704102,10|0,0:0|0:0,0:0:0:0:
189,140,140986,1,2,0:1:0:0:
74,240,141127,1,2,0:1:0:0:
224,352,141269,1,8,0:0:0:0:
347,270,141410,6,0,P|208:254|154:249,1,161.999995056153,2|0,0:0|0:0,0:0:0:0:
127,299,141693,1,2,0:1:0:0:
0,172,141835,2,0,P|53:166|107:161,1,107.999996704102,8|0,0:0|0:0,0:0:0:0:
203,107,142118,2,0,P|198:53|192:0,1,107.999996704102,2|2,0:1|0:1,0:0:0:0:
88,52,142401,1,8,0:0:0:0:
182,181,142542,1,2,0:1:0:0:
374,78,142684,6,0,P|293:86|213:96,1,161.999995056153,4|0,0:0|0:0,0:0:0:0:
203,107,142967,1,8,0:0:0:0:
203,107,143250,1,2,0:1:0:0:
276,6,143392,1,2,0:1:0:0:
88,52,143533,1,8,0:0:0:0:
182,181,143674,6,0,P|235:187|289:192,1,107.999996704102,2|0,0:0|0:0,0:0:0:0:
415,265,143958,1,2,0:1:0:0:
404,53,144099,2,0,P|397:106|392:160,1,107.999996704102,8|0,0:0|0:0,0:0:0:0:
494,301,144382,2,0,P|441:357|367:337,1,161.999995056153,2|0,0:0|0:0,0:0:0:0:
314,278,144665,2,0,P|261:284|207:289,1,107.999996704102,8|0,0:0|0:0,0:0:0:0:
32,224,144948,5,2,0:0:0:0:
128,384,145090,1,2,0:0:0:0:
0,352,145231,1,8,0:0:0:0:
160,192,145373,5,2,0:0:0:0:
0,128,145514,1,2,0:1:0:0:
192,0,145656,1,2,0:1:0:0:
64,32,145797,1,8,0:0:0:0:
257,133,145939,6,0,P|283:38|191:0,1,215.999993408203,4|0,0:0|0:0,0:0:0:0:
64,160,146363,1,8,0:0:0:0:
188,85,146505,1,2,0:0:0:0:
64,32,146646,1,8,0:0:0:0:
188,196,146788,1,2,0:0:0:0:
11,170,146929,6,0,P|37:163|64:160,1,53.9999983520508,8|0,0:0|0:0,0:0:0:0:
200,278,147071,2,0,P|173:274|147:266,1,53.9999983520508,8|0,0:0|0:0,0:0:0:0:
277,114,147212,6,0,P|305:256|308:304,1,161.999995056153,4|0,0:0|0:0,0:0:0:0:
268,344,147495,2,0,P|242:351|215:355,1,53.9999983520508,8|0,0:0|0:0,0:0:0:0:
0,382,147637,6,0,P|-24:311|39:272,1,161.999995056153,2|0,0:0|0:0,0:0:0:0:
97,326,147920,2,0,P|89:352|84:378,1,53.9999983520508,2|0,0:0|0:0,0:0:0:0:
200,278,148061,2,0,P|195:251|187:225,1,53.9999983520508,8|0,0:0|0:0,0:0:0:0:
64,128,148203,2,0,P|56:154|51:180,1,53.9999983520508,2|0,0:0|0:0,0:0:0:0:
261,88,148344,6,0,P|245:13|170:8,1,161.999995056153,2|0,0:0|0:0,0:0:0:0:
128,76,148627,2,0,P|154:80|180:88,1,53.9999983520508,10|0,0:0|0:0,0:0:0:0:
286,190,148769,2,0,P|337:172|389:158,1,107.999996704102,2|0,0:0|0:0,0:0:0:0:
355,13,149052,6,0,P|359:40|362:67,1,53.9999983520508,2|0,0:0|0:0,0:0:0:0:
475,211,149193,2,0,B|474:178|510:138|510:138|472:130|453:88,1,161.999995056153,8|0,0:0|0:0,0:0:0:0:
389,157,149476,6,0,P|389:262|428:329,1,161.999995056153,2|0,0:0|0:0,0:0:0:0:
424,321,149759,1,8,0:0:0:0:
288,384,149901,6,0,P|186:354|120:340,1,161.999995056153,2|0,0:0|0:0,0:0:0:0:
89,276,150184,2,0,P|142:266|197:253,1,107.999996704102,2|8,0:1|0:0,0:0:0:0:
300,126,150467,6,0,P|236:30|188:82,1,215.999993408203,4|2,0:0|0:1,0:0:0:0:
0,160,150891,1,8,0:0:0:0:
214,164,151174,5,2,0:1:0:0:
96,96,151316,1,4,0:0:0:0:
0,160,151458,5,8,0:0:0:0:
128,20,151600,1,2,0:1:0:0:
238,252,151741,6,0,P|157:241|78:231,1,161.999995056153,4|0,0:0|0:0,0:0:0:0:
36,300,152024,2,0,P|116:310|161:317,1,107.999996704102,8|0,0:0|0:0,0:0:0:0:
228,384,152307,1,2,0:1:0:0:
320,288,152448,1,2,0:1:0:0:
214,164,152590,1,8,0:0:0:0:
238,252,152731,1,2,0:0:0:0:
238,252,153014,5,2,0:0:0:0:
319,159,153156,2,0,P|314:105|307:52,1,107.999996704102,8|0,0:0|0:0,0:0:0:0:
106,177,153439,2,0,P|160:168|214:164,1,107.999996704102,2|0,0:0|0:0,0:0:0:0:
307,52,153722,1,8,0:0:0:0:
214,164,153863,1,2,0:0:0:0:
350,256,154005,6,0,P|423:235|420:160,1,161.999995056153,2|2,0:1|0:1,0:0:0:0:
307,52,154288,2,0,P|296:132|279:211,1,161.999995056153,4|0,0:0|0:0,0:0:0:0:
275,226,154571,1,2,0:1:0:0:
299,348,154712,2,0,P|373:369|428:391,1,107.999996704102,4|8,0:0|0:0,0:0:0:0:
192,256,154995,6,0,P|113:277|38:306,1,161.999995056153,2|0,0:0|0:0,0:0:0:0:
48,317,155278,1,2,0:1:0:0:
160,160,155420,1,8,0:0:0:0:
32,224,155561,1,2,0:1:0:0:
192,256,155703,5,8,0:0:0:0:
128,64,155844,1,8,0:0:0:0:
320,0,155986,1,8,0:0:0:0:
256,192,156127,1,8,0:0:0:0:
0,140,156269,6,0,P|80:148|160:159,1,161.999995056153,4|0,0:0|0:0,0:0:0:0:
228,116,156552,2,0,P|243:60|196:18,1,107.999996704102,8|0,0:0|0:0,0:0:0:0:
128,64,156835,1,2,0:1:0:0:
256,192,156976,1,2,0:1:0:0:
337,91,157118,2,0,P|417:82|497:71,1,161.999995056153,8|0,0:0|0:0,0:0:0:0:
509,62,157401,5,2,0:1:0:0:
352,160,157542,1,2,0:1:0:0:
416,0,157684,1,8,0:0:0:0:
485,166,157825,2,0,P|459:295|448:359,1,161.999995056153,2|0,0:0|0:0,0:0:0:0:
461,337,158108,1,2,0:1:0:0:
332,277,158250,2,0,P|342:330|352:384,1,107.999996704102,10|0,0:0|0:0,0:0:0:0:
352,160,158533,6,0,P|298:150|189:97,1,161.999995056153,2|0,0:0|0:0,0:0:0:0:
139,56,158816,2,0,P|177:21|228:32,1,107.999996704102,8|0,0:0|0:0,0:0:0:0:
98,210,159099,1,2,0:1:0:0:
34,82,159241,1,2,0:1:0:0:
195,205,159382,1,8,0:0:0:0:
2,322,159524,6,0,P|4:242|29:165,1,161.999995056153,2|0,0:0|0:0,0:0:0:0:
101,128,159807,1,2,0:1:0:0:
200,309,159948,2,0,P|151:288|98:279,1,107.999996704102,8|0,0:0|0:0,0:0:0:0:
297,175,160231,2,0,P|244:183|195:205,1,107.999996704102,2|0,0:0|0:0,0:0:0:0:
381,124,160514,1,8,0:0:0:0:
293,273,160656,1,2,0:1:0:0:
448,352,160797,6,0,P|463:288|446:188,1,161.999995056153,4|0,0:0|0:0,0:0:0:0:
442,180,161080,1,8,0:0:0:0:
442,180,161363,1,2,0:1:0:0:
320,64,161505,1,2,0:1:0:0:
416,0,161646,2,0,P|480:0|512:32,1,107.999996704102,8|0,0:0|0:0,0:0:0:0:
381,124,161929,5,2,0:0:0:0:
256,0,162071,1,2,0:1:0:0:
461,96,162212,1,8,0:0:0:0:
338,194,162354,2,0,P|235:180|169:175,1,161.999995056153,2|0,0:0|0:0,0:0:0:0:
167,186,162637,1,2,0:1:0:0:
320,64,162778,2,0,P|266:68|212:73,1,107.999996704102,8|2,0:0|0:1,0:0:0:0:
0,128,163061,6,0,P|0:64|96:32,1,161.999995056153,6|0,0:0|0:0,0:0:0:0:
133,87,163344,2,0,P|102:158|96:224,1,107.999996704102,8|0,0:0|0:0,0:0:0:0:
160,384,163627,1,2,0:1:0:0:
224,224,163769,1,2,0:1:0:0:
32,352,163910,1,8,0:0:0:0:
224,320,164052,6,0,P|96:288|23:275,1,161.999995056153,6|0,0:0|0:0,0:0:0:0:
52,283,164335,1,2,0:1:0:0:
224,224,164476,2,0,P|272:216|347:198,1,107.999996704102,8|0,0:0|0:0,0:0:0:0:
448,320,164759,2,0,P|400:312|325:294,1,107.999996704102,2|2,0:1|0:1,0:0:0:0:
480,224,165042,1,6,0:0:0:0:
352,384,165184,1,2,0:1:0:0:
413,160,165325,6,0,P|416:96|298:81,1,161.999995056153,6|0,0:0|0:0,0:0:0:0:
294,124,165608,2,0,P|246:116|171:98,1,107.999996704102,8|0,0:0|0:0,0:0:0:0:
32,0,165891,1,2,0:1:0:0:
90,160,166033,1,2,0:1:0:0:
160,32,166174,1,8,0:0:0:0:
0,128,166316,6,2,P|31:279|38:330,1,161.999995056153
27,300,166599,1,2,0:1:0:0:
161,207,166741,2,0,P|179:147|189:89,1,107.999996704102,8|0,0:0|0:0,0:0:0:0:
227,333,167024,2,0,P|175:317|123:307,1,107.999996704102,2|0,0:0|0:0,0:0:0:0:
256,224,167307,1,8,0:0:0:0:
320,384,167448,1,2,0:1:0:0:
416,320,167590,6,0,P|420:297|424:275,1,45,4|0,0:0|0:0,0:0:0:0:
352,192,167731,1,2,0:1:0:0:
448,96,167873,1,8,0:0:0:0:
256,224,168014,6,0,P|251:197|246:170,1,53.9999983520508,4|0,0:0|0:0,0:0:0:0:
352,64,168156,1,2,0:1:0:0:
192,0,168297,1,2,0:1:0:0:
456,33,168439,6,0,P|450:64|448:96,1,62.9999980773926,12|0,0:0|0:0,0:0:0:0:
352,192,168580,6,0,P|365:227|382:261,1,72,12|2,0:0|0:1,0:0:0:0:
386,267,169217,1,2,0:1:0:0:
391,276,169288,5,8,0:0:0:0:
512,128,169429,1,8,0:0:0:0:
351,64,169571,6,0,P|318:70|288:72,1,62.9999980773926,8|0,0:0|0:0,0:0:0:0:
254,222,169712,2,0,P|223:216|192:215,1,62.9999980773926,8|0,0:0|0:0,0:0:0:0:
64,64,169854,5,8,0:0:0:0:
134,0,169995,2,0,P|149:70|160:141,1,144,4|0,0:0|0:0,0:0:0:0:
96,192,170420,2,0,P|64:175|32:256,1,144,8|2,0:0|0:1,0:0:0:0:
0,328,170844,2,0,B|33:359|33:359|160:337,1,144,2|0,0:1|0:0,0:0:0:0:
197,292,171269,2,0,P|192:257|175:226,1,72,2|0,0:1|0:0,0:0:0:0:
105,270,171552,5,8,0:0:0:0:
256,160,171835,1,2,0:0:0:0:
384,96,172118,5,2,0:1:0:0:
288,64,172259,1,2,0:1:0:0:
256,160,172401,1,2,0:0:0:0:
352,192,172542,1,2,0:1:0:0:
288,64,172684,2,0,P|202:75|184:76,2,72,8|2|2,0:0|0:1|0:1,0:0:0:0:
362,6,173108,6,0,P|448:19|526:22,1,144,2|8,0:1|0:0,0:0:0:0:
416,160,173533,1,2,0:0:0:0:
416,160,173816,2,0,P|451:154|487:150,1,72,8|2,0:0|0:1,0:0:0:0:
370,304,174099,1,4,0:0:0:0:
465,236,174241,1,8,0:0:0:0:
511,330,174382,6,0,P|441:313|370:304,1,144,4|0,0:0|0:0,0:0:0:0:
282,366,174807,1,2,0:1:0:0:
352,212,174948,2,0,P|285:218|272:284,1,144,8|2,0:0|0:1,0:0:0:0:
352,384,175373,2,0,P|317:373|282:366,1,72,2|0,0:0|0:0,0:0:0:0:
191,301,175656,2,0,P|155:308|121:318,2,72,2|2|2,0:0|0:1|0:1,0:0:0:0:
256,192,176080,5,8,0:0:0:0:
96,128,176363,1,2,0:0:0:0:
256,32,176646,5,2,0:1:0:0:
352,128,176788,1,2,0:1:0:0:
256,192,176929,2,0,P|219:184|181:179,1,72,6|2,0:0|0:1,0:0:0:0:
352,128,177212,2,0,P|389:120|503:115,1,144,8|2,0:0|0:1,0:0:0:0:
352,224,177637,1,2,0:1:0:0:
352,224,177920,6,0,P|362:267|363:308,2,72,6|2|2,0:0|0:1|0:1,0:0:0:0:
256,192,178344,1,8,0:0:0:0:
352,128,178486,1,2,0:0:0:0:
251,205,178627,1,12,0:0:0:0:
363,294,178769,1,10,0:0:0:0:
179,196,178910,6,0,P|215:199|251:205,1,72,4|2,0:0|0:1,0:0:0:0:
368,307,179193,2,0,P|332:310|296:315,1,72,2|2,0:1|0:1,0:0:0:0:
416,192,179476,2,0,P|481:204|480:288,1,144,8|2,0:0|0:1,0:0:0:0:
329,157,179901,2,0,P|335:119|340:58,1,72,2|0,0:1|0:0,0:0:0:0:
288,0,180184,5,4,0:0:0:0:
416,64,180325,1,2,0:1:0:0:
256,128,180608,5,2,0:0:0:0:
416,64,180750,1,2,0:0:0:0:
416,192,180891,5,2,0:0:0:0:
329,157,181033,1,2,0:0:0:0:
478,128,181174,6,0,P|490:172|496:226,1,72,2|2,0:1|0:1,0:0:0:0:
512,320,181458,1,2,0:0:0:0:
512,320,181741,2,0,P|455:299|364:277,1,144,8|2,0:0|0:1,0:0:0:0:
320,224,182165,2,0,P|285:235|252:248,1,72,2|2,0:1|0:1,0:0:0:0:
352,352,182448,5,12,0:0:0:0:
224,384,182590,1,2,0:1:0:0:
224,384,182873,5,10,0:0:0:0:
352,352,183015,1,10,0:0:0:0:
480,288,183156,5,14,0:0:0:0:
320,224,183298,1,10,0:0:0:0:
384,160,183439,6,0,P|380:120|375:78,2,72,2|2|2,0:1|0:1|0:1,0:0:0:0:
295,75,183863,1,2,0:1:0:0:
347,11,184005,6,0,P|418:14|490:20,1,144,8|2,0:0|0:1,0:0:0:0:
295,75,184429,2,0,P|223:78|212:80,1,72,8|0,0:0|0:0,0:0:0:0:
128,128,184712,5,8,0:0:0:0:
192,192,184854,1,2,0:1:0:0:
47,110,185137,6,0,P|54:76|61:31,1,72,8|0,0:0|0:0,0:0:0:0:
110,208,185420,2,0,P|114:243|122:278,1,72,2|0,0:0|0:0,0:0:0:0:
24,194,185703,5,2,0:1:0:0:
198,115,185844,2,0,P|163:123|128:128,1,72,4|0,0:0|0:0,0:0:0:0:
160,32,186127,5,2,0:1:0:0:
270,179,186268,2,0,P|305:186|340:191,1,72,12|0,0:0|0:0,0:0:0:0:
288,87,186552,5,2,0:1:0:0:
174,221,186693,1,4,0:0:0:0:
256,288,186835,1,2,0:1:0:0:
198,115,186976,5,2,0:0:0:0:
96,256,187118,1,2,0:1:0:0:
96,256,187401,5,10,0:0:0:0:
270,179,187542,1,10,0:0:0:0:
227,53,187684,5,10,0:0:0:0:
458,120,187825,1,10,0:0:0:0:
352,0,187967,5,2,0:0:0:0:
352,0,188250,6,0,P|340:-2|329:-5,2,18,2|2|2,0:0|0:0|0:0,0:0:0:0:
400,64,188533,1,8,0:0:0:0:
310,111,188674,6,0,P|308:99|305:88,2,18,2|2|2,0:0|0:0|0:0,0:0:0:0:
374,159,188958,2,0,P|354:261|347:320,1,162,8|4,0:0|0:0,0:0:0:0:
347,318,190797,6,0,P|276:324|234:332,1,107.999996704102,2|2,0:0|0:0,0:0:0:0:
98,333,191788,2,0,P|133:353|160:384,1,80.9999975280763,2|2,0:0|0:0,0:0:0:0:
171,252,192495,6,0,P|154:180|148:142,1,107.999996704102,2|0,0:0|0:0,0:0:0:0:
64,64,193344,2,0,P|62:83|59:97,1,26.9999991760254,2|2,0:0|0:0,0:0:0:0:
175,34,193910,1,2,0:0:0:0:
105,0,194193,1,2,0:0:0:0:
204,100,194476,2,0,P|217:98|231:97,1,26.9999991760254,2|2,0:0|0:0,0:0:0:0:
291,40,194759,6,0,P|351:44|405:52,1,107.999996704102,2|0,0:0|0:0,0:0:0:0:
480,0,195608,6,0,P|481:13|483:26,1,26.9999991760254,2|2,0:0|0:0,0:0:0:0:
384,128,196174,1,2,0:0:0:0:
460,102,196458,1,2,0:0:0:0:
384,128,196741,1,2,0:0:0:0:
422,198,197024,6,0,P|462:190|502:183,1,80.9999975280763,2|2,0:0|0:0,0:0:0:0:
384,288,197873,6,0,B|338:283|301:273|301:273|263:324|186:356|186:356|210:355|230:372,1,269.999991760254,2|0,0:0|0:0,0:0:0:0:
225,368,200137,6,0,P|220:349|216:333,1,36,2|2,0:0|0:0,0:0:0:0:
137,264,200420,6,0,P|146:183|159:103,1,161.999995056153,4|0,0:0|0:0,0:0:0:0:
237,51,200703,2,0,P|241:77|248:103,1,53.9999983520508,8|0,0:0|0:0,0:0:0:0:
90,8,200844,6,0,P|80:63|41:189,1,161.999995056153,2|0,0:0|0:0,0:0:0:0:
0,271,201127,2,0,P|24:259|50:252,1,53.9999983520508,2|0,0:0|0:0,0:0:0:0:
216,332,201269,2,0,P|251:295|239:244,1,107.999996704102,8|0,0:0|0:0,0:0:0:0:
342,94,201552,6,0,P|419:119|498:135,1,161.999995056153,2|0,0:0|0:0,0:0:0:0:
511,130,201835,1,8,0:0:0:0:
320,0,201976,2,0,P|266:19|201:35,1,107.999996704102,2|0,0:0|0:0,0:0:0:0:
353,197,202259,6,0,P|299:178|261:166,1,53.9999983520508,2|0,0:0|0:0,0:0:0:0:
49,181,202401,2,0,P|128:164|205:137,1,161.999995056153,8|0,0:0|0:0,0:0:0:0:
130,29,202684,6,0,P|59:20|63:91,1,161.999995056153,2|0,0:0|0:0,0:0:0:0:
267,49,202967,2,0,P|241:40|216:31,1,53.9999983520508,8|0,0:0|0:0,0:0:0:0:
72,260,203108,6,0,P|148:233|228:216,1,161.999995056153,2|0,0:0|0:0,0:0:0:0:
294,253,203391,1,2,0:0:0:0:
480,96,203533,1,8,0:0:0:0:
306,146,203674,6,0,P|385:163|461:190,1,161.999995056153,4|0,0:0|0:0,0:0:0:0:
499,261,203958,1,2,0:1:0:0:
320,384,204099,2,0,P|311:323|298:262,1,107.999996704102,8|0,0:0|0:0,0:0:0:0:
205,137,204382,5,2,0:1:0:0:
352,32,204524,2,0,P|325:36|298:41,1,53.9999983520508,4|0,0:0|0:0,0:0:0:0:
192,128,204665,5,8,0:0:0:0:
32,64,204807,1,2,0:1:0:0:
96,0,204948,6,0,P|115:77|89:175,1,161.999995056153,4|0,0:0|0:0,0:0:0:0:
0,288,205231,2,0,P|43:243|105:243,1,107.999996704102,8|0,0:0|0:0,0:0:0:0:
256,384,205514,1,2,0:0:0:0:
83,332,205656,1,2,0:0:0:0:
224,192,205797,1,8,0:0:0:0:
298,302,205939,6,0,P|245:294|192:288,1,107.999996704102,2|0,0:0|0:0,0:0:0:0:
427,163,206221,1,2,0:1:0:0:
343,94,206363,2,0,P|335:147|329:201,1,107.999996704102,8|0,0:0|0:0,0:0:0:0:
416,384,206646,1,2,0:1:0:0:
512,224,206788,1,2,0:1:0:0:
298,302,206929,1,8,0:0:0:0:
483,336,207071,1,2,0:0:0:0:
328,201,207212,6,0,P|248:211|168:222,1,161.999995056153,2|0,0:1|0:0,0:0:0:0:
0,128,207495,2,0,P|22:75|115:82,1,161.999995056153,4|0,0:0|0:0,0:0:0:0:
75,150,207778,1,2,0:1:0:0:
7,307,207920,1,4,0:0:0:0:
167,222,208061,1,8,0:0:0:0:
0,320,208203,6,0,P|80:330|160:341,1,161.999995056153,2|0,0:0|0:0,0:0:0:0:
171,351,208486,1,2,0:1:0:0:
266,297,208627,6,0,P|293:292|320:288,1,53.9999983520508,8|0,0:0|0:0,0:0:0:0:
395,381,208769,2,0,P|368:376|342:371,1,53.9999983520508,2|0,0:1|0:0,0:0:0:0:
416,192,208910,6,0,P|421:218|425:245,1,53.9999983520508,8|0,0:0|0:0,0:0:0:0:
512,320,209052,2,0,P|506:346|502:373,1,53.9999983520508,8|0,0:0|0:0,0:0:0:0:
288,192,209193,6,0,P|292:165|297:138,1,53.9999983520508,8|0,0:0|0:0,0:0:0:0:
480,32,209335,2,0,P|485:58|489:85,1,53.9999983520508,8|0,0:0|0:0,0:0:0:0:
320,288,209476,6,0,P|239:276|159:266,1,161.999995056153,4|0,0:0|0:0,0:0:0:0:
0,160,209759,2,0,P|32:119|83:128,1,107.999996704102,8|0,0:0|0:0,0:0:0:0:
256,64,210042,1,2,0:1:0:0:
96,0,210184,1,2,0:1:0:0:
192,160,210325,2,0,P|272:148|352:138,1,161.999995056153,8|0,0:0|0:0,0:0:0:0:
416,192,210608,5,2,0:1:0:0:
480,64,210750,1,2,0:1:0:0:
320,224,210891,1,8,0:0:0:0:
485,304,211033,2,0,P|505:226|490:148,1,161.999995056153,2|0,0:0|0:0,0:0:0:0:
477,142,211316,1,2,0:1:0:0:
389,266,211458,2,0,P|396:319|402:373,1,107.999996704102,10|0,0:0|0:0,0:0:0:0:
222,253,211741,5,2,0:0:0:0:
352,138,211882,1,2,0:1:0:0:
218,268,212024,2,0,P|139:256|94:252,1,107.999996704102,8|0,0:0|0:0,0:0:0:0:
346,126,212307,1,2,0:1:0:0:
288,320,212448,1,2,0:1:0:0:
192,128,212590,1,8,0:0:0:0:
379,213,212731,6,0,P|393:292|402:373,1,161.999995056153,2|0,0:0|0:0,0:0:0:0:
395,384,213014,1,2,0:1:0:0:
480,224,213156,2,0,P|484:191|502:106,1,107.999996704102,8|0,0:0|0:0,0:0:0:0:
284,252,213439,2,0,P|279:219|262:134,1,107.999996704102,2|2,0:0|0:1,0:0:0:0:
224,0,213722,1,8,0:0:0:0:
96,192,213863,1,2,0:1:0:0:
0,96,214005,6,0,P|69:89|169:82,1,161.999995056153,4|0,0:0|0:0,0:0:0:0:
331,12,214288,2,0,P|277:5|224:0,1,107.999996704102,8|0,0:0|0:0,0:0:0:0:
264,145,214571,1,2,0:1:0:0:
161,82,214712,1,2,0:1:0:0:
381,142,214854,2,0,P|327:147|274:155,1,107.999996704102,8|0,0:0|0:0,0:0:0:0:
164,338,215137,6,0,P|132:264|96:192,1,161.999995056153,2|0,0:0|0:0,0:0:0:0:
88,179,215420,1,8,0:0:0:0:
224,32,215561,2,0,P|278:37|331:45,1,107.999996704102,2|2,0:0|0:1,0:0:0:0:
190,196,215844,1,2,0:1:0:0:
20,109,215986,2,0,P|74:100|128:96,1,107.999996704102,8|2,0:0|0:1,0:0:0:0:
341,299,216269,6,0,P|404:257|389:182,1,161.999995056153,4|0,0:0|0:0,0:0:0:0:
276,106,216552,2,0,P|285:159|292:213,1,107.999996704102,8|0,0:0|0:0,0:0:0:0:
160,384,216835,1,2,0:1:0:0:
64,256,216976,1,2,0:1:0:0:
256,320,217118,1,8,0:0:0:0:
132,160,217259,6,0,P|55:145|4:203,1,161.999995056153,6|0,0:0|0:0,0:0:0:0:
64,256,217542,1,2,0:1:0:0:
195,106,217684,2,0,P|204:53|211:0,1,107.999996704102,8|0,0:0|0:0,0:0:0:0:
321,53,217967,1,2,0:1:0:0:
192,224,218108,1,2,0:1:0:0:
3,64,218250,2,0,P|56:55|110:49,1,107.999996704102,6|0,0:0|0:0,0:0:0:0:
288,160,218533,6,0,B|371:160|362:230|440:230,1,161.999995056153,6|0,0:0|0:0,0:0:0:0:
512,160,218816,2,0,P|512:96|464:79,1,107.999996704102,8|0,0:0|0:0,0:0:0:0:
411,122,219099,1,2,0:1:0:0:
512,256,219241,1,2,0:1:0:0:
419,109,219382,1,8,0:0:0:0:
288,256,219524,6,0,P|215:232|93:219,1,161.999995056153,2|0,0:0|0:0,0:0:0:0:
54,242,219807,1,2,0:1:0:0:
160,32,219948,2,0,P|181:97|192:146,1,107.999996704102,8|0,0:0|0:0,0:0:0:0:
288,256,220231,2,0,P|300:203|318:152,1,107.999996704102,2|0,0:0|0:0,0:0:0:0:
416,64,220514,1,8,0:0:0:0:
288,0,220656,1,2,0:1:0:0:
466,163,220797,6,0,P|439:161|413:158,1,53.9999983520508,4|0,0:0|0:0,0:0:0:0:
277,81,220939,1,2,0:1:0:0:
369,0,221080,1,8,0:0:0:0:
200,28,221222,6,0,P|168:33|138:43,1,62.9999980773926,4|0,0:0|0:0,0:0:0:0:
273,95,221363,1,2,0:1:0:0:
89,173,221505,1,2,0:1:0:0:
41,0,221646,6,0,P|52:33|59:69,1,72,12|0,0:0|0:0,0:0:0:0:
192,224,221788,6,0,P|188:246|182:260,1,36,12|2,0:0|0:1,0:0:0:0:
128,352,222141,5,2,0:1:0:0:
124,361,222212,2,0,P|86:354|40:352,1,62.9999980773926,8|0,0:0|0:0,0:0:0:0:
81,271,222354,2,0,P|49:272|19:278,1,62.9999980773926,8|0,0:0|0:0,0:0:0:0:
180,150,222495,6,0,P|198:151|238:157,1,40.4999987640381,2|0,0:1|0:0,0:0:0:0:
271,218,222637,2,0,P|291:216|312:214,1,40.4999987640381,2|0,0:1|0:0,0:0:0:0:
89,173,222778,6,0,P|82:130|68:76,1,80.9999975280763,8|0,0:0|0:0,0:0:0:0:
416,192,222920,2,0,P|406:231|400:271,1,80.9999975280763,8|0,0:0|0:0,0:0:0:0:
208,384,223061,6,0,P|203:304|192:224,1,161.999995056153,4|0,0:0|0:0,0:0:0:0:
220,153,223344,2,0,P|260:142|263:206,1,107.999996704102,8|0,0:0|0:0,0:0:0:0:
128,352,223627,1,2,0:1:0:0:
306,285,223769,1,2,0:1:0:0:
125,230,223910,1,8,0:0:0:0:
275,194,224052,6,0,P|355:201|436:212,1,161.999995056153,2|0,0:0|0:0,0:0:0:0:
448,222,224335,1,2,0:1:0:0:
381,14,224476,2,0,P|365:66|346:117,1,107.999996704102,8|0,0:0|0:0,0:0:0:0:
224,32,224759,1,2,0:1:0:0:
287,186,224901,1,2,0:1:0:0:
160,64,225042,1,8,0:0:0:0:
96,256,225184,1,2,0:1:0:0:
0,160,225325,6,0,P|80:149|161:142,1,161.999995056153,2|0,0:0|0:0,0:0:0:0:
210,204,225608,2,0,P|196:280|188:335,1,107.999996704102,8|0,0:0|0:0,0:0:0:0:
366,168,225891,2,0,P|352:92|344:37,1,107.999996704102,2|2,0:1|0:1,0:0:0:0:
236,129,226174,1,8,0:0:0:0:
309,287,226316,6,0,P|389:276|470:269,1,161.999995056153,2|0,0:0|0:0,0:0:0:0:
481,281,226599,1,2,0:1:0:0:
352,384,226741,1,8,0:0:0:0:
341,372,227023,5,2,0:1:0:0:
470,269,227165,1,2,0:1:0:0:
287,186,227307,5,8,0:0:0:0:
384,128,227448,1,2,0:1:0:0:
191,64,227590,6,0,P|136:118|161:190,1,161.999995056153,4|0,0:0|0:0,0:0:0:0:
226,238,227873,2,0,P|237:310|222:352,1,107.999996704102,8|0,0:0|0:0,0:0:0:0:
26,311,228156,2,0,P|79:304|131:291,1,107.999996704102,2|2,0:1|0:1,0:0:0:0:
96,128,228439,1,8,0:0:0:0:
287,186,228580,6,0,P|340:192|455:210,1,161.999995056153,2|0,0:0|0:0,0:0:0:0:
459,218,228863,1,0,0:0:0:0:
320,86,229005,2,0,P|373:79|427:72,1,107.999996704102,8|0,0:0|0:0,0:0:0:0:
512,128,229288,1,2,0:1:0:0:
364,1,229429,1,2,0:1:0:0:
227,110,229571,2,0,P|221:57|214:3,1,107.999996704102,8|2,0:0|0:1,0:0:0:0:
0,156,229854,6,0,P|13:234|95:202,1,161.999995056153,2|2,0:0|0:1,0:0:0:0:
146,180,230137,2,0,P|199:186|253:193,1,107.999996704102,8|0,0:0|0:0,0:0:0:0:
160,288,230420,1,2,0:1:0:0:
83,109,230561,1,2,0:1:0:0:
253,193,230703,1,8,0:0:0:0:
170,365,230844,6,0,P|89:374|9:384,1,161.999995056153,4|0,0:0|0:0,0:0:0:0:
0,374,231127,1,0,0:0:0:0:
160,288,231269,2,0,P|214:294|268:301,1,107.999996704102,8|0,0:0|0:0,0:0:0:0:
384,384,231552,5,2,0:1:0:0:
512,320,231693,1,2,0:1:0:0:
299,175,231835,5,12,0:0:0:0:
491,239,231976,1,8,0:0:0:0:
512,79,232118,6,0,P|431:91|352:109,1,161.999995056153,4|0,0:0|0:0,0:0:0:0:
293,161,232401,2,0,P|230:148|166:139,1,107.999996704102,8|0,0:0|0:0,0:0:0:0:
0,192,232684,1,2,0:1:0:0:
160,64,232825,1,2,0:1:0:0:
32,0,232967,1,8,0:0:0:0:
99,188,233108,6,0,P|83:289|64:384,1,161.999995056153,2|0,0:0|0:0,0:0:0:0:
63,359,233391,1,2,0:1:0:0:
224,288,233533,1,8,0:0:0:0:
232,276,233816,5,2,0:1:0:0:
71,347,233958,1,2,0:1:0:0:
192,192,234099,5,8,0:0:0:0:
353,263,234241,1,2,0:1:0:0:
216,332,234382,6,0,P|219:316|227:261,1,45,4|0,0:0|0:0,0:0:0:0:
320,192,234524,1,2,0:1:0:0:
256,128,234665,1,8,0:0:0:0:
384,32,234807,6,0,P|381:48|373:108,1,53.9999983520508,4|0,0:0|0:0,0:0:0:0:
448,192,234948,1,2,0:1:0:0:
344,274,235090,1,2,0:1:0:0:
512,320,235231,6,0,P|471:298|442:293,1,62.9999980773926,12|0,0:0|0:0,0:0:0:0:
320,192,235373,6,0,P|289:201|256:224,1,72,12|2,0:0|0:1,0:0:0:0:
254,234,236009,1,2,0:1:0:0:
252,245,236080,5,8,0:0:0:0:
64,320,236222,1,8,0:0:0:0:
128,128,236363,6,0,P|138:177|142:208,1,72,8|0,0:0|0:0,0:0:0:0:
320,351,236505,2,0,P|325:315|332:280,1,72,8|0,0:0|0:0,0:0:0:0:
480,160,236646,5,8,0:0:0:0:
416,96,236788,2,0,P|352:99|290:104,1,125.999996154785,4|0,0:0|0:0,0:0:0:0:
268,19,237212,2,0,P|208:23|192:79,1,125.999996154785,8|2,0:0|0:1,0:0:0:0:
95,163,237637,2,0,P|158:165|221:171,1,125.999996154785,2|2,0:1|0:1,0:0:0:0:
288,224,238061,2,0,P|292:265|275:299,1,62.9999980773926,2|0,0:1|0:0,0:1:0:0:
224,352,238344,5,8,0:0:0:0:
384,288,238627,1,2,0:0:0:0:
216,364,238910,6,0,P|181:356|149:353,1,62.9999980773926,8|8,0:0|0:0,0:0:0:0:
94,295,239193,2,0,P|62:299|31:305,1,62.9999980773926,8|8,0:0|0:0,0:0:0:0:
189,147,239476,2,0,P|181:210|175:273,1,125.999996154785,10|2,0:0|0:1,0:0:0:0:
216,364,239901,1,2,0:1:0:0:
226,353,240184,5,2,0:0:0:0:
352,384,240325,2,0,P|385:376|422:372,1,62.9999980773926,2|0,0:1|0:0,0:0:0:0:
480,320,240608,5,10,0:0:0:0:
448,256,240750,1,0,0:0:0:0:
320,224,240891,5,14,0:0:0:0:
384,128,241033,1,8,0:0:0:0:
288,32,241174,5,4,0:0:0:0:
224,96,241316,2,0,P|235:197|238:243,1,125.999996154785,8|0,0:0|0:0,0:0:0:0:
160,288,241741,2,0,P|96:256|20:282,1,125.999996154785,8|2,0:0|0:1,0:0:0:0:
0,192,242165,2,0,P|8:161|21:132,1,62.9999980773926,2|2,0:0|0:1,0:0:0:0:
44,265,242448,1,2,0:0:0:0:
128,192,242590,6,0,P|119:161|103:55,1,125.999996154785,2|8,0:1|0:0,0:0:0:0:
256,0,243156,1,2,0:0:0:0:
192,64,243297,1,2,0:1:0:0:
288,128,243439,6,0,P|324:120|364:115,1,62.9999980773926,8|8,0:0|0:0,0:0:0:0:
480,64,243722,1,12,0:0:0:0:
384,0,243863,1,8,0:0:0:0:
448,160,244005,2,0,P|479:164|509:171,1,62.9999980773926,8|0,0:0|0:0,0:0:0:0:
352,224,244288,1,2,0:1:0:0:
445,303,244429,6,0,P|440:272|433:242,1,62.9999980773926,8|0,0:0|0:0,0:0:0:0:
288,384,244712,1,4,0:0:0:0:
384,352,244854,1,2,0:1:0:0:
373,342,245137,5,10,0:0:0:0:
277,374,245279,1,2,0:0:0:0:
160,288,245420,2,0,P|166:257|173:209,1,62.9999980773926,14|10,0:0|0:0,0:0:0:0:
32,96,245703,5,8,0:0:0:0:
96,224,245844,1,8,0:0:0:0:
174,64,245986,5,8,0:0:0:0:
136,150,246127,1,8,0:0:0:0:
