osu file format v14

[General]
AudioFilename: audio.mp3
AudioLeadIn: 0
PreviewTime: 190726
Countdown: 0
SampleSet: Soft
StackLeniency: 0.7
Mode: 0
LetterboxInBreaks: 0
WidescreenStoryboard: 1

[Editor]
Bookmarks: 138156,246127
DistanceSpacing: 1
BeatDivisor: 4
GridSize: 4
TimelineZoom: 2.000001

[Metadata]
Title:Serment
TitleUnicode:Serment
Artist:Mami Kawada
ArtistUnicode:川田まみ
Creator:Kyuukai
Version:Collab Insane
Source:灼眼のシャナIII-FINAL-
Tags:shakugan no shana III -best- 3rd season 2nd opening full version generasia square the circle anime jrock j-rock rock japanese pop kin my angel ram
BeatmapID:4178048
BeatmapSetID:1759055

[Difficulty]
HPDrainRate:5.4
CircleSize:3.8
OverallDifficulty:8
ApproachRate:9
SliderMultiplier:1.6
SliderTickRate:1

[Events]
//Background and Video events
0,0,"Shana.jpg",0,0
//Break Periods
2,190431,199537
//Storyboard Layer 0 (Background)
//Storyboard Layer 1 (Fail)
//Storyboard Layer 2 (Pass)
//Storyboard Layer 3 (Foreground)
//Storyboard Layer 4 (Overlay)
//Storyboard Sound Samples

[TimingPoints]
1175,283.018867924528,4,2,1,50,1,0
5703,-166.666666666667,4,2,1,50,0,0
10231,-125,4,2,1,55,0,0
19288,-200,4,2,1,40,0,0
20420,-100,4,2,1,60,0,0
20632,-100,4,2,1,5,0,0
20703,-100,4,2,1,60,0,0
25160,-100,4,2,1,5,0,0
25231,-100,4,2,1,60,0,0
28415,-100,4,2,1,5,0,0
28486,-100,4,2,1,60,0,0
29689,-100,4,2,1,5,0,0
29760,-100,4,2,1,60,0,0
34217,-100,4,2,1,5,0,0
34288,-100,4,2,1,60,0,0
38533,-142.857142857143,4,2,1,45,0,0
53250,-142.857142857143,4,2,1,50,0,0
54382,-142.857142857143,4,2,1,55,0,0
55514,-142.857142857143,4,2,1,60,0,0
56646,-166.666666666667,4,2,1,50,0,0
61174,-166.666666666667,4,2,1,55,0,0
63439,-125,4,2,1,60,0,0
65703,-125,4,2,1,65,0,0
65774,-125,4,2,1,5,0,0
65844,-125,4,2,1,65,0,0
65915,-125,4,2,1,5,0,0
65986,-125,4,2,1,50,0,0
66976,-250,4,2,1,50,0,0
67542,-142.857142857143,4,2,1,50,0,0
67684,-142.857142857143,4,2,1,55,0,0
67967,-90.9090909090909,4,2,1,70,0,1
68179,-90.9090909090909,4,2,1,5,0,1
68250,-90.9090909090909,4,2,1,70,0,1
69028,-90.9090909090909,4,2,1,5,0,1
69099,-90.9090909090909,4,2,1,70,0,1
71434,-90.9090909090909,4,2,1,5,0,1
71505,-90.9090909090909,4,2,1,70,0,1
72708,-90.9090909090909,4,2,1,5,0,1
72779,-90.9090909090909,4,2,1,70,0,1
74406,-90.9090909090909,4,2,1,5,0,1
74477,-90.9090909090909,4,2,1,70,0,1
76811,-90.9090909090909,4,2,1,5,0,1
76882,-90.9090909090909,4,2,1,70,0,1
76953,-90.9090909090909,4,2,1,5,0,1
77024,-90.9090909090909,4,2,1,70,0,1
77236,-90.9090909090909,4,2,1,5,0,1
77307,-90.9090909090909,4,2,1,70,0,1
77377,-90.9090909090909,4,2,1,5,0,1
77448,-90.9090909090909,4,2,1,70,0,1
77660,-90.9090909090909,4,2,1,5,0,1
77731,-90.9090909090909,4,2,1,70,0,1
77802,-90.9090909090909,4,2,1,5,0,1
77873,-90.9090909090909,4,2,1,70,0,1
78368,-90.9090909090909,4,2,1,5,0,1
78439,-90.9090909090909,4,2,1,70,0,1
78934,-90.9090909090909,4,2,1,5,0,1
79005,-90.9090909090909,4,2,1,70,0,1
79217,-90.9090909090909,4,2,1,5,0,1
79288,-90.9090909090909,4,2,1,70,0,1
79924,-90.9090909090909,4,2,1,5,0,1
79995,-90.9090909090909,4,2,1,70,0,1
80491,-90.9090909090909,4,2,1,5,0,1
80562,-90.9090909090909,4,2,1,70,0,1
81764,-90.9090909090909,4,2,1,5,0,1
81835,-90.9090909090909,4,2,1,70,0,1
84028,-90.9090909090909,4,2,1,5,0,1
84099,-90.9090909090909,4,2,1,70,0,1
84311,-90.9090909090909,4,2,1,5,0,1
84382,-90.9090909090909,4,2,1,70,0,1
86292,-90.9090909090909,4,2,1,5,0,1
86363,-90.9090909090909,4,2,1,70,0,1
87141,-90.9090909090909,4,2,1,5,0,1
87212,-90.9090909090909,4,2,1,70,0,1
89547,-90.9090909090909,4,2,1,5,0,1
89618,-90.9090909090909,4,2,1,70,0,1
90821,-90.9090909090909,4,2,1,5,0,1
90892,-90.9090909090909,4,2,1,70,0,1
92377,-90.9090909090909,4,2,1,5,0,1
92448,-90.9090909090909,4,2,1,70,0,1
93085,-90.9090909090909,4,2,1,5,0,1
93156,-90.9090909090909,4,2,1,70,0,1
94075,-90.9090909090909,4,2,1,5,0,1
94146,-90.9090909090909,4,2,1,70,0,1
95066,-90.9090909090909,4,2,1,5,0,1
95137,-90.9090909090909,4,2,1,70,0,1
95349,-90.9090909090909,4,2,1,5,0,1
95420,-90.9090909090909,4,2,1,70,0,1
96340,-90.9090909090909,4,2,1,5,0,1
96411,-90.9090909090909,4,2,1,70,0,1
97472,-90.9090909090909,4,2,1,5,0,1
97542,-90.9090909090909,4,2,1,70,0,1
97896,-90.9090909090909,4,2,1,5,0,1
97966,-90.9090909090909,4,2,1,70,0,1
98321,-90.9090909090909,4,2,1,5,0,1
98391,-125,4,2,1,70,0,1
99099,-90.9090909090909,4,2,1,70,0,1
99453,-90.9090909090909,4,2,1,5,0,1
99524,-90.9090909090909,4,2,1,70,0,1
99594,-90.9090909090909,4,2,1,5,0,1
99665,-100,4,2,1,50,0,0
99877,-100,4,2,1,5,0,0
99948,-100,4,2,1,50,0,0
108722,-142.857142857143,4,2,1,45,0,0
117778,-166.666666666667,4,2,1,40,0,0
119759,-166.666666666667,4,2,1,45,0,0
119972,-166.666666666667,4,2,1,5,0,0
120042,-125,4,2,1,45,0,0
123439,-125,4,2,1,50,0,0
124571,-125,4,2,1,55,0,0
125703,-125,4,2,1,60,0,0
126835,-166.666666666667,4,2,1,50,0,0
131363,-166.666666666667,4,2,1,55,0,0
133627,-125,4,2,1,60,0,0
135891,-125,4,2,1,65,0,0
135962,-125,4,2,1,5,0,0
136032,-125,4,2,1,65,0,0
136103,-125,4,2,1,5,0,0
136174,-125,4,2,1,50,0,0
137872,-125,4,2,1,55,0,0
138156,-90.9090909090909,4,2,1,70,0,1
138368,-90.9090909090909,4,2,1,5,0,1
138439,-90.9090909090909,4,2,1,70,0,1
139217,-90.9090909090909,4,2,1,5,0,1
139288,-90.9090909090909,4,2,1,70,0,1
139924,-90.9090909090909,4,2,1,5,0,1
139995,-90.9090909090909,4,2,1,70,0,1
140632,-90.9090909090909,4,2,1,5,0,1
140703,-90.9090909090909,4,2,1,70,0,1
141623,-90.9090909090909,4,2,1,5,0,1
141693,-90.9090909090909,4,2,1,70,0,1
142896,-90.9090909090909,4,2,1,5,0,1
142967,-90.9090909090909,4,2,1,70,0,1
144594,-90.9090909090909,4,2,1,5,0,1
144665,-90.9090909090909,4,2,1,70,0,1
147000,-90.9090909090909,4,2,1,5,0,1
147071,-90.9090909090909,4,2,1,70,0,1
147141,-90.9090909090909,4,2,1,5,0,1
147212,-90.9090909090909,4,2,1,70,0,1
147424,-90.9090909090909,4,2,1,5,0,1
147495,-90.9090909090909,4,2,1,70,0,1
147565,-90.9090909090909,4,2,1,5,0,1
147636,-90.9090909090909,4,2,1,70,0,1
147848,-90.9090909090909,4,2,1,5,0,1
147919,-90.9090909090909,4,2,1,70,0,1
147990,-90.9090909090909,4,2,1,5,0,1
148061,-90.9090909090909,4,2,1,70,0,1
148132,-90.9090909090909,4,2,1,5,0,1
148203,-90.9090909090909,4,2,1,70,0,1
148274,-90.9090909090909,4,2,1,5,0,1
148344,-90.9090909090909,4,2,1,70,0,1
148556,-90.9090909090909,4,2,1,5,0,1
148627,-90.9090909090909,4,2,1,70,0,1
148698,-90.9090909090909,4,2,1,5,0,1
148769,-90.9090909090909,4,2,1,70,0,1
149122,-90.9090909090909,4,2,1,5,0,1
149193,-90.9090909090909,4,2,1,70,0,1
149405,-90.9090909090909,4,2,1,5,0,1
149476,-90.9090909090909,4,2,1,70,0,1
149689,-90.9090909090909,4,2,1,5,0,1
149759,-90.9090909090909,4,2,1,70,0,1
149830,-90.9090909090909,4,2,1,5,0,1
149901,-90.9090909090909,4,2,1,70,0,1
150113,-90.9090909090909,4,2,1,5,0,1
150184,-90.9090909090909,4,2,1,70,0,1
151953,-90.9090909090909,4,2,1,5,0,1
152024,-90.9090909090909,4,2,1,70,0,1
154217,-90.9090909090909,4,2,1,5,0,1
154287,-90.9090909090909,4,2,1,70,0,1
154499,-90.9090909090909,4,2,1,5,0,1
154570,-90.9090909090909,4,2,1,70,0,1
155208,-90.9090909090909,4,2,1,5,0,1
155278,-90.9090909090909,4,2,1,70,0,1
156481,-90.9090909090909,4,2,1,5,0,1
156552,-90.9090909090909,4,2,1,70,0,1
157330,-90.9090909090909,4,2,1,5,0,1
157401,-90.9090909090909,4,2,1,70,0,1
158038,-90.9090909090909,4,2,1,5,0,1
158108,-90.9090909090909,4,2,1,70,0,1
158745,-90.9090909090909,4,2,1,5,0,1
158815,-90.9090909090909,4,2,1,70,0,1
159736,-90.9090909090909,4,2,1,5,0,1
159807,-90.9090909090909,4,2,1,70,0,1
161010,-90.9090909090909,4,2,1,5,0,1
161081,-90.9090909090909,4,2,1,70,0,1
162566,-90.9090909090909,4,2,1,5,0,1
162637,-90.9090909090909,4,2,1,70,0,1
163274,-90.9090909090909,4,2,1,5,0,1
163345,-90.9090909090909,4,2,1,70,0,1
164264,-90.9090909090909,4,2,1,5,0,1
164335,-90.9090909090909,4,2,1,70,0,1
165538,-90.9090909090909,4,2,1,5,0,1
165609,-90.9090909090909,4,2,1,70,0,1
166529,-90.9090909090909,4,2,1,5,0,1
166600,-90.9090909090909,4,2,1,70,0,1
167660,-90.9090909090909,4,2,1,5,0,1
167731,-90.9090909090909,4,2,1,70,0,1
168085,-90.9090909090909,4,2,1,5,0,1
168156,-90.9090909090909,4,2,1,70,0,1
168509,-90.9090909090909,4,2,1,5,0,1
168580,-125,4,2,1,70,0,1
169641,-90.9090909090909,4,2,1,5,0,1
169712,-90.9090909090909,4,2,1,70,0,1
169783,-90.9090909090909,4,2,1,5,0,1
169854,-125,4,2,1,50,0,0
187967,-250.000000000001,4,2,1,30,0,0
188958,-166.666666666667,4,2,1,20,0,0
190231,-166.666666666667,4,2,1,30,0,0
200137,-166.666666666667,4,2,1,55,0,0
200420,-90.9090909090909,4,2,1,70,0,1
200632,-90.9090909090909,4,2,1,5,0,1
200703,-90.9090909090909,4,2,1,70,0,1
200773,-90.9090909090909,4,2,1,5,0,1
200844,-90.9090909090909,4,2,1,70,0,1
201056,-90.9090909090909,4,2,1,5,0,1
201127,-90.9090909090909,4,2,1,70,0,1
201198,-90.9090909090909,4,2,1,5,0,1
201269,-90.9090909090909,4,2,1,70,0,1
201764,-90.9090909090909,4,2,1,5,0,1
201835,-90.9090909090909,4,2,1,70,0,1
202330,-90.9090909090909,4,2,1,5,0,1
202401,-90.9090909090909,4,2,1,70,0,1
202613,-90.9090909090909,4,2,1,5,0,1
202684,-90.9090909090909,4,2,1,70,0,1
202896,-90.9090909090909,4,2,1,5,0,1
202967,-90.9090909090909,4,2,1,70,0,1
203038,-90.9090909090909,4,2,1,5,0,1
203108,-90.9090909090909,4,2,1,70,0,1
203320,-90.9090909090909,4,2,1,5,0,1
203391,-90.9090909090909,4,2,1,70,0,1
203887,-90.9090909090909,4,2,1,5,0,1
203958,-90.9090909090909,4,2,1,70,0,1
204594,-90.9090909090909,4,2,1,5,0,1
204665,-90.9090909090909,4,2,1,70,0,1
205160,-90.9090909090909,4,2,1,5,0,1
205231,-90.9090909090909,4,2,1,70,0,1
207424,-90.9090909090909,4,2,1,5,0,1
207495,-90.9090909090909,4,2,1,70,0,1
207707,-90.9090909090909,4,2,1,5,0,1
207778,-90.9090909090909,4,2,1,70,0,1
208415,-90.9090909090909,4,2,1,5,0,1
208486,-90.9090909090909,4,2,1,70,0,1
208698,-90.9090909090909,4,2,1,5,0,1
208769,-90.9090909090909,4,2,1,70,0,1
208840,-90.9090909090909,4,2,1,5,0,1
208911,-90.9090909090909,4,2,1,70,0,1
208981,-90.9090909090909,4,2,1,5,0,1
209052,-90.9090909090909,4,2,1,70,0,1
209123,-90.9090909090909,4,2,1,5,0,1
209194,-90.9090909090909,4,2,1,70,0,1
209264,-90.9090909090909,4,2,1,5,0,1
209335,-90.9090909090909,4,2,1,70,0,1
209406,-90.9090909090909,4,2,1,5,0,1
209477,-90.9090909090909,4,2,1,70,0,1
209689,-90.9090909090909,4,2,1,5,0,1
209760,-90.9090909090909,4,2,1,70,0,1
210538,-90.9090909090909,4,2,1,5,0,1
210608,-90.9090909090909,4,2,1,70,0,1
211245,-90.9090909090909,4,2,1,5,0,1
211315,-90.9090909090909,4,2,1,70,0,1
212943,-90.9090909090909,4,2,1,5,0,1
213013,-90.9090909090909,4,2,1,70,0,1
214217,-90.9090909090909,4,2,1,5,0,1
214287,-90.9090909090909,4,2,1,70,0,1
215349,-90.9090909090909,4,2,1,5,0,1
215419,-90.9090909090909,4,2,1,70,0,1
216481,-90.9090909090909,4,2,1,5,0,1
216551,-90.9090909090909,4,2,1,70,0,1
217472,-90.9090909090909,4,2,1,5,0,1
217542,-90.9090909090909,4,2,1,70,0,1
218745,-90.9090909090909,4,2,1,5,0,1
218815,-90.9090909090909,4,2,1,70,0,1
219736,-90.9090909090909,4,2,1,5,0,1
219806,-90.9090909090909,4,2,1,70,0,1
220867,-90.9090909090909,4,2,1,5,0,1
220938,-90.9090909090909,4,2,1,70,0,1
221292,-90.9090909090909,4,2,1,5,0,1
221363,-90.9090909090909,4,2,1,70,0,1
221717,-90.9090909090909,4,2,1,5,0,1
221788,-90.9090909090909,4,2,1,70,0,1
222283,-90.9090909090909,4,2,1,5,0,1
222354,-90.9090909090909,4,2,1,70,0,1
222424,-90.9090909090909,4,2,1,5,0,1
222495,-90.9090909090909,4,2,1,70,0,1
222566,-90.9090909090909,4,2,1,5,0,1
222637,-90.9090909090909,4,2,1,70,0,1
222708,-90.9090909090909,4,2,1,5,0,1
222778,-90.9090909090909,4,2,1,70,0,1
222849,-90.9090909090909,4,2,1,5,0,1
222920,-90.9090909090909,4,2,1,70,0,1
222991,-90.9090909090909,4,2,1,5,0,1
223061,-100,4,2,1,60,0,0
223274,-100,4,2,1,5,0,0
223344,-100,4,2,1,60,0,0
224264,-100,4,2,1,5,0,0
224334,-100,4,2,1,60,0,0
225538,-100,4,2,1,5,0,0
225608,-100,4,2,1,60,0,0
226528,-100,4,2,1,5,0,0
226598,-100,4,2,1,60,0,0
227802,-100,4,2,1,5,0,0
227872,-100,4,2,1,60,0,0
228792,-100,4,2,1,5,0,0
228862,-100,4,2,1,60,0,0
230066,-100,4,2,1,5,0,0
230136,-100,4,2,1,60,0,0
231057,-100,4,2,1,5,0,0
231127,-100,4,2,1,60,0,0
232330,-100,4,2,1,5,0,0
232400,-100,4,2,1,60,0,0
233321,-100,4,2,1,5,0,0
233391,-100,4,2,1,60,0,0
234382,-100,4,2,1,70,0,0
234453,-100,4,2,1,5,0,0
234524,-100,4,2,1,70,0,0
234877,-100,4,2,1,5,0,0
234948,-100,4,2,1,70,0,0
235302,-100,4,2,1,5,0,0
235373,-100,4,2,1,70,0,0
236434,-100,4,2,1,5,0,0
236505,-100,4,2,1,70,0,0
236575,-100,4,2,1,5,0,0
236646,-125,4,2,1,50,0,0
245703,-125,4,2,1,60,0,0

[Colours]
Combo1 : 255,168,81
Combo2 : 255,128,128
Combo3 : 192,192,192
Combo4 : 179,102,102

[HitObjects]
188,356,5703,5,8,0:0:0:0:
92,384,5844,1,8,0:0:0:0:
92,384,7967,5,8,0:0:0:0:
188,356,8108,1,8,0:0:0:0:
40,300,8391,1,8,0:0:0:0:
40,300,8674,5,8,0:0:0:0:
188,356,8816,1,8,0:0:0:0:
136,272,8958,1,8,0:0:0:0:
136,272,9665,6,0,B|144:232|144:232|136:216|136:216|148:164,1,95.9999970703126,2|0,0:0|0:0,0:0:0:0:
144,180,10231,5,8,0:0:0:0:
68,132,10373,2,0,P|144:92|200:112,1,128,8|2,0:0|0:1,0:0:0:0:
220,224,10797,2,0,L|356:212,1,128,8|0,0:0|0:0,0:0:0:0:
420,264,11222,1,0,0:0:0:0:
428,176,11363,6,0,L|436:108,2,64,2|0|2,0:1|0:0|0:1,0:0:0:0:
500,228,11788,1,0,0:0:0:0:
446,346,11929,2,0,P|383:344|339:299,1,128,8|0,0:0|0:0,0:0:0:0:
420,264,12495,5,8,0:0:0:0:
428,176,12637,1,8,0:0:0:0:
428,176,12778,2,0,L|420:112,1,64,8|0,0:0|0:0,0:0:0:0:
340,80,13061,2,0,L|347:16,1,64,8|0,0:0|0:0,0:0:0:0:
436,24,13344,1,0,0:0:0:0:
340,80,13486,6,0,B|288:44|288:44|216:56,1,128,8|0,0:0|0:0,0:0:0:0:
140,76,13910,1,2,0:1:0:0:
140,76,14193,2,0,P|166:133|169:197,1,128,8|2,0:0|0:1,0:0:0:0:
132,276,14618,1,2,0:0:0:0:
169,197,14759,5,8,0:0:0:0:
169,197,14901,2,0,P|104:192|48:252,1,128,8|2,0:0|0:1,0:0:0:0:
0,347,15325,2,0,P|62:341|112:380,1,128,8|0,0:0|0:0,0:0:0:0:
192,340,15750,1,0,0:0:0:0:
268,384,15891,6,0,L|331:376,2,64,2|0|2,0:1|0:0|0:1,0:0:0:0:
192,340,16316,1,0,0:0:0:0:
248,236,16458,2,0,L|375:250,1,128,8|0,0:0|0:0,0:0:0:0:
416,172,17024,5,8,0:0:0:0:
497,201,17166,1,8,0:0:0:0:
497,201,17307,2,0,P|503:170|496:140,1,64,8|0,0:0|0:0,0:0:0:0:
427,83,17590,2,0,P|420:52|428:22,1,64,8|0,0:0|0:0,0:0:0:0:
508,52,17873,1,0,0:0:0:0:
416,172,18014,6,0,L|288:157,1,128,8|0,0:0|0:0,0:0:0:0:
252,76,18439,1,2,0:1:0:0:
252,76,18722,5,8,0:0:0:0:
252,76,18863,1,2,0:0:0:0:
200,148,19005,5,8,0:0:0:0:
200,148,19146,1,0,0:0:0:0:
164,68,19288,6,0,L|84:60,2,80,2|2|2,0:0|0:0|0:0,0:0:0:0:
279,139,20137,5,2,0:0:0:0:
200,148,20278,1,2,0:1:0:0:
200,148,20349,1,2,0:1:0:0:
200,148,20420,6,0,L|279:140,1,80,4|0,0:0|0:0,0:0:0:0:
380,68,20703,2,0,L|373:147,1,80,10|0,0:0|0:0,0:0:0:0:
316,220,20986,1,2,0:0:0:0:
279,139,21127,1,2,0:0:0:0:
236,256,21269,1,8,0:0:0:0:
316,220,21410,6,0,B|356:240|356:240|484:216,1,160,2|0,0:0|0:0,0:0:0:0:
512,384,21835,2,0,L|433:369,1,80,8|0,0:0|0:0,0:0:0:0:
480,296,22118,1,2,0:0:0:0:
433,369,22259,1,2,0:0:0:0:
356,328,22401,2,0,L|277:343,1,80,8|2,0:0|0:0,0:0:0:0:
200,384,22684,1,2,0:1:0:0:
200,384,22967,6,0,L|121:369,1,80,10|0,0:0|0:0,0:0:0:0:
64,220,23250,1,2,0:0:0:0:
128,280,23392,1,2,0:0:0:0:
36,316,23533,1,8,0:0:0:0:
64,220,23674,6,0,P|65:144|131:106,1,160,2|0,0:0|0:0,0:0:0:0:
253,194,24099,2,0,P|214:201|176:192,1,80,8|0,0:0|0:0,0:0:0:0:
131,105,24382,1,2,0:0:0:0:
220,60,24524,1,2,0:0:0:0:
131,105,24665,2,0,P|92:97|53:107,1,80,8|2,0:0|0:0,0:0:0:0:
0,192,24948,5,2,0:1:0:0:
0,192,25231,2,0,L|12:280,1,80,10|0,0:0|0:0,0:0:0:0:
128,384,25514,1,2,0:0:0:0:
112,284,25656,1,2,0:0:0:0:
44,356,25797,1,8,0:0:0:0:
192,324,25939,6,0,B|232:352|232:352|344:320,1,160,2|0,0:0|0:0,0:0:0:0:
488,236,26363,2,0,L|409:221,1,80,8|0,0:0|0:0,0:0:0:0:
425,313,26646,1,2,0:0:0:0:
324,236,26788,1,2,0:0:0:0:
425,142,26929,2,0,L|410:221,1,80,8|2,0:0|0:0,0:0:0:0:
322,134,27212,6,0,P|322:61|394:52,1,160,2|10,0:1|0:0,0:0:0:0:
395,52,27778,1,2,0:0:0:0:
425,142,27920,1,2,0:0:0:0:
480,72,28061,1,8,0:0:0:0:
425,142,28203,2,0,L|440:221,1,80,2|0,0:0|0:0,0:0:0:0:
360,278,28486,5,4,0:0:0:0:
434,343,28627,1,8,0:0:0:0:
439,220,28768,1,8,0:0:0:0:
360,278,28910,2,0,L|345:199,1,80,4|2,0:0|0:0,0:0:0:0:
434,343,29193,2,0,L|513:358,1,80,12|8,0:0|0:0,0:0:0:0:
360,278,29476,6,0,L|281:284,1,80,4|0,0:0|0:0,0:0:0:0:
232,376,29759,2,0,L|153:369,1,80,10|0,0:0|0:0,0:0:0:0:
32,280,30042,1,2,0:0:0:0:
68,360,30184,1,2,0:0:0:0:
132,272,30325,1,8,0:0:0:0:
76,204,30467,6,0,B|48:180|48:180|68:48,1,160,2|0,0:0|0:0,0:0:0:0:
184,0,30891,2,0,L|199:97,1,80,8|0,0:0|0:0,0:0:0:0:
284,128,31174,1,2,0:0:0:0:
196,79,31316,1,2,0:0:0:0:
295,48,31458,2,0,L|283:128,1,80,8|2,0:0|0:0,0:0:0:0:
264,228,31741,1,2,0:1:0:0:
264,228,32024,6,0,L|380:248,1,80,10|0,0:0|0:0,0:0:0:0:
416,192,32307,1,2,0:0:0:0:
420,324,32449,1,2,0:0:0:0:
484,256,32590,1,8,0:0:0:0:
420,324,32731,6,0,L|244:356,1,160,2|0,0:0|0:0,0:0:0:0:
149,382,33156,2,0,L|164:304,1,80,8|0,0:0|0:0,0:0:0:0:
164,200,33439,1,2,0:0:0:0:
80,252,33580,1,2,0:0:0:0:
164,200,33722,2,0,L|179:122,1,80,8|2,0:0|0:0,0:0:0:0:
196,36,34005,5,4,0:0:0:0:
196,36,34288,2,0,L|274:51,1,80,10|0,0:0|0:0,0:0:0:0:
352,8,34571,1,2,0:0:0:0:
352,96,34712,1,2,0:0:0:0:
274,51,34854,1,8,0:0:0:0:
352,96,34995,6,0,P|377:170|351:243,1,160,2|0,0:0|0:0,0:0:0:0:
198,187,35420,2,0,L|276:172,1,80,8|0,0:0|0:0,0:0:0:0:
256,268,35703,1,2,0:0:0:0:
276,171,35844,1,2,0:0:0:0:
177,283,35986,2,0,L|255:268,1,80,8|2,0:0|0:0,0:0:0:0:
350,244,36269,6,0,P|412:292|412:392,1,160,2|8,0:1|0:0,0:0:0:0:
421,368,36835,1,2,0:0:0:0:
320,384,36976,1,2,0:0:0:0:
350,244,37118,1,8,0:0:0:0:
236,324,37259,6,0,P|152:304|56:304,1,160,4|8,0:0|0:0,0:0:0:0:
16,240,37684,1,8,0:0:0:0:
78,301,37825,1,8,0:0:0:0:
100,216,37967,2,0,P|80:176|32:156,1,80,12|10,0:0|0:0,0:0:0:0:
74,73,38250,2,0,P|35:69|0:87,1,80,10|10,0:0|0:0,0:0:0:0:
164,120,38533,1,12,0:0:0:0:
164,120,38674,6,0,L|172:44,1,55.9999982910157,8|0,0:0|0:0,0:0:0:0:
264,20,38958,2,0,L|280:144,1,111.999996582031,0|2,0:0|0:1,0:0:0:0:
216,192,39382,1,10,0:0:0:0:
216,192,39524,1,8,0:0:0:0:
216,192,39948,6,0,L|221:247,1,55.9999982910157,8|0,0:0|0:0,0:0:0:0:
304,280,40231,2,0,L|298:335,1,55.9999982910157,2|2,0:1|0:1,0:0:0:0:
156,356,40514,2,0,L|208:336,1,55.9999982910157,8|2,0:0|0:0,0:0:0:0:
304,280,40797,6,0,L|460:341,2,167.999994873047,8|0|10,0:0|0:0|0:0,0:0:0:0:
304,280,41788,1,8,0:0:0:0:
221,247,42071,1,2,0:1:0:0:
221,247,42212,2,0,L|169:267,1,55.9999982910157,8|0,0:0|0:0,0:0:0:0:
296,188,42495,2,0,L|348:208,1,55.9999982910157,2|0,0:0|0:0,0:0:0:0:
208,152,42778,2,0,L|188:100,1,55.9999982910157,8|0,0:0|0:0,0:0:0:0:
256,24,43061,5,8,0:0:0:0:
440,0,43344,1,0,0:0:0:0:
365,47,43486,2,0,L|256:24,1,111.999996582031,0|2,0:0|0:1,0:0:0:0:
164,8,43910,1,10,0:0:0:0:
164,8,44052,1,8,0:0:0:0:
164,8,44476,6,0,L|96:16,1,55.9999982910157,8|0,0:0|0:0,0:0:0:0:
0,81,44759,2,0,L|56:88,1,55.9999982910157,8|8,0:0|0:0,0:0:0:0:
150,155,45042,2,0,L|144:100,1,55.9999982910157,8|8,0:0|0:0,0:0:0:0:
64,176,45325,5,2,0:1:0:0:
64,176,45467,1,2,0:1:0:0:
124,244,45608,2,0,L|308:216,1,167.999994873047,8|0,0:0|0:0,0:0:0:0:
360,140,46174,1,8,0:0:0:0:
360,140,46316,2,0,L|248:120,1,111.999996582031,2|2,0:1|0:1,0:0:0:0:
249,120,46741,5,8,0:0:0:0:
290,218,46882,1,2,0:0:0:0:
248,312,47024,1,2,0:1:0:0:
248,312,47307,5,12,0:0:0:0:
290,218,47448,1,8,0:0:0:0:
249,120,47590,2,0,L|118:140,1,111.999996582031,12|0,0:0|0:0,0:0:0:0:
180,232,48014,2,0,L|69:215,1,111.999996582031,0|2,0:0|0:1,0:0:0:0:
48,128,48439,1,10,0:0:0:0:
48,128,48580,1,8,0:0:0:0:
48,128,49005,6,0,L|36:68,1,55.9999982910157,8|0,0:0|0:0,0:0:0:0:
138,1,49288,2,0,L|128:56,1,55.9999982910157,2|2,0:1|0:1,0:0:0:0:
194,145,49571,2,0,L|138:136,1,55.9999982910157,8|8,0:0|0:0,0:0:0:0:
56,216,49854,6,0,L|32:396,2,167.999994873047,8|0|10,0:0|0:0|0:0,0:0:0:0:
56,216,50844,1,8,0:0:0:0:
48,128,51127,1,2,0:1:0:0:
48,128,51269,2,0,L|104:137,1,55.9999982910157,8|0,0:0|0:0,0:0:0:0:
152,216,51552,2,0,L|208:207,1,55.9999982910157,2|0,0:0|0:0,0:0:0:0:
264,136,51835,2,0,L|255:80,1,55.9999982910157,8|0,0:0|0:0,0:0:0:0:
324,4,52118,6,0,L|490:28,2,167.999994873047,2|2|10,0:0|0:0|0:0,0:0:0:0:
324,4,53108,1,8,0:0:0:0:
255,80,53250,6,0,L|88:104,2,167.999994873047,2|2|10,0:0|0:0|0:0,0:0:0:0:
324,4,54241,1,8,0:0:0:0:
352,128,54382,1,2,0:1:0:0:
352,128,54665,2,0,L|340:192,1,55.9999982910157,2|0,0:0|0:0,0:0:0:0:
256,212,54948,1,2,0:1:0:0:
256,212,55090,1,2,0:1:0:0:
324,272,55231,2,0,L|388:284,1,55.9999982910157,8|2,0:0|0:1,0:0:0:0:
256,212,55514,6,0,L|200:222,1,55.9999982910157,6|0,0:0|0:0,0:0:0:0:
100,289,55797,2,0,L|156:300,1,55.9999982910157,6|0,0:0|0:0,0:0:0:0:
92,200,56080,1,8,0:0:0:0:
12,276,56222,1,8,0:0:0:0:
100,192,56363,1,8,0:0:0:0:
32,132,56505,1,8,0:0:0:0:
84,72,56646,6,0,P|144:40|228:52,1,143.999995605469,4|2,0:0|0:0,0:0:0:0:
270,105,57212,2,0,P|251:119|228:123,1,47.9999985351563,0|0,0:0|0:0,0:0:0:0:
304,32,57495,2,0,P|325:41|341:59,1,47.9999985351563,10|2,0:0|0:1,0:0:0:0:
416,92,57778,6,0,P|420:144|368:224,1,143.999995605469,2|2,0:0|0:0,0:0:0:0:
344,292,58344,2,0,P|322:282|306:264,1,47.9999985351563,0|0,0:0|0:0,0:0:0:0:
227,276,58627,2,0,P|225:252|233:229,1,47.9999985351563,10|2,0:0|0:1,0:0:0:0:
300,168,58910,5,2,0:1:0:0:
300,168,59193,2,0,P|302:144|294:121,1,47.9999985351563,2|0,0:0|0:0,0:0:0:0:
344,60,59476,2,0,P|324:45|301:41,1,47.9999985351563,10|0,0:0|0:0,0:0:0:0:
212,72,59759,1,8,0:0:0:0:
212,72,59901,6,0,P|188:96|76:88,1,143.999995605469,10|2,0:0|0:1,0:0:0:0:
24,48,60467,1,2,0:1:0:0:
24,48,60608,2,0,P|9:68|5:91,1,47.9999985351563,2|8,0:0|0:0,0:0:0:0:
43,175,60891,2,0,P|20:180|1:195,1,47.9999985351563,6|8,0:0|0:0,0:0:0:0:
0,300,61174,6,0,P|66:324|132:299,1,143.999995605469,4|2,0:0|0:0,0:0:0:0:
192,232,61741,1,0,0:0:0:0:
192,232,61882,1,0,0:0:0:0:
123,172,62024,2,0,P|111:193|104:215,1,47.9999985351563,10|2,0:0|0:1,0:0:0:0:
208,144,62307,2,0,P|208:100|160:12,1,143.999995605469,2|2,0:0|0:0,0:0:0:0:
72,0,62873,1,0,0:0:0:0:
72,0,63014,1,0,0:0:0:0:
48,88,63156,2,0,P|76:92|108:84,1,47.9999985351563,10|2,0:0|0:1,0:0:0:0:
161,13,63439,5,2,0:0:0:0:
272,64,63580,1,2,0:1:0:0:
348,12,63722,1,2,0:0:0:0:
348,12,64005,5,2,0:0:0:0:
272,64,64147,1,8,0:0:0:0:
388,104,64288,1,2,0:1:0:0:
323,202,64429,2,0,L|312:140,1,64,10|0,0:0|0:0,0:0:0:0:
408,212,64712,1,2,0:0:0:0:
328,304,64854,1,2,0:1:0:0:
328,304,65137,2,0,B|280:344|280:344|196:328,1,128,10|0,0:0|0:0,0:0:0:0:
128,312,65561,1,10,0:0:0:0:
184,176,65703,6,0,L|192:240,2,64,2|2|2,0:1|0:1|0:0,0:0:0:0:
184,176,66976,6,0,P|228:192|256:156,1,96,0|2,0:0|0:0,0:0:0:0:
212,68,67684,5,2,0:0:0:0:
300,12,67825,5,2,0:1:0:0:
300,12,67896,1,2,0:1:0:0:
300,12,67967,2,0,L|508:36,1,176.000005371094,4|8,0:0|0:0,0:0:0:0:
474,32,68391,1,0,0:0:0:0:
424,180,68533,2,0,L|512:168,1,88.000002685547,2|2,0:1|0:1,0:0:0:0:
364,112,68816,1,8,0:0:0:0:
480,264,68958,1,0,0:0:0:0:
400,328,69099,6,0,L|312:316,1,88.000002685547,2|0,0:1|0:0,0:0:0:0:
256,232,69382,1,8,0:0:0:0:
50,304,69524,2,0,B|120:356|120:356|200:316,1,176.000005371094,2|2,0:0|0:1,0:0:0:0:
139,148,69948,2,0,L|132:236,1,88.000002685547,10|0,0:0|0:0,0:0:0:0:
188,60,70231,6,0,P|146:47|102:54,1,88.000002685547,2|0,0:0|0:0,0:0:0:0:
240,148,70514,2,0,P|272:118|288:76,1,88.000002685547,10|0,0:0|0:0,0:0:0:0:
188,60,70797,1,2,0:1:0:0:
188,60,70939,1,2,0:1:0:0:
332,0,71080,1,8,0:0:0:0:
380,76,71222,6,0,P|420:156|512:188,1,176.000005371094,2|2,0:0|0:1,0:0:0:0:
496,296,71646,2,0,P|440:296|412:324,1,88.000002685547,8|0,0:0|0:0,0:0:0:0:
324,263,71929,2,0,P|328:221|304:185,1,88.000002685547,2|0,0:0|0:0,0:0:0:0:
224,248,72212,1,8,0:0:0:0:
328,372,72354,1,2,0:1:0:0:
136,296,72495,6,0,P|129:213|208:148,2,176.000005371094,4|8|2,0:0|0:0|0:1,0:0:0:0:
223,352,73203,1,2,0:1:0:0:
324,263,73344,1,8,0:0:0:0:
224,176,73486,6,0,P|195:94|223:12,1,176.000005371094,2|2,0:0|0:1,0:0:0:0:
368,52,73910,2,0,P|380:93|368:135,1,88.000002685547,8|0,0:0|0:0,0:0:0:0:
288,96,74193,1,2,0:0:0:0:
288,96,74335,1,0,0:0:0:0:
388,224,74476,2,0,P|429:211|471:223,1,88.000002685547,8|0,0:0|0:0,0:0:0:0:
512,372,74759,6,0,L|336:340,1,176.000005371094,2|8,0:0|0:0,0:0:0:0:
126,287,75184,2,0,L|299:256,1,176.000005371094,2|2,0:0|0:1,0:0:0:0:
451,87,75608,1,8,0:0:0:0:
357,51,75750,6,0,L|388:224,1,176.000005371094,4|2,0:0|0:1,0:0:0:0:
500,276,76174,2,0,P|457:280|428:311,1,88.000002685547,8|2,0:0|0:0,0:0:0:0:
264,384,76458,2,0,B|252:340|252:340|264:292,1,88.000002685547,8|2,0:0|0:0,0:0:0:0:
344,340,76741,1,14,0:0:0:0:
256,208,76882,1,2,0:0:0:0:
164,340,77024,6,0,B|84:372|84:372|0:340,1,176.000005371094,6|8,0:0|0:0,0:0:0:0:
46,194,77448,2,0,P|80:221|84:263,1,88.000002685547,2|0,0:0|0:0,0:0:0:0:
0,340,77731,1,2,0:0:0:0:
84,263,77873,2,0,L|180:232,1,88.000002685547,8|0,0:0|0:0,0:0:0:0:
288,128,78156,6,0,B|256:208|256:208|287:292,1,176.000005371094,2|8,0:0|0:0,0:0:0:0:
433,245,78580,2,0,P|406:211|363:207,1,88.000002685547,2|0,0:0|0:0,0:0:0:0:
288,291,78863,1,2,0:0:0:0:
363,206,79005,2,0,L|390:122,1,88.000002685547,8|0,0:0|0:0,0:0:0:0:
512,16,79288,6,0,B|467:55|467:55|356:20,1,176.000005371094,2|8,0:0|0:0,0:0:0:0:
234,126,79712,2,0,B|345:161|345:161|390:122,1,176.000005371094,2|2,0:0|0:0,0:0:0:0:
256,24,80137,1,8,0:0:0:0:
160,56,80278,6,0,P|104:24|64:112,1,176.000005371094,4|2,0:0|0:1,0:0:0:0:
140,168,80703,2,0,P|152:209|142:251,1,88.000002685547,8|0,0:0|0:0,0:0:0:0:
31,298,80986,2,0,L|48:212,1,88.000002685547,2|4,0:0|0:0,0:0:0:0:
199,335,81269,2,0,P|155:339|113:352,1,88.000002685547,8|2,0:0|0:1,0:0:0:0:
256,236,81552,6,0,L|464:268,2,176.000005371094,4|8|2,0:0|0:0|0:1,0:0:0:0:
256,236,82259,1,2,0:1:0:0:
124,144,82401,1,8,0:0:0:0:
239,57,82542,6,0,P|229:100|224:144,1,88.000002685547,2|0,0:0|0:0,0:0:0:0:
52,240,82825,1,2,0:1:0:0:
147,317,82967,2,0,P|141:230|124:144,1,176.000005371094,8|2,0:0|0:1,0:0:0:0:
124,144,83391,1,2,0:1:0:0:
239,57,83533,1,8,0:0:0:0:
88,20,83674,1,2,0:0:0:0:
224,143,83816,6,0,L|336:132,1,88.000002685547,2|0,0:0|0:0,0:0:0:0:
392,8,84099,2,0,B|376:52|376:52|393:89,1,88.000002685547,4|0,0:0|0:0,0:0:0:0:
472,244,84382,1,2,0:0:0:0:
512,172,84524,2,0,B|468:156|468:156|430:173,1,88.000002685547,4|8,0:0|0:0,0:0:0:0:
336,316,84807,6,0,L|511:334,1,176.000005371094,2|2,0:0|0:1,0:0:0:0:
360,228,85231,1,8,0:0:0:0:
244,328,85373,1,2,0:1:0:0:
216,160,85514,1,8,0:0:0:0:
268,236,85656,1,8,0:0:0:0:
144,220,85797,2,0,L|56:208,1,88.000002685547,8|8,0:0|0:0,0:0:0:0:
180,64,86080,6,0,B|212:36|212:36|364:60,1,176.000005371094,4|8,0:0|0:0,0:0:0:0:
343,56,86505,1,0,0:0:0:0:
447,215,86646,2,0,L|359:227,1,88.000002685547,2|2,0:1|0:1,0:0:0:0:
392,140,86929,1,8,0:0:0:0:
272,236,87071,1,0,0:0:0:0:
372,316,87212,6,0,L|460:303,1,88.000002685547,2|0,0:1|0:0,0:0:0:0:
272,384,87495,1,8,0:0:0:0:
184,312,87637,2,0,B|100:336|100:336|4:272,1,176.000005371094,2|2,0:0|0:1,0:0:0:0:
102,143,88061,2,0,B|126:179|126:179|120:224,1,88.000002685547,10|0,0:0|0:0,0:0:0:0:
24,72,88344,6,0,P|57:44|101:39,1,88.000002685547,2|2,0:0|0:1,0:0:0:0:
169,194,88627,2,0,P|128:178|102:143,1,88.000002685547,8|0,0:0|0:0,0:0:0:0:
192,92,88910,1,2,0:1:0:0:
192,92,89052,1,2,0:1:0:0:
256,248,89193,1,8,0:0:0:0:
340,204,89335,6,0,P|423:179|505:206,1,176.000005371094,2|2,0:0|0:1,0:0:0:0:
464,320,89759,2,0,P|422:332|380:320,1,88.000002685547,8|0,0:0|0:0,0:0:0:0:
256,248,90042,2,0,P|243:206|255:164,1,88.000002685547,2|0,0:0|0:0,0:0:0:0:
336,20,90325,1,8,0:0:0:0:
176,100,90467,1,2,0:1:0:0:
336,116,90608,6,0,L|511:133,2,176.000005371094,4|8|2,0:0|0:0|0:1,0:0:0:0:
336,116,91316,1,2,0:1:0:0:
236,16,91458,2,0,L|148:25,1,88.000002685547,8|0,0:0|0:0,0:0:0:0:
32,132,91741,2,0,L|119:141,1,88.000002685547,2|2,0:0|0:1,0:0:0:0:
284,240,92024,1,8,0:0:0:0:
194,283,92165,6,0,L|211:107,1,176.000005371094,2|2,0:0|0:1,0:0:0:0:
211,107,92590,1,8,0:0:0:0:
284,240,92731,1,2,0:1:0:0:
108,220,92873,6,0,L|20:210,1,88.000002685547,6|0,0:0|0:0,0:0:0:0:
128,376,93156,2,0,L|336:352,1,176.000005371094,8|2,0:0|0:1,0:0:0:0:
488,256,93580,1,2,0:1:0:0:
400,147,93722,1,8,0:0:0:0:
400,316,93863,6,0,B|376:264|376:264|400:148,1,176.000005371094,6|2,0:0|0:1,0:0:0:0:
488,256,94288,2,0,L|506:169,1,88.000002685547,8|0,0:0|0:0,0:0:0:0:
418,61,94571,2,0,L|400:148,1,88.000002685547,2|2,0:1|0:1,0:0:0:0:
256,68,94854,1,6,0:0:0:0:
352,0,94995,1,0,0:0:0:0:
288,184,95137,6,0,L|201:165,1,88.000002685547,6|0,0:0|0:0,0:0:0:0:
52,44,95420,2,0,P|104:110|80:192,1,176.000005371094,8|2,0:0|0:1,0:0:0:0:
60,292,95844,1,8,0:0:0:0:
0,132,95986,1,2,0:1:0:0:
156,256,96127,6,0,L|328:292,1,176.000005371094,2|2,0:0|0:1,0:0:0:0:
433,150,96552,2,0,B|401:194|401:194|408:228,1,88.000002685547,8|0,0:0|0:0,0:0:0:0:
456,380,96835,2,0,B|488:336|488:336|481:302,1,88.000002685547,2|0,0:0|0:0,0:0:0:0:
312,200,97118,1,8,0:0:0:0:
404,304,97259,1,2,0:1:0:0:
433,150,97401,6,0,B|439:116|439:116|407:72,1,88.000002685547,4|2,0:0|0:1,0:0:0:0:
336,0,97684,1,8,0:0:0:0:
492,44,97825,1,4,0:0:0:0:
344,136,97967,1,2,0:1:0:0:
344,136,98108,1,2,0:1:0:0:
476,228,98250,1,12,0:0:0:0:
412,308,98391,6,0,B|324:344|324:344|233:308,1,192,12|0,0:0|0:0,0:0:0:0:
144,384,98958,1,2,0:1:0:0:
144,384,99028,1,2,0:1:0:0:
144,384,99099,2,0,P|136:336|112:284,1,88.000002685547,8|8,0:0|0:0,0:0:0:0:
20,248,99382,2,0,P|54:220|81:186,1,88.000002685547,8|8,0:0|0:0,0:0:0:0:
152,52,99665,5,4,0:0:0:0:
152,52,99948,2,0,L|231:59,1,80,10|0,0:0|0:0,0:0:0:0:
304,116,100231,1,2,0:0:0:0:
223,153,100372,1,10,0:0:0:0:
316,24,100514,1,0,0:0:0:0:
388,80,100656,6,0,B|404:116|404:116|372:236,1,160,2|0,0:0|0:0,0:0:0:0:
488,356,101080,2,0,L|409:338,1,80,8|0,0:0|0:0,0:0:0:0:
468,268,101363,1,2,0:0:0:0:
409,338,101505,1,2,0:0:0:0:
316,304,101646,2,0,L|237:321,1,80,8|2,0:0|0:0,0:0:0:0:
152,380,101929,5,2,0:1:0:0:
152,380,102212,2,0,L|136:284,1,80,10|0,0:0|0:0,0:0:0:0:
64,164,102495,1,2,0:0:0:0:
128,224,102637,1,2,0:0:0:0:
36,260,102778,1,8,0:0:0:0:
64,164,102919,6,0,P|65:88|131:50,1,160,2|0,0:0|0:0,0:0:0:0:
253,138,103344,2,0,P|214:145|176:136,1,80,8|0,0:0|0:0,0:0:0:0:
131,49,103627,1,2,0:0:0:0:
220,4,103769,1,2,0:0:0:0:
130,48,103910,2,0,P|92:40|53:50,1,80,8|2,0:0|0:0,0:0:0:0:
175,135,104193,5,4,0:0:0:0:
175,135,104476,2,0,L|192:232,1,80,8|0,0:0|0:0,0:0:0:0:
288,336,104759,1,2,0:0:0:0:
272,236,104901,1,2,0:0:0:0:
204,308,105042,1,8,0:0:0:0:
352,276,105184,6,0,B|392:304|392:304|504:272,1,160,2|0,0:0|0:0,0:0:0:0:
512,152,105608,2,0,L|435:174,1,80,8|0,0:0|0:0,0:0:0:0:
352,124,105891,1,2,0:0:0:0:
435,174,106033,1,2,0:0:0:0:
329,47,106174,2,0,L|351:123,1,80,8|2,0:0|0:0,0:0:0:0:
292,200,106458,6,0,B|252:212|252:212|208:200,1,80,2|0,1:0|0:0,0:0:0:0:
144,124,106741,2,0,B|104:112|104:112|60:124,1,80,10|0,0:0|0:0,0:0:0:0:
104,212,107024,1,2,0:0:0:0:
67,122,107165,1,2,0:0:0:0:
8,200,107307,1,8,0:0:0:0:
100,300,107448,6,0,B|140:312|140:312|176:301,1,80,4|8,0:0|0:0,0:0:0:0:
176,302,107660,1,8,0:0:0:0:
176,302,107731,1,8,0:0:0:0:
256,384,107873,1,8,0:0:0:0:
364,276,108014,1,8,0:0:0:0:
263,211,108156,2,0,L|273:291,1,80,12|8,0:0|0:0,0:0:0:0:
373,355,108439,2,0,L|363:275,1,80,8|8,0:0|0:0,0:0:0:0:
263,211,108722,5,4,0:0:0:0:
263,211,108863,2,0,L|268:155,1,55.9999982910157,0|8,0:0|0:0,0:0:0:0:
372,192,109146,2,0,L|356:68,1,111.999996582031,0|2,0:0|0:1,0:0:0:0:
420,20,109570,1,8,0:0:0:0:
420,20,109712,1,8,0:0:0:0:
420,20,110137,6,0,L|484:32,1,55.9999982910157,8|0,0:0|0:0,0:0:0:0:
496,120,110420,2,0,L|432:132,1,55.9999982910157,2|2,0:1|0:1,0:0:0:0:
348,136,110703,2,0,L|358:80,1,55.9999982910157,8|2,0:0|0:0,0:0:0:0:
272,20,110986,6,0,L|84:56,2,167.999994873047,8|0|8,0:0|0:0|0:0,0:0:0:0:
272,20,111976,1,8,0:0:0:0:
358,80,112259,1,0,0:0:0:0:
358,80,112401,2,0,L|348:136,1,55.9999982910157,8|0,0:0|0:0,0:0:0:0:
272,188,112684,2,0,L|216:177,1,55.9999982910157,10|0,0:0|0:0,0:0:0:0:
356,228,112967,2,0,L|411:217,1,55.9999982910157,8|8,0:0|0:0,0:0:0:0:
492,264,113250,5,8,0:0:0:0:
432,100,113533,1,8,0:0:0:0:
503,151,113674,2,0,L|491:263,1,111.999996582031,0|2,0:0|0:1,0:0:0:0:
484,356,114099,1,8,0:0:0:0:
484,356,114241,1,8,0:0:0:0:
484,356,114665,6,0,L|416:348,1,55.9999982910157,8|0,0:0|0:0,0:0:0:0:
360,288,114948,2,0,L|304:295,1,55.9999982910157,8|8,0:0|0:0,0:0:0:0:
236,356,115231,2,0,L|180:349,1,55.9999982910157,8|2,0:0|0:0,0:0:0:0:
88,376,115514,5,2,0:1:0:0:
88,376,115656,1,2,0:1:0:0:
116,284,115797,2,0,L|88:100,1,167.999994873047,8|0,0:0|0:0,0:0:0:0:
176,80,116363,1,8,0:0:0:0:
176,80,116505,2,0,L|194:195,1,111.999996582031,8|2,0:0|0:1,0:0:0:0:
193,190,116929,5,8,0:0:0:0:
291,149,117070,1,2,0:0:0:0:
364,224,117212,1,2,0:0:0:0:
364,224,117495,5,4,0:0:0:0:
291,149,117637,1,2,0:1:0:0:
193,190,117778,6,0,L|98:172,4,95.9999970703126,4|2|2|2|2,0:0|0:0|0:0|0:0|0:0,0:0:0:0:
36,256,119193,1,2,0:0:0:0:
130,273,119476,2,0,L|35:255,1,95.9999970703126,2|4,0:1|0:0,0:0:0:0:
193,190,120042,5,8,0:0:0:0:
224,276,120184,1,8,0:0:0:0:
193,190,120325,1,8,0:0:0:0:
272,136,120467,2,0,L|397:158,1,128,4|2,0:0|0:1,0:0:0:0:
428,251,120891,1,8,0:0:0:0:
428,251,121033,6,0,L|301:228,1,128,8|2,0:0|0:1,0:0:0:0:
160,286,121458,2,0,L|224:276,1,64,8|0,0:0|0:0,0:0:0:0:
193,190,121741,2,0,L|129:200,1,64,10|0,0:0|0:0,0:0:0:0:
69,271,122024,1,8,0:0:0:0:
69,271,122165,1,8,0:0:0:0:
38,183,122307,6,0,B|16:24|16:24|48:0,2,192,2|2|10,0:0|0:0|0:0,0:0:0:0:
38,183,123297,1,8,0:0:0:0:
129,200,123439,6,0,L|324:170,2,192,2|2|10,0:0|0:0|0:0,0:0:0:0:
38,183,124429,1,8,0:0:0:0:
160,286,124571,1,2,0:1:0:0:
160,286,124854,2,0,L|224:276,1,64,8|0,0:0|0:0,0:0:0:0:
283,205,125137,1,2,0:1:0:0:
283,205,125278,1,2,0:1:0:0:
315,287,125420,2,0,L|325:351,1,64,8|2,0:0|0:1,0:0:0:0:
282,205,125703,6,0,L|292:141,1,64,6|0,0:0|0:0,0:0:0:0:
385,151,125986,2,0,L|375:87,1,64,6|0,0:0|0:0,0:0:0:0:
256,28,126269,1,8,0:0:0:0:
368,76,126410,1,8,0:0:0:0:
263,17,126552,1,8,0:0:0:0:
188,76,126693,1,8,0:0:0:0:
120,32,126835,6,0,P|72:56|20:140,1,143.999995605469,4|2,0:0|0:0,0:0:0:0:
0,208,127401,2,0,P|24:212|53:203,1,47.9999985351563,0|0,0:0|0:0,0:0:0:0:
104,264,127684,2,0,P|120:246|126:223,1,47.9999985351563,10|2,0:0|0:1,0:0:0:0:
168,152,127967,6,0,P|216:176|268:260,1,143.999995605469,2|2,0:0|0:0,0:0:0:0:
288,328,128533,2,0,P|264:332|235:323,1,47.9999985351563,0|0,0:0|0:0,0:0:0:0:
346,267,128816,2,0,P|361:285|368:315,1,47.9999985351563,10|2,0:0|0:1,0:0:0:0:
432,360,129099,5,2,0:1:0:0:
432,360,129382,2,0,P|443:341|450:309,1,47.9999985351563,2|0,0:0|0:0,0:0:0:0:
512,260,129665,2,0,P|500:239|494:215,1,47.9999985351563,10|0,0:0|0:0,0:0:0:0:
512,132,129948,1,8,0:0:0:0:
512,132,130090,2,0,P|436:100|360:108,1,143.999995605469,8|8,0:0|0:0,0:0:0:0:
301,49,130656,1,2,0:1:0:0:
300,49,130797,2,0,P|287:69|283:92,1,47.9999985351563,2|8,0:0|0:0,0:0:0:0:
302,220,131080,2,0,P|315:200|320:177,1,47.9999985351563,4|8,0:0|0:0,0:0:0:0:
227,166,131363,6,0,P|155:167|90:137,1,143.999995605469,4|2,0:0|0:0,0:0:0:0:
12,88,131929,1,0,0:0:0:0:
12,88,132071,1,2,0:1:0:0:
118,5,132212,2,0,P|101:22|93:45,1,47.9999985351563,10|2,0:0|0:1,0:0:0:0:
12,88,132495,6,0,P|0:148|31:231,1,143.999995605469,2|2,0:0|0:0,0:0:0:0:
96,284,133061,1,0,0:0:0:0:
96,284,133203,1,2,0:1:0:0:
155,214,133344,2,0,P|135:201|113:194,1,47.9999985351563,10|2,0:0|0:1,0:0:0:0:
184,303,133627,5,2,0:0:0:0:
272,184,133769,1,2,0:1:0:0:
204,104,133910,1,2,0:0:0:0:
204,104,134193,5,2,0:0:0:0:
272,184,134334,1,8,0:0:0:0:
388,80,134476,1,2,0:1:0:0:
286,28,134618,2,0,L|296:92,1,64,10|0,0:0|0:0,0:0:0:0:
364,168,134901,1,2,0:0:0:0:
248,272,135042,1,2,0:1:0:0:
248,272,135325,2,0,B|276:304|276:304|382:290,1,128,10|0,0:0|0:0,0:0:0:0:
448,232,135750,1,10,0:0:0:0:
364,168,135891,6,0,L|356:104,2,64,2|2|2,0:1|0:1|0:0,0:0:0:0:
364,168,136599,5,2,0:1:0:0:
448,232,136741,2,0,L|462:371,1,128,8|2,0:0|0:1,0:0:0:0:
360,292,137165,1,2,0:1:0:0:
360,292,137236,1,2,0:1:0:0:
360,292,137307,1,8,0:0:0:0:
448,232,137448,5,2,0:1:0:0:
364,168,137590,1,8,0:0:0:0:
364,168,137731,1,2,0:1:0:0:
424,112,137873,1,8,0:0:0:0:
376,48,138014,5,2,0:1:0:0:
376,48,138085,1,0,0:0:0:0:
376,48,138156,2,0,B|263:18|263:18|208:40,1,176.000005371094,4|8,0:0|0:0,0:0:0:0:
208,39,138580,1,0,0:0:0:0:
267,199,138722,2,0,P|284:159|274:117,1,88.000002685547,2|2,0:1|0:1,0:0:0:0:
119,32,139005,1,8,0:0:0:0:
188,152,139146,1,0,0:0:0:0:
76,118,139288,6,0,P|67:161|58:204,1,88.000002685547,2|2,0:1|0:1,0:0:0:0:
36,306,139571,1,8,0:0:0:0:
132,275,139712,2,0,B|232:257|203:325|299:306,1,176.000005371094,2|2,0:0|0:1,0:0:0:0:
453,241,140137,2,0,P|410:231|368:220,1,88.000002685547,8|0,0:0|0:0,0:0:0:0:
269,46,140420,6,0,P|331:61|348:121,1,132.00000402832,2|0,0:0|0:0,0:0:0:0:
256,137,140703,2,0,P|262:180|269:223,1,88.000002685547,10|0,0:0|0:0,0:0:0:0:
200,292,140986,1,2,0:1:0:0:
200,292,141127,1,2,0:1:0:0:
145,143,141269,1,8,0:0:0:0:
0,257,141410,6,0,B|118:223|118:223|106:247|101:273,1,176.000005371094,2|2,0:0|0:1,0:0:0:0:
192,380,141835,2,0,L|201:283,1,88.000002685547,8|0,0:0|0:0,0:0:0:0:
145,143,142118,2,0,P|181:165|225:165,1,88.000002685547,2|2,0:1|0:1,0:0:0:0:
341,81,142401,1,8,0:0:0:0:
396,198,142542,1,2,0:1:0:0:
346,66,142684,6,0,P|429:66|462:142,2,176.000005371094,4|8|2,0:0|0:0|0:1,0:0:0:0:
346,66,143391,1,2,0:1:0:0:
274,124,143533,1,8,0:0:0:0:
189,84,143674,6,0,B|177:146|177:146|211:192|211:192|196:258,1,176.000005371094,2|2,0:0|0:1,0:0:0:0:
33,235,144099,2,0,B|68:208|68:208|111:213,1,88.000002685547,8|0,0:0|0:0,0:0:0:0:
208,338,144382,1,2,0:0:0:0:
208,338,144524,1,0,0:0:0:0:
288,290,144665,2,0,P|302:250|290:208,1,88.000002685547,8|0,0:0|0:0,0:0:0:0:
189,84,144948,6,0,B|215:100|232:125|232:125|366:106,1,176.000005371094,2|8,0:0|0:0,0:0:0:0:
439,57,145373,2,0,P|380:97|421:192,1,176.000005371094,2|2,0:0|0:1,0:0:0:0:
479,260,145797,1,8,0:0:0:0:
376,323,145939,6,0,B|273:298|309:370|209:351,1,176.000005371094,4|0,0:0|0:0,0:0:0:0:
206,165,146363,2,0,P|216:207|224:250,1,88.000002685547,8|2,0:0|0:0,0:0:0:0:
295,124,146646,1,8,0:0:0:0:
243,263,146788,1,2,0:0:0:0:
310,111,146929,2,0,P|353:115|390:138,1,88.000002685547,8|8,0:0|0:0,0:0:0:0:
493,287,147212,6,0,B|383:258|383:258|328:289,1,176.000005371094,4|8,0:0|0:0,0:0:0:0:
194,374,147636,2,0,P|211:334|202:292,1,88.000002685547,2|0,0:0|0:0,0:0:0:0:
93,175,147919,1,2,0:0:0:0:
118,265,148061,2,0,L|214:296,1,88.000002685547,8|2,0:0|0:0,0:0:0:0:
327,206,148344,6,0,B|287:154|209:160|209:160|222:185|222:218,1,176.000005371094,2|10,0:0|0:0,0:0:0:0:
385,264,148769,2,0,P|407:227|404:182,1,88.000002685547,2|0,0:0|0:0,0:0:0:0:
390,74,149052,1,2,0:0:0:0:
491,105,149193,2,0,P|499:148|507:191,1,88.000002685547,8|0,0:0|0:0,0:0:0:0:
434,295,149476,6,0,B|385:264|385:264|265:289,1,176.000005371094,2|8,0:0|0:0,0:0:0:0:
166,369,149901,2,0,P|152:328|164:287,1,88.000002685547,2|0,0:0|0:0,0:0:0:0:
269,205,150184,2,0,P|282:246|269:288,1,88.000002685547,2|8,0:1|0:0,0:0:0:0:
92,170,150467,6,0,P|178:149|258:113,1,176.000005371094,4|2,0:0|0:1,0:0:0:0:
351,235,150891,2,0,P|311:216|268:205,1,88.000002685547,8|0,0:0|0:0,0:0:0:0:
167,53,151174,1,2,0:1:0:0:
258,113,151316,1,4,0:0:0:0:
84,23,151458,2,0,P|124:42|167:53,1,88.000002685547,8|2,0:0|0:1,0:0:0:0:
292,18,151741,6,0,P|355:21|392:73,1,132.00000402832,4|0,0:0|0:0,0:0:0:0:
357,146,152024,2,0,P|350:189|343:232,1,88.000002685547,8|0,0:0|0:0,0:0:0:0:
242,184,152307,1,2,0:1:0:0:
242,184,152448,1,2,0:1:0:0:
269,307,152590,1,8,0:0:0:0:
176,257,152731,6,0,P|132:260|98:286,1,88.000002685547,2|0,0:0|0:0,0:0:0:0:
5,354,153014,1,2,0:0:0:0:
102,384,153156,2,0,P|85:297|67:211,1,176.000005371094,8|2,0:0|0:0,0:0:0:0:
67,211,153580,1,0,0:0:0:0:
166,81,153722,1,8,0:0:0:0:
65,109,153863,1,2,0:0:0:0:
194,182,154005,6,0,B|238:196|238:196|277:183,1,88.000002685547,2|0,0:1|0:0,0:0:0:0:
377,50,154288,2,0,P|368:93|357:136,1,88.000002685547,4|0,0:0|0:0,0:0:0:0:
396,221,154571,1,2,0:1:0:0:
479,223,154712,2,0,B|438:208|438:208|395:221,1,88.000002685547,4|8,0:0|0:0,0:0:0:0:
276,346,154995,6,0,B|307:291|307:291|277:182,1,176.000005371094,2|2,0:0|0:1,0:0:0:0:
130,250,155420,2,0,P|163:277|207:279,1,88.000002685547,8|2,0:0|0:1,0:0:0:0:
277,182,155703,1,8,0:0:0:0:
136,104,155844,1,8,0:0:0:0:
192,192,155986,1,8,0:0:0:0:
244,60,156127,1,8,0:0:0:0:
442,107,156269,6,0,B|400:75|400:75|326:103,1,132.00000402832,4|0,0:0|0:0,0:0:0:0:
300,208,156552,2,0,P|307:251|315:294,1,88.000002685547,8|0,0:0|0:0,0:0:0:0:
315,294,156835,1,2,0:1:0:0:
472,352,156976,1,2,0:1:0:0:
472,352,157118,2,0,P|474:308|504:277,1,88.000002685547,8|0,0:0|0:0,0:0:0:0:
458,197,157401,6,0,B|435:209|413:235|413:235|291:205,1,176.000005371094,2|8,0:1|0:0,0:0:0:0:
144,120,157825,1,2,0:0:0:0:
213,58,157967,2,0,P|234:96|234:140,1,88.000002685547,0|2,0:0|0:1,0:0:0:0:
168,228,158250,2,0,B|127:218|127:218|84:234,1,88.000002685547,10|0,0:0|0:0,0:0:0:0:
240,312,158533,6,0,P|304:298|369:287,1,132.00000402832,2|0,0:0|0:0,0:0:0:0:
460,292,158816,2,0,P|449:249|441:206,1,88.000002685547,8|0,0:0|0:0,0:0:0:0:
460,100,159099,2,0,P|421:121|378:121,1,88.000002685547,2|2,0:1|0:1,0:0:0:0:
256,48,159382,1,8,0:0:0:0:
188,112,159524,6,0,B|175:176|175:176|205:213|205:213|193:275,1,176.000005371094,2|2,0:0|0:1,0:0:0:0:
302,367,159948,2,0,L|318:266,1,88.000002685547,8|0,0:0|0:0,0:0:0:0:
384,196,160231,1,2,0:0:0:0:
384,196,160373,1,0,0:0:0:0:
416,312,160514,1,8,0:0:0:0:
484,248,160656,1,2,0:1:0:0:
315,280,160797,6,0,B|241:252|241:252|193:274,1,132.00000402832,4|0,0:0|0:0,0:0:0:0:
121,332,161080,2,0,P|99:294|106:251,1,88.000002685547,8|0,0:0|0:0,0:0:0:0:
245,136,161363,1,2,0:1:0:0:
245,136,161505,1,2,0:1:0:0:
153,106,161646,2,0,P|159:149|167:192,1,88.000002685547,8|0,0:0|0:0,0:0:0:0:
257,308,161929,5,2,0:0:0:0:
327,247,162071,2,0,P|292:221|248:216,1,88.000002685547,2|8,0:1|0:0,0:0:0:0:
248,216,162354,1,2,0:0:0:0:
340,348,162495,2,0,P|408:334|447:324,1,88.000002685547,0|2,0:0|0:1,0:0:0:0:
496,272,162778,1,8,0:0:0:0:
400,188,162920,1,2,0:1:0:0:
478,96,163061,6,0,L|496:272,2,176.000005371094,6|8|2,0:0|0:0|0:1,0:0:0:0:
478,96,163769,1,2,0:1:0:0:
364,72,163910,1,8,0:0:0:0:
288,156,164052,6,0,B|229:177|179:118|179:118|201:102|213:79,1,176.000005371094,6|2,0:0|0:1,0:0:0:0:
364,72,164476,2,0,P|380:112|375:155,1,88.000002685547,8|0,0:0|0:0,0:0:0:0:
340,280,164759,1,2,0:1:0:0:
340,280,164901,1,2,0:1:0:0:
240,244,165042,2,0,B|197:233|197:233|157:249,1,88.000002685547,6|2,0:0|0:1,0:0:0:0:
60,368,165325,6,0,B|86:316|86:316|59:234,1,132.00000402832,6|0,0:0|0:0,0:0:0:0:
20,164,165608,2,0,P|35:112|42:74,1,88.000002685547,8|0,0:0|0:0,0:0:0:0:
42,79,165891,1,2,0:1:0:0:
140,16,166033,2,0,P|149:59|162:102,1,88.000002685547,2|8,0:1|0:0,0:0:0:0:
248,204,166316,6,0,P|190:142|109:161,1,176.000005371094,2|2,0:0|0:1,0:0:0:0:
74,263,166741,2,0,L|160:244,1,88.000002685547,8|0,0:0|0:0,0:0:0:0:
232,152,167024,2,0,L|331:174,1,88.000002685547,2|0,0:0|0:0,0:0:0:0:
481,112,167307,1,8,0:0:0:0:
420,196,167448,1,2,0:1:0:0:
352,84,167590,6,0,P|338:42|352:0,1,88.000002685547,4|2,0:0|0:1,0:0:0:0:
492,92,167873,1,8,0:0:0:0:
420,196,168014,6,0,P|391:228|349:238,1,88.000002685547,4|2,0:0|0:1,0:0:0:0:
256,128,168297,1,2,0:1:0:0:
348,237,168439,5,12,0:0:0:0:
272,160,168580,2,0,B|251:196|227:218|227:218|272:341,1,192,12|0,0:0|0:0,0:0:0:0:
401,267,169146,1,2,0:1:0:0:
401,267,169217,1,2,0:1:0:0:
401,267,169288,2,0,P|354:237|324:237,1,64,8|8,0:0|0:0,0:0:0:0:
272,160,169571,2,0,P|302:150|325:128,1,64,8|8,0:0|0:0,0:0:0:0:
296,20,169854,5,8,0:0:0:0:
216,80,169995,2,0,B|176:54|176:54|81:91,1,128,4|0,0:0|0:0,0:0:0:0:
8,168,170420,2,0,P|69:167|100:219,1,128,8|2,0:0|0:1,0:0:0:0:
40,284,170844,6,0,B|79:313|79:313|156:295,1,128,2|0,0:1|0:0,0:0:0:0:
240,340,171269,2,0,L|252:277,1,64,2|0,0:1|0:0,0:0:0:0:
347,287,171552,2,0,L|336:224,1,64,8|0,0:0|0:0,0:0:0:0:
424,160,171835,1,2,0:0:0:0:
415,176,172118,6,0,L|485:161,2,64,2|2|2,0:1|0:1|0:0,0:0:0:0:
341,132,172542,1,2,0:1:0:0:
341,132,172684,2,0,P|286:120|260:114,1,64,8|2,0:0|0:1,0:0:0:0:
194,56,172967,1,2,0:1:0:0:
194,56,173108,6,0,P|182:111|162:194,1,128,2|8,0:1|0:0,0:0:0:0:
228,256,173533,1,2,0:0:0:0:
228,256,173816,2,0,P|259:248|290:242,1,64,8|2,0:0|0:1,0:0:0:0:
384,343,174099,2,0,P|353:336|321:329,1,64,4|8,0:0|0:0,0:0:0:0:
220,360,174382,5,4,0:0:0:0:
220,360,174524,2,0,B|171:351|171:351|140:371|140:371|99:364,1,128,0|2,0:0|0:1,0:0:0:0:
8,296,174948,1,8,0:0:0:0:
8,296,175090,2,0,P|39:288|69:277,1,64,0|2,0:0|0:1,0:0:0:0:
168,210,175373,1,2,0:0:0:0:
168,210,175656,1,2,0:0:0:0:
168,210,175797,6,0,P|157:180|149:150,1,64,2|2,0:1|0:1,0:0:0:0:
26,33,176080,2,0,P|67:56|78:102,1,96,8|0,0:0|0:0,0:0:0:0:
15,160,176363,2,0,L|33:241,1,64,2|0,0:0|0:0,0:0:0:0:
20,332,176646,6,0,P|52:299|99:303,1,96,2|0,0:1|0:0,0:0:0:0:
168,344,176929,2,0,P|198:335|229:326,1,64,6|2,0:0|0:1,0:0:0:0:
296,280,177212,1,8,0:0:0:0:
208,176,177495,1,2,0:1:0:0:
208,176,177637,6,0,L|219:112,1,64,2|0,0:1|0:0,0:0:0:0:
104,160,177920,1,6,0:0:0:0:
104,160,178061,2,0,L|115:222,1,64,2|2,0:1|0:1,0:0:0:0:
100,324,178344,2,0,L|163:312,1,64,8|2,0:0|0:0,0:0:0:0:
232,252,178627,2,0,L|295:264,1,64,12|10,0:0|0:0,0:0:0:0:
364,344,178910,6,0,P|313:357|286:363,1,64,4|2,0:0|0:1,0:0:0:0:
392,252,179193,2,0,P|384:221|376:190,1,64,2|2,0:1|0:1,0:0:0:0:
416,108,179476,2,0,P|477:111|512:162,1,128,8|2,0:0|0:1,0:0:0:0:
509,268,179901,6,0,B|469:239|469:239|390:252,1,128,2|4,0:1|0:0,0:0:0:0:
320,328,180325,2,0,L|236:314,1,64,2|0,0:1|0:0,0:0:0:0:
160,304,180608,2,0,L|174:388,1,64,2|2,0:0|0:0,0:0:0:0:
64,312,180891,2,0,L|53:248,1,64,2|2,0:0|0:0,0:0:0:0:
48,154,181174,6,0,P|80:151|108:136,1,64,2|2,0:1|0:1,0:0:0:0:
192,72,181458,1,2,0:0:0:0:
206,90,181741,6,0,P|193:152|180:215,1,128,8|2,0:0|0:1,0:0:0:0:
148,292,182165,2,0,P|187:245|246:260,1,128,2|12,0:1|0:0,0:0:0:0:
280,340,182590,2,0,P|307:324|325:298,1,64,2|0,0:1|0:0,0:0:0:0:
409,339,182873,2,0,P|417:308|411:277,1,64,10|10,0:0|0:0,0:0:0:0:
348,196,183156,1,14,0:0:0:0:
348,196,183297,1,10,0:0:0:0:
424,124,183439,6,0,L|437:61,2,64,2|2|2,0:1|0:1|0:1,0:0:0:0:
472,204,183863,1,2,0:1:0:0:
472,204,184005,2,0,B|502:283|502:283|482:322,1,128,8|2,0:0|0:1,0:0:0:0:
412,384,184429,6,0,B|348:369|348:369|347:366|347:366|277:346,1,128,8|8,0:0|0:0,0:0:0:0:
158,303,184854,2,0,B|195:294|195:294|195:293|195:293|219:287,1,64,2|0,0:1|0:0,0:0:0:0:
228,148,185137,2,0,P|213:176|211:208,1,64,8|0,0:0|0:0,0:0:0:0:
286,236,185420,2,0,P|300:207|302:175,1,64,2|0,0:0|0:0,0:0:0:0:
284,72,185703,5,2,0:1:0:0:
284,72,185844,2,0,L|427:40,1,128,4|2,0:0|0:1,0:0:0:0:
472,112,186268,2,0,L|457:174,1,64,12|0,0:0|0:0,0:0:0:0:
512,280,186552,5,2,0:1:0:0:
512,280,186693,2,0,L|369:312,1,128,4|2,0:0|0:0,0:0:0:0:
308,356,187117,2,0,L|245:341,1,64,2|0,0:1|0:0,0:0:0:0:
100,256,187401,1,10,0:0:0:0:
164,384,187542,1,10,0:0:0:0:
245,341,187684,1,10,0:0:0:0:
72,384,187825,1,10,0:0:0:0:
173,295,187967,6,0,P|174:204|100:256,1,224,2|8,0:0|0:0,0:0:0:0:
99,255,190231,5,4,0:0:0:0:
49,120,200137,6,0,P|63:152|57:187,1,71.9999978027344,2|0,0:0|0:0,0:0:0:0:
4,252,200420,6,0,B|50:226|50:226|187:258,1,176.000005371094,4|8,0:0|0:0,0:0:0:0:
248,165,200844,2,0,L|264:252,1,88.000002685547,2|0,0:0|0:0,0:0:0:0:
284,356,201127,1,2,0:0:0:0:
429,312,201269,2,0,P|391:290|348:288,1,88.000002685547,8|0,0:0|0:0,0:0:0:0:
248,165,201552,6,0,B|341:128|328:194|419:149,1,176.000005371094,2|8,0:0|0:0,0:0:0:0:
468,44,201976,2,0,P|424:48|384:31,1,88.000002685547,2|0,0:0|0:0,0:0:0:0:
192,0,202259,1,2,0:0:0:0:
263,78,202401,2,0,L|245:177,1,88.000002685547,8|0,0:0|0:0,0:0:0:0:
144,256,202684,6,0,P|226:240|280:304,1,176.000005371094,2|8,0:0|0:0,0:0:0:0:
368,360,203108,2,0,P|374:316|384:273,1,88.000002685547,2|0,0:0|0:0,0:0:0:0:
464,88,203391,1,2,0:0:0:0:
392,180,203533,1,8,0:0:0:0:
470,250,203674,6,0,B|500:207|500:207|462:80,1,176.000005371094,4|2,0:0|0:1,0:0:0:0:
347,41,204099,2,0,P|339:84|332:128,1,88.000002685547,8|0,0:0|0:0,0:0:0:0:
251,228,204382,1,2,0:1:0:0:
251,228,204524,1,4,0:0:0:0:
156,152,204665,1,8,0:0:0:0:
80,240,204807,1,2,0:1:0:0:
162,162,204948,6,0,P|233:178|251:229,1,132.00000402832,4|0,0:0|0:0,0:0:0:0:
228,312,205231,2,0,P|271:314|308:292,1,88.000002685547,8|0,0:0|0:0,0:0:0:0:
388,224,205514,1,2,0:0:0:0:
388,224,205656,1,2,0:0:0:0:
312,136,205797,1,8,0:0:0:0:
424,56,205939,6,0,L|404:149,1,88.000002685547,2|0,0:0|0:0,0:0:0:0:
405,142,206222,1,2,0:1:0:0:
268,76,206363,2,0,P|289:170|303:265,1,176.000005371094,8|2,0:0|0:1,0:0:0:0:
301,248,206788,1,2,0:1:0:0:
232,328,206929,2,0,P|198:300|155:294,1,88.000002685547,8|2,0:0|0:0,0:0:0:0:
72,228,207212,6,0,B|84:209|102:185|102:185|87:107,1,132.00000402832,2|0,0:1|0:0,0:0:0:0:
28,56,207495,2,0,P|61:30|105:31,1,88.000002685547,4|0,0:0|0:0,0:0:0:0:
232,140,207778,1,2,0:1:0:0:
244,56,207920,2,0,P|200:54|166:80,1,88.000002685547,4|8,0:0|0:0,0:0:0:0:
72,228,208203,6,0,P|155:223|186:300,1,176.000005371094,2|2,0:0|0:1,0:0:0:0:
56,383,208627,2,0,P|94:363|137:368,1,88.000002685547,8|2,0:0|0:1,0:0:0:0:
236,380,208910,1,8,0:0:0:0:
236,380,209052,1,8,0:0:0:0:
280,248,209193,1,8,0:0:0:0:
340,344,209335,1,8,0:0:0:0:
280,248,209476,6,0,B|381:228|353:303|447:281,1,176.000005371094,4|8,0:0|0:0,0:0:0:0:
445,281,209901,1,0,0:0:0:0:
480,184,210042,2,0,P|441:156|397:160,1,88.000002685547,2|2,0:1|0:1,0:0:0:0:
276,236,210325,1,8,0:0:0:0:
320,116,210467,1,0,0:0:0:0:
224,176,210608,6,0,P|178:162|102:144,1,88.000002685547,2|2,0:1|0:1,0:0:0:0:
36,96,210891,1,8,0:0:0:0:
36,96,211033,2,0,P|104:143|90:226,1,176.000005371094,2|2,0:0|0:1,0:0:0:0:
12,276,211458,2,0,P|23:318|31:361,1,88.000002685547,10|0,0:0|0:0,0:0:0:0:
148,384,211741,6,0,B|242:361|242:361|208:340,1,132.00000402832,2|0,0:0|0:0,0:0:0:0:
168,268,212024,2,0,P|210:258|253:249,1,88.000002685547,8|0,0:0|0:0,0:0:0:0:
336,200,212307,1,2,0:1:0:0:
336,200,212448,1,2,0:1:0:0:
301,325,212590,1,8,0:0:0:0:
420,212,212731,6,0,P|391:132|308:117,1,176.000005371094,2|2,0:0|0:1,0:0:0:0:
236,172,213156,2,0,L|140:160,1,88.000002685547,8|0,0:0|0:0,0:0:0:0:
36,256,213439,2,0,L|123:245,1,88.000002685547,2|2,0:0|0:1,0:0:0:0:
172,336,213722,1,8,0:0:0:0:
256,248,213863,1,2,0:1:0:0:
312,336,214005,6,0,P|371:354|407:366,1,88.000002685547,4|0,0:0|0:0,0:0:0:0:
464,284,214288,2,0,P|422:270|380:257,1,88.000002685547,8|0,0:0|0:0,0:0:0:0:
324,160,214571,1,2,0:1:0:0:
324,160,214712,1,2,0:1:0:0:
404,104,214854,2,0,P|423:142|420:186,1,88.000002685547,8|0,0:0|0:0,0:0:0:0:
264,100,215137,5,2,0:0:0:0:
214,162,215278,2,0,P|226:221|235:267,1,88.000002685547,0|8,0:0|0:0,0:0:0:0:
176,340,215561,2,0,P|262:358|348:376,1,176.000005371094,2|2,0:0|0:1,0:0:0:0:
444,336,215986,2,0,P|413:280|351:269,1,132.00000402832,8|0,0:0|0:0,0:0:0:0:
288,340,216269,6,0,P|241:329|198:320,1,88.000002685547,4|0,0:0|0:0,0:0:0:0:
124,240,216552,2,0,P|166:227|208:214,1,88.000002685547,8|0,0:0|0:0,0:0:0:0:
272,128,216835,1,2,0:1:0:0:
272,128,216976,1,2,0:1:0:0:
208,213,217118,1,8,0:0:0:0:
200,76,217259,6,0,B|240:37|240:37|362:62,1,176.000005371094,6|2,0:0|0:1,0:0:0:0:
472,88,217684,2,0,P|420:127|416:191,1,132.00000402832,8|0,0:0|0:0,0:0:0:0:
440,260,217967,2,0,P|400:243|357:231,1,88.000002685547,2|2,0:1|0:1,0:0:0:0:
232,156,218250,1,6,0:0:0:0:
232,156,218391,1,0,0:0:0:0:
273,240,218533,6,0,P|229:248|186:257,1,88.000002685547,6|0,0:0|0:0,0:0:0:0:
64,192,218816,2,0,P|107:182|150:174,1,88.000002685547,8|0,0:0|0:0,0:0:0:0:
268,80,219099,1,2,0:1:0:0:
197,20,219241,2,0,P|173:55|177:98,1,88.000002685547,2|8,0:1|0:0,0:0:0:0:
255,237,219524,6,0,B|275:208|296:189|296:189|264:67,1,176.000005371094,2|2,0:0|0:1,0:0:0:0:
356,24,219948,2,0,L|384:128,1,88.000002685547,8|0,0:0|0:0,0:0:0:0:
404,212,220231,1,2,0:0:0:0:
404,212,220373,1,0,0:0:0:0:
296,188,220514,1,8,0:0:0:0:
348,300,220656,1,2,0:1:0:0:
296,188,220797,6,0,P|253:182|215:201,1,88.000002685547,4|2,0:0|0:1,0:0:0:0:
92,260,221080,1,8,0:0:0:0:
248,332,221222,1,4,0:0:0:0:
151,367,221363,2,0,P|163:324|173:282,1,88.000002685547,2|2,0:1|0:1,0:0:0:0:
120,160,221646,5,12,0:0:0:0:
256,64,221788,1,12,0:0:0:0:
171,64,222071,5,2,0:1:0:0:
171,64,222141,1,2,0:1:0:0:
171,64,222212,2,0,P|220:74|265:57,1,88.000002685547,8|8,0:0|0:0,0:0:0:0:
356,16,222495,2,0,P|339:74|327:126,1,88.000002685547,2|2,0:1|0:1,0:0:0:0:
316,234,222778,1,8,0:0:0:0:
396,168,222920,1,8,0:0:0:0:
312,248,223061,6,0,B|222:218|222:218|151:248,1,160,4|8,0:0|0:0,0:0:0:0:
162,243,223486,1,0,0:0:0:0:
32,144,223627,2,0,P|65:165|105:168,1,80,2|2,0:1|0:1,0:0:0:0:
105,168,223910,1,8,0:0:0:0:
188,104,224052,6,0,B|235:71|235:71|364:114,1,160,2|2,0:0|0:1,0:0:0:0:
440,17,224476,2,0,L|424:96,1,80,8|0,0:0|0:0,0:0:0:0:
348,196,224759,1,2,0:1:0:0:
348,196,224901,1,2,0:1:0:0:
512,180,225042,2,0,P|473:187|434:179,1,80,8|2,0:0|0:1,0:0:0:0:
332,103,225325,6,0,P|256:102|226:172,1,160,2|8,0:0|0:0,0:0:0:0:
176,276,225750,2,0,B|227:248|227:248|341:277,1,160,0|2,0:0|0:1,0:0:0:0:
325,273,226174,1,8,0:0:0:0:
424,320,226316,6,0,P|412:242|400:161,1,160,2|2,0:0|0:1,0:0:0:0:
280,60,226741,2,0,P|312:82|352:82,1,80,8|0,0:0|0:0,0:0:0:0:
452,52,227024,1,2,0:1:0:0:
452,52,227165,1,2,0:1:0:0:
512,120,227307,2,0,P|497:173|488:209,1,80,8|2,0:0|0:1,0:0:0:0:
392,284,227590,6,0,P|468:281|508:346,2,160,4|8|2,0:0|0:0|0:1,0:0:0:0:
196,312,228439,1,8,0:0:0:0:
279,351,228580,6,0,B|323:368|323:368|297:259,1,160,2|0,0:0|0:0,0:0:0:0:
212,220,229005,2,0,P|203:181|192:139,1,80,8|0,0:0|0:0,0:0:0:0:
144,280,229288,1,2,0:1:0:0:
144,280,229429,1,2,0:1:0:0:
60,240,229571,2,0,P|51:200|41:162,1,80,8|2,0:0|0:1,0:0:0:0:
0,80,229854,6,0,P|24:35|100:35,1,120,2|2,0:0|0:1,0:0:0:0:
160,56,230137,2,0,P|196:70|236:66,1,80,8|0,0:0|0:0,0:0:0:0:
340,28,230420,1,2,0:1:0:0:
321,134,230561,2,0,L|336:222,1,80,2|8,0:1|0:0,0:0:0:0:
388,288,230844,6,0,B|335:248|335:248|243:271,1,160,4|0,0:0|0:0,0:0:0:0:
144,300,231269,2,0,P|153:246|160:202,1,80,8|0,0:0|0:0,0:0:0:0:
204,140,231552,1,2,0:1:0:0:
204,140,231693,1,2,0:1:0:0:
157,221,231835,1,12,0:0:0:0:
96,96,231976,1,8,0:0:0:0:
204,140,232118,6,0,B|273:116|273:116|327:130,1,120,4|0,0:0|0:0,0:0:0:0:
397,105,232401,2,0,P|402:144|384:180,1,80,8|0,0:0|0:0,0:0:0:0:
288,280,232684,1,2,0:1:0:0:
444,276,232825,2,0,P|404:268|352:257,1,80,2|8,0:1|0:0,0:0:0:0:
288,360,233108,6,0,P|217:329|211:254,1,160,2|2,0:0|0:1,0:0:0:0:
116,268,233533,2,0,P|114:228|133:193,1,80,8|0,0:0|0:0,0:0:0:0:
216,148,233816,1,2,0:1:0:0:
216,148,233958,1,2,0:1:0:0:
128,92,234099,2,0,P|88:97|48:99,1,80,8|2,0:0|0:1,0:0:0:0:
192,8,234382,5,4,0:0:0:0:
280,84,234524,2,0,P|319:89|359:91,1,80,2|8,0:1|0:0,0:0:0:0:
456,132,234807,5,4,0:0:0:0:
368,208,234949,2,0,P|328:213|288:215,1,80,2|2,0:1|0:1,0:0:0:0:
184,312,235231,5,12,0:0:0:0:
116,248,235373,2,0,B|80:182|123:121|167:167|208:97|171:43,1,240,12|0,0:0|0:0,0:0:0:0:
76,0,235939,1,2,0:1:0:0:
76,0,236009,1,2,0:1:0:0:
76,0,236080,1,8,0:0:0:0:
171,43,236222,1,8,0:0:0:0:
80,96,236363,1,8,0:0:0:0:
175,53,236505,1,8,0:0:0:0:
72,104,236646,6,0,P|22:88|-11:78,1,64,8|4,0:0|0:0,0:0:0:0:
65,194,236929,2,0,P|95:184|125:174,1,64,0|0,0:0|0:0,0:0:0:0:
180,64,237212,2,0,P|241:63|276:113,1,128,8|2,0:0|0:1,0:0:0:0:
259,228,237637,2,0,B|300:211|300:211|398:228,1,128,2|2,0:1|0:1,0:0:0:0:
460,187,238061,2,0,P|446:137|442:113,1,64,2|0,0:1|0:0,0:0:0:0:
380,32,238344,2,0,P|373:63|363:93,1,64,8|0,0:0|0:0,0:0:0:0:
293,175,238627,2,0,P|286:143|276:113,1,64,2|0,0:0|0:0,0:0:0:0:
192,32,238910,6,0,P|164:18|132:16,1,64,8|8,0:0|0:0,0:0:0:0:
105,102,239193,2,0,P|133:116|165:117,1,64,8|8,0:0|0:0,0:0:0:0:
276,113,239476,2,0,P|260:174|252:238,1,128,10|2,0:0|0:1,0:0:0:0:
267,353,239901,1,2,0:1:0:0:
30,294,240184,6,0,L|102:270,2,64,2|2|0,0:0|0:1|0:0,0:0:0:0:
116,200,240608,2,0,P|144:214|164:238,1,64,10|0,0:0|0:0,0:0:0:0:
35,202,240891,2,0,L|51:124,1,64,14|8,0:0|0:0,0:0:0:0:
152,60,241174,5,4,0:0:0:0:
152,60,241316,2,0,P|202:94|195:162,1,128,8|0,0:0|0:0,0:0:0:0:
252,232,241741,2,0,P|314:218|377:207,1,128,8|2,0:0|0:1,0:0:0:0:
428,128,242165,2,0,B|377:107|377:107|284:130,1,128,2|2,0:0|0:0,0:0:0:0:
212,116,242590,2,0,P|196:46|160:0,2,128,2|8|2,0:1|0:0|0:0,0:0:0:0:
36,108,243439,6,0,P|94:96|112:91,1,64,8|8,0:0|0:0,0:0:0:0:
88,190,243722,2,0,P|120:183|151:177,1,64,12|8,0:0|0:0,0:0:0:0:
217,239,244005,2,0,P|217:301|163:329,1,128,8|2,0:0|0:1,0:0:0:0:
48,384,244429,2,0,B|22:354|22:354|34:266,1,128,8|4,0:0|0:0,0:0:0:0:
92,128,244854,2,0,P|82:158|87:189,1,64,2|0,0:1|0:0,0:0:0:0:
154,253,245137,2,0,P|208:241|234:234,1,64,10|2,0:0|0:0,0:0:0:0:
280,172,245420,2,0,P|334:184|360:191,1,64,14|10,0:0|0:0,0:0:0:0:
401,255,245703,5,8,0:0:0:0:
488,196,245844,1,8,0:0:0:0:
413,276,245986,1,8,0:0:0:0:
420,116,246127,1,8,0:0:0:0:
