osu file format v14

[General]
AudioFilename: audio.mp3
AudioLeadIn: 0
PreviewTime: 82222
Countdown: 0
SampleSet: Soft
StackLeniency: 0.4
Mode: 0
LetterboxInBreaks: 0
WidescreenStoryboard: 0

[Editor]
Bookmarks: 271,11978,23685,35392,58807,83685,110027,112953,124661,136368,149539,178807,190514,202222,213929,225636,233685,240270,243197,254905,292953,301734,304661,316368,320758
DistanceSpacing: 0.5
BeatDivisor: 4
GridSize: 32
TimelineZoom: 4.599998

[Metadata]
Title:See visionS
TitleUnicode:See visionS
Artist:Mami Kawada
ArtistUnicode:川田まみ
Creator:pkhg
Version:Delusion
Source:とある魔術の禁書目録Ⅱ
Tags:to aru majutsu no index ii 2 toaru marathon
BeatmapID:1130706
BeatmapSetID:533712

[Difficulty]
HPDrainRate:6
CircleSize:4
OverallDifficulty:8
ApproachRate:9
SliderMultiplier:1.6
SliderTickRate:1

[Events]
//Background and Video events
0,0,"toaru.jpg",0,0
//Break Periods
2,179007,189549
//Storyboard Layer 0 (Background)
//Storyboard Layer 1 (Fail)
//Storyboard Layer 2 (Pass)
//Storyboard Layer 3 (Foreground)
//Storyboard Sound Samples

[TimingPoints]
271,365.853658536585,4,2,1,20,1,0
271,-200,4,2,1,20,0,0
6124,-200,4,2,1,25,0,0
11978,-200,4,2,1,30,0,0
23685,-142.857142857143,4,2,1,40,0,0
33746,-142.857142857143,4,2,2,30,0,0
35392,-142.857142857143,4,2,1,40,0,0
55972,-142.857142857143,4,2,2,40,0,0
58807,-111.111111111111,4,2,1,60,0,0
82222,-200,4,2,1,60,0,0
83685,-100,4,2,1,70,0,1
110118,-100,4,2,2,5,0,0
112588,-111.111111111111,4,2,1,35,0,0
112953,-111.111111111111,4,2,1,55,0,0
123289,-111.111111111111,4,2,2,5,0,0
124661,-125,4,2,1,45,0,0
136368,-111.111111111111,4,2,1,60,0,0
149539,-100,4,2,1,70,0,1
175972,-100,4,2,2,5,0,1
178807,-166.666666666667,4,2,2,5,0,0
178990,-166.666666666667,4,2,1,50,0,0
190514,-100,4,2,1,60,0,0
225636,-125,4,2,1,50,0,0
237344,-125,4,2,1,5,0,0
238807,-125,4,2,1,50,0,0
238899,-125,4,2,2,5,0,0
243197,-166.666666666667,4,2,1,40,0,0
253350,-166.666666666667,4,2,2,5,0,0
254905,-95.2380952380952,4,2,1,80,0,1
266520,-95.2380952380952,4,2,1,80,0,0
266612,-95.2380952380952,4,2,1,80,0,1
292953,-100,4,2,1,65,0,0
301825,-100,4,2,2,5,0,0
304661,-166.666666666667,4,2,1,45,0,0
316185,-166.666666666667,4,2,1,35,0,0
316460,-166.666666666667,4,2,2,5,0,0

[Colours]
Combo1 : 212,212,212
Combo2 : 57,240,71
Combo3 : 108,206,238
Combo4 : 243,48,78
Combo5 : 221,206,119
Combo6 : 101,73,233
SliderBorder : 70,200,245

[HitObjects]
431,292,271,6,0,P|374:239|301:259,1,160,2|0,0:0|0:0,0:0:0:0:
300,259,1734,2,0,B|280:219|300:183|300:183|320:147|301:105,1,160,2|0,0:0|0:0,0:0:0:0:
301,105,3197,6,0,P|227:84|171:137,1,160,0|2,0:0|0:0,0:0:0:0:
171,137,4661,2,0,B|154:232|154:232|188:285,1,160,2|0,0:0|0:0,0:0:0:0:
188,285,6124,6,0,B|258:252|258:252|274:288|324:291,1,160,0|2,0:0|0:0,0:0:0:0:
326,292,7588,2,0,P|326:223|390:248,1,160,2|2,0:0|0:0,0:0:0:0:
390,248,9051,6,0,B|342:260|342:260|286:236|286:236|238:248,1,160,0|2,0:0|0:0,0:0:0:0:
237,248,10514,2,0,P|222:357|161:259,1,280,2|0,0:0|0:0,0:0:0:0:
175,186,11978,6,0,P|223:161|294:182,1,120,2|0,0:0|0:0,0:0:0:0:
331,241,12710,2,0,L|343:113,1,120,2|0,0:0|0:0,0:0:0:0:
403,69,13441,6,0,B|366:78|366:78|324:60|324:60|289:69,1,120,2|0,0:0|0:0,0:0:0:0:
215,101,14173,2,0,B|179:113|179:113|98:97,1,120,2|0,0:0|0:0,0:0:0:0:
47,37,14905,6,0,B|61:68|46:95|46:95|31:122|46:152,1,120
103,209,15636,2,0,P|123:261|91:317,1,120,2|0,0:0|0:0,0:0:0:0:
23,356,16368,2,0,P|101:339|181:335,1,160,2|0,0:0|0:0,0:0:0:0:
181,336,17831,6,0,B|212:322|239:337|239:337|266:352|296:337,1,120
355,281,18563,2,0,P|374:226|346:175,1,120,2|0,0:0|0:0,0:0:0:0:
271,145,19295,6,0,B|236:136|236:136|194:154|194:154|157:145,1,120,2|0,0:0|0:0,0:0:0:0:
99,89,20027,2,0,L|111:217,1,120
139,285,20758,6,0,P|193:304|244:276,1,120
188,228,21490,1,2,0:0:0:0:
188,228,22222,2,0,P|203:118|272:205,1,280,2|0,0:0|0:0,0:0:0:0:
247,289,23685,5,2,0:0:0:0:
247,289,23868,1,0,0:0:0:0:
247,289,24051,2,0,B|219:302|193:289|193:289|168:275|140:288,1,111.999996582031,2|0,0:0|0:0,0:0:0:0:
79,337,24600,1,0,0:0:0:0:
79,337,26612,5,2,0:0:0:0:
79,337,26795,1,0,0:0:0:0:
79,337,26978,2,0,B|87:304|87:304|70:265|70:265|79:230,1,111.999996582031,2|0,0:0|0:0,0:0:0:0:
99,153,27527,1,0,0:0:0:0:
99,153,27892,6,0,P|146:126|197:145,1,111.999996582031,2|0,0:0|0:0,0:0:0:0:
247,209,28441,2,0,L|257:97,1,111.999996582031,2|0,0:0|0:0,0:0:0:0:
267,17,28990,1,0,0:0:0:0:
274,24,29539,5,2,0:0:0:0:
274,24,29722,1,0,0:0:0:0:
274,24,29905,2,0,B|287:51|274:77|274:77|260:102|273:130,1,111.999996582031,2|0,0:0|0:0,0:0:0:0:
329,187,30453,1,0,0:0:0:0:
329,187,30819,1,0,0:0:0:0:
329,187,32466,5,2,0:0:0:0:
329,187,32649,1,0,0:0:0:0:
329,187,32831,2,0,B|361:195|361:195|400:178|400:178|435:187,1,111.999996582031,2|0,0:0|0:0,0:0:0:0:
512,208,33380,1,0,0:0:0:0:
256,192,33746,12,2,35392,0:0:0:0:
352,104,35758,6,0,P|359:130|363:158,1,55.9999982910157,2|0,0:0|0:0,0:0:0:0:
420,235,36124,2,0,P|416:263|408:290,1,55.9999982910157,2|0,0:0|0:0,0:0:0:0:
408,290,36673,2,0,B|380:303|354:290|354:290|329:276|301:289,1,111.999996582031,2|0,0:0|0:0,0:0:0:0:
236,352,37222,1,2,0:0:0:0:
236,352,37405,1,0,0:0:0:0:
152,288,37588,2,0,P|144:261|140:233,1,55.9999982910157,2|0,0:0|0:0,0:0:0:0:
172,128,37953,1,2,0:0:0:0:
172,128,38319,6,0,B|137:119|137:119|98:136|98:136|65:128,2,111.999996582031,2|0|2,0:0|0:0|0:0,0:0:0:0:
172,128,39417,2,0,L|228:120,1,55.9999982910157,0|2,0:0|0:0,0:0:0:0:
445,45,41429,5,2,0:0:0:0:
392,142,41612,2,0,P|395:169|403:196,1,55.9999982910157,2|0,0:0|0:0,0:0:0:0:
468,280,41978,1,2,0:0:0:0:
376,344,42161,2,0,P|349:351|321:355,1,55.9999982910157
224,284,42527,6,0,P|179:252|126:266,1,111.999996582031,2|0,0:0|0:0,0:0:0:0:
44,316,43075,2,0,P|36:289|32:261,1,55.9999982910157,2|0,0:0|0:0,0:0:0:0:
99,171,43441,2,0,P|106:145|110:117,1,55.9999982910157,2|0,0:0|0:0,0:0:0:0:
111,117,43990,5,2,0:0:0:0:
118,111,44081,1,0,0:0:0:0:
124,104,44173,2,0,B|152:90|177:104|177:104|203:118|230:104,2,111.999996582031,2|0|2,0:0|0:0|0:0,0:0:0:0:
292,52,45270,1,0,0:0:0:0:
292,52,45453,2,0,L|282:164,2,111.999996582031,2|2|0,0:0|0:0|0:0,0:0:0:0:
292,52,46917,5,0,0:0:0:0:
360,152,47100,2,0,P|356:179|348:206,1,55.9999982910157,2|0,0:0|0:0,0:0:0:0:
292,288,47466,1,0,0:0:0:0:
224,200,47649,2,0,B|195:185|169:199|169:199|144:213|116:199,1,111.999996582031,2|0,0:0|0:0,0:0:0:0:
48,128,48197,1,0,0:0:0:0:
132,60,48380,2,0,B|165:48|165:48|240:63,1,111.999996582031,2|0,0:0|0:0,0:0:0:0:
344,92,48929,1,2,0:0:0:0:
344,92,49844,5,0,0:0:0:0:
413,161,50027,2,0,P|421:187|425:215,1,55.9999982910157,2|0,0:0|0:0,0:0:0:0:
392,316,50392,1,0,0:0:0:0:
300,240,50575,2,0,P|248:232|184:228,1,111.999996582031,2|0,0:0|0:0,0:0:0:0:
104,284,51124,1,2,0:0:0:0:
36,200,51307,2,0,B|24:167|24:167|39:92,1,111.999996582031
64,0,51856,1,2,0:0:0:0:
64,0,52770,5,0,0:0:0:0:
135,63,52953,2,0,P|161:71|189:75,1,55.9999982910157,2|0,0:0|0:0,0:0:0:0:
284,28,53319,1,0,0:0:0:0:
368,112,53502,2,0,B|383:140|369:167|369:167|355:192|369:220,1,111.999996582031,2|0,0:0|0:0,0:0:0:0:
456,284,54051,1,2,0:0:0:0:
360,348,54234,2,0,B|327:360|327:360|252:345,1,111.999996582031,2|0,0:0|0:0,0:0:0:0:
156,312,54783,1,2,0:0:0:0:
156,312,55514,5,2,0:0:0:0:
356,312,55880,1,2,0:0:0:0:
256,192,55972,12,0,58624,0:0:0:0:
121,265,58807,6,0,P|156:259|201:263,1,71.9999978027344,8|0,0:0|0:0,0:0:0:0:
281,340,59173,2,0,P|316:346|361:342,1,71.9999978027344,8|0,0:0|0:0,0:0:0:0:
458,284,59539,1,8,0:0:0:0:
379,193,59722,2,0,P|372:157|375:121,1,71.9999978027344,0|8,0:0|0:0,0:0:0:0:
266,27,60088,6,0,P|268:62|262:98,1,71.9999978027344,0|8,0:0|0:0,0:0:0:0:
164,169,60453,1,0,0:0:0:0:
97,74,60636,2,0,P|61:67|25:70,1,71.9999978027344,8|0,0:0|0:0,0:0:0:0:
164,169,61002,1,8,0:0:0:0:
262,98,61185,1,0,0:0:0:0:
335,205,61368,2,0,P|370:207|406:201,1,71.9999978027344,8|0,0:0|0:0,0:0:0:0:
262,98,61734,6,0,P|226:91|190:94,1,71.9999978027344,8|0,0:0|0:0,0:0:0:0:
95,183,62100,2,0,P|88:218|91:254,1,71.9999978027344,8|0,0:0|0:0,0:0:0:0:
178,341,62466,2,0,P|249:330|335:326,1,143.999995605469,8|8,0:0|0:0,0:0:0:0:
427,377,63014,1,0,0:0:0:0:
488,264,63197,6,0,P|490:228|484:192,1,71.9999978027344,8|0,0:0|0:0,0:0:0:0:
401,106,63563,2,0,P|398:70|404:34,1,71.9999978027344,8|0,0:0|0:0,0:0:0:0:
311,168,63929,2,0,P|239:163|168:152,1,143.999995605469,8|8,0:0|0:0,0:0:0:0:
80,75,64478,1,0,0:0:0:0:
9,190,64661,6,0,P|6:225|12:261,1,71.9999978027344,8|0,0:0|0:0,0:0:0:0:
93,351,65027,1,8,0:0:0:0:
175,265,65210,1,0,0:0:0:0:
80,193,65392,2,0,P|44:187|9:190,1,71.9999978027344,8|0,0:0|0:0,0:0:0:0:
175,265,65758,1,8,0:0:0:0:
241,145,65941,6,0,P|312:134|398:130,1,143.999995605469
480,160,66490,1,8,0:0:0:0:
512,68,66673,1,0,0:0:0:0:
383,129,66856,2,0,P|376:164|379:200,1,71.9999978027344,8|0,0:0|0:0,0:0:0:0:
462,301,67222,1,8,0:0:0:0:
333,283,67405,1,0,0:0:0:0:
323,279,67496,1,0,0:0:0:0:
313,275,67588,6,0,P|277:272|241:278,1,71.9999978027344,8|0,0:0|0:0,0:0:0:0:
126,342,67953,2,0,P|90:344|54:338,1,71.9999978027344,8|0,0:0|0:0,0:0:0:0:
0,214,68319,2,0,P|35:207|71:210,1,71.9999978027344,8|0,0:0|0:0,0:0:0:0:
166,272,68685,1,8,0:0:0:0:
228,156,68868,6,0,P|230:120|224:84,1,71.9999978027344,0|8,0:0|0:0,0:0:0:0:
67,138,69234,2,0,P|64:174|71:210,1,71.9999978027344,0|8,0:0|0:0,0:0:0:0:
212,298,69600,2,0,P|223:227|228:156,1,143.999995605469
201,35,70149,1,8,0:0:0:0:
143,157,70331,1,8,0:0:0:0:
279,81,70514,6,0,P|314:75|350:78,1,71.9999978027344,8|0,0:0|0:0,0:0:0:0:
446,124,70880,1,8,0:0:0:0:
353,6,71063,2,0,P|347:41|350:77,1,71.9999978027344,0|8,0:0|0:0,0:0:0:0:
429,172,71429,1,0,0:0:0:0:
331,245,71612,1,8,0:0:0:0:
246,148,71795,6,0,P|210:142|174:145,1,71.9999978027344,0|8,0:0|0:0,0:0:0:0:
83,209,72161,1,0,0:0:0:0:
24,111,72344,2,0,P|20:75|26:39,1,71.9999978027344,8|0,0:0|0:0,0:0:0:0:
171,73,72710,2,0,P|176:108|173:144,1,71.9999978027344,8|0,0:0|0:0,0:0:0:0:
83,209,73075,1,8,0:0:0:0:
24,111,73258,1,0,0:0:0:0:
171,73,73441,6,0,P|206:69|242:75,1,71.9999978027344,8|0,0:0|0:0,0:0:0:0:
324,162,73807,1,8,0:0:0:0:
411,71,73990,2,0,P|414:35|408:0,1,71.9999978027344,0|8,0:0|0:0,0:0:0:0:
324,162,74356,1,0,0:0:0:0:
242,75,74539,1,8,0:0:0:0:
160,185,74722,6,0,P|154:220|157:256,1,71.9999978027344,0|8,0:0|0:0,0:0:0:0:
222,348,75088,1,0,0:0:0:0:
309,267,75270,2,0,L|349:262,3,35.9999989013672,10|0|2|0,0:0|0:0|0:0|0:0,0:0:0:0:
408,208,75636,2,0,L|448:213,3,35.9999989013672,10|0|2|0,0:0|0:0|0:0|0:0,0:0:0:0:
512,168,76002,1,8,0:3:0:0:
444,291,76185,1,4,0:3:0:0:
326,181,76368,6,0,P|320:146|323:110,1,71.9999978027344,4|0,0:0|0:0,0:0:0:0:
416,44,76734,1,8,0:0:0:0:
394,216,76917,2,0,P|323:205|237:201,1,143.999995605469,4|8,0:0|0:0,0:0:0:0:
137,266,77466,1,0,0:0:0:0:
233,129,77649,6,0,P|244:201|247:272,1,143.999995605469,4|8,0:0|0:0,0:0:0:0:
187,370,78197,1,8,0:0:0:0:
319,274,78380,2,0,P|283:269|248:273,1,71.9999978027344,0|8,0:0|0:0,0:0:0:0:
115,372,78746,2,0,P|151:375|187:370,1,71.9999978027344,0|8,0:0|0:1,0:0:0:0:
246,272,79112,1,8,0:0:0:0:
96,159,79295,6,0,P|89:194|93:230,1,71.9999978027344,8|8,0:1|0:0,1:0:0:0:
246,272,79661,2,0,P|249:236|243:200,1,71.9999978027344,8|8,0:1|0:0,1:0:0:0:
96,159,80027,2,0,L|6:151,1,71.9999978027344,8|8,0:1|0:0,1:0:0:0:
243,200,80392,2,0,L|314:193,1,71.9999978027344,8|8,0:1|0:0,1:0:0:0:
484,119,80758,5,8,0:1:0:0:
484,119,80941,1,8,0:0:0:0:
319,198,81124,1,8,0:1:0:0:
319,198,81307,1,8,0:0:0:0:
398,41,81490,1,8,0:1:0:0:
426,216,81673,1,8,0:0:0:0:
302,94,81856,1,8,0:1:0:0:
282,86,81947,1,8,0:0:0:0:
260,86,82038,1,8,0:0:0:0:
238,91,82130,1,8,0:0:0:0:
387,135,82953,5,2,0:0:0:0:
387,135,83136,2,0,P|339:123|294:148,1,100,2|0,0:0|0:0,0:0:0:0:
350,201,83685,6,0,P|345:281|338:360,1,160,4|8,0:0|0:1,0:0:0:0:
427,321,84234,1,0,0:0:0:0:
264,246,84417,2,0,P|224:243|185:250,1,80,8|0,0:0|0:0,0:0:0:0:
49,152,84783,2,0,P|88:154|127:147,1,80,8|0,0:1|0:0,0:0:0:0:
259,40,85149,6,0,P|333:20|388:73,1,160,8|8,0:0|0:1,0:0:0:0:
353,208,85697,1,0,0:0:0:0:
466,108,85880,2,0,P|469:68|461:28,1,80,8|0,0:0|0:0,0:0:0:0:
314,98,86246,2,0,P|310:137|318:177,1,80,8|0,0:1|0:0,0:0:0:0:
483,254,86612,6,0,P|443:246|403:249,1,80,8|0,0:0|0:0,0:0:0:0:
289,333,86978,2,0,P|249:340|209:337,1,80,8|0,0:1|0:0,0:0:0:0:
98,232,87344,1,8,0:0:0:0:
131,376,87527,1,0,0:0:0:0:
250,261,87710,2,0,P|257:221|254:181,1,80,8|0,0:1|0:0,0:0:0:0:
148,71,88075,6,0,L|69:63,1,80,10|0,0:0|0:0,0:0:0:0:
254,181,88441,2,0,L|332:173,1,80,10|0,0:1|0:0,0:0:0:0:
148,71,88807,2,0,P|144:110|152:150,1,80,10|0,0:0|0:0,0:0:0:0:
258,260,89173,2,0,P|261:220|254:181,1,80,10|0,0:1|0:0,0:0:0:0:
198,337,89539,5,8,0:0:0:0:
334,293,89722,1,0,0:0:0:0:
184,222,89905,1,8,0:1:0:0:
346,301,90088,2,0,P|385:304|425:296,1,80,0|8,0:0|0:0,0:0:0:0:
315,148,90453,2,0,P|275:144|235:152,1,80,0|8,0:0|0:1,0:0:0:0:
96,240,90819,5,0,0:0:0:0:
258,260,91002,1,8,0:0:0:0:
134,148,91185,1,0,0:0:0:0:
167,302,91368,1,8,0:1:0:0:
280,176,91551,2,0,P|319:168|359:171,1,80,0|8,0:0|0:0,0:0:0:0:
512,266,91917,2,0,P|472:269|432:261,1,80,0|8,0:0|0:1,0:0:0:0:
359,171,92283,1,0,0:0:0:0:
275,341,92466,5,10,0:0:0:0:
407,274,92649,1,0,0:0:0:0:
241,236,92831,1,8,0:1:0:0:
241,236,93014,1,0,0:0:0:0:
368,355,93197,1,10,0:0:0:0:
328,186,93380,1,0,0:0:0:0:
476,240,93563,1,8,0:1:0:0:
368,355,93746,1,0,0:0:0:0:
402,228,93929,6,0,L|405:186,3,40,10|0|2|0,0:0|0:0|0:0|0:0,0:0:0:0:
478,135,94295,1,10,0:1:0:0:
448,108,94386,1,0,0:0:0:0:
410,96,94477,1,2,0:0:0:0:
371,103,94569,1,0,0:0:0:0:
339,126,94661,6,0,L|337:166,3,40,10|0|2|0,0:0|0:0|0:0|0:0,0:0:0:0:
289,66,95027,1,10,0:1:0:0:
249,63,95119,1,0,0:0:0:0:
212,77,95210,1,2,0:0:0:0:
185,107,95301,1,0,0:0:0:0:
174,145,95392,6,0,P|100:165|45:112,1,160,12|8,0:0|0:1,0:0:0:0:
165,6,95941,1,0,0:0:0:0:
254,111,96124,2,0,P|257:150|250:189,1,80,8|0,0:0|0:0,0:0:0:0:
152,289,96490,2,0,P|148:328|155:367,1,80,8|0,0:1|0:0,0:0:0:0:
339,322,96856,6,0,P|346:242|351:162,1,160,8|8,0:0|0:1,0:0:0:0:
325,31,97405,1,0,0:0:0:0:
433,128,97588,2,0,P|436:167|429:206,1,80,8|0,0:0|0:0,0:0:0:0:
266,253,97953,2,0,P|226:245|187:249,1,80,8|0,0:1|0:0,0:0:0:0:
31,166,98319,6,0,P|70:169|109:162,1,80,8|0,0:0|0:0,0:0:0:0:
219,61,98685,2,0,P|258:57|297:64,1,80,8|0,0:1|0:0,0:0:0:0:
430,154,99051,2,0,L|351:162,1,80,8|0,0:0|0:0,0:0:0:0:
265,252,99417,1,8,0:1:0:0:
398,323,99600,6,0,P|405:283|402:243,1,80,0|10,0:0|0:0,0:0:0:0:
307,146,99966,1,0,0:0:0:0:
416,64,100149,2,0,P|455:60|494:67,1,80,10|0,0:1|0:0,0:0:0:0:
307,146,100514,1,10,0:0:0:0:
437,202,100697,1,0,0:0:0:0:
328,62,100880,2,0,P|288:59|248:66,1,80,10|0,0:1|0:0,0:0:0:0:
167,206,101246,5,8,0:0:0:0:
307,146,101429,1,0,0:0:0:0:
147,100,101612,1,8,0:1:0:0:
254,214,101795,2,0,L|262:293,1,80,0|8,0:0|0:0,0:0:0:0:
147,100,102161,2,0,L|139:179,1,80,0|8,0:0|0:1,0:0:0:0:
86,273,102527,1,0,0:0:0:0:
254,214,102710,5,8,0:0:0:0:
147,100,102892,1,0,0:0:0:0:
174,279,103075,1,8,0:1:0:0:
79,166,103258,2,0,P|40:162|1:169,1,80,0|8,0:0|0:0,0:0:0:0:
245,119,103624,2,0,P|284:115|323:122,1,80,0|8,0:0|0:1,0:0:0:0:
407,213,103990,1,0,0:0:0:0:
268,315,104173,6,0,P|261:275|264:235,1,80,10|0,0:0|0:0,0:0:0:0:
323,122,104539,1,8,0:1:0:0:
407,213,104722,2,0,L|486:205,1,80,0|8,0:0|0:0,0:0:0:0:
323,122,105088,2,0,L|244:114,1,80,0|8,0:0|0:1,0:0:0:0:
169,42,105453,1,0,0:0:0:0:
96,206,105636,6,0,L|175:198,1,80,10|0,0:0|0:0,0:0:0:0:
278,279,106002,1,8,0:1:0:0:
150,366,106185,2,0,P|143:326|146:286,1,80,0|10,0:0|0:0,0:0:0:0:
266,188,106551,1,0,0:0:0:0:
225,322,106734,1,8,0:1:0:0:
156,182,106917,1,0,0:0:0:0:
313,277,107100,6,0,L|392:269,1,80,10|0,0:0|0:0,0:0:0:0:
235,190,107466,2,0,L|156:182,1,80,0|0,1:0|0:0,0:0:0:0:
62,226,107831,1,8,0:0:0:0:
124,92,108014,1,0,0:0:0:0:
235,189,108197,2,0,P|237:229|230:269,1,80,8|0,0:1|0:0,0:0:0:0:
346,384,108563,6,0,P|339:344|341:304,1,80,10|0,0:0|0:0,0:0:0:0:
437,233,108929,1,8,0:1:0:0:
498,337,109112,1,0,0:0:0:0:
341,304,109295,2,0,P|301:301|261:308,1,80,8|0,0:0|0:0,0:0:0:0:
170,384,109661,1,8,0:1:0:0:
114,242,109844,1,0,0:0:0:0:
114,242,109935,1,0,0:0:0:0:
114,242,110027,1,2,0:0:0:0:
256,192,110118,12,0,111490,0:0:0:0:
27,209,112588,6,0,L|58:213,5,23.9999992675781,2|2|2|2|2|2,1:3|1:3|1:3|1:3|1:3|1:3,0:0:0:0:
78,197,112953,2,0,P|113:190|149:192,1,71.9999978027344,8|0,0:0|0:0,0:0:0:0:
241,281,113319,2,0,P|276:287|312:285,1,71.9999978027344,8|0,0:0|0:0,0:0:0:0:
407,213,113685,1,8,0:0:0:0:
448,325,113868,1,0,0:0:0:0:
312,285,114051,2,0,P|305:249|307:213,1,71.9999978027344,8|0,0:0|0:0,0:0:0:0:
401,73,114417,6,0,P|402:108|396:144,1,71.9999978027344,8|0,0:0|0:0,0:0:0:0:
307,213,114783,2,0,L|217:205,1,71.9999978027344,8|0,0:0|0:0,0:0:0:0:
146,130,115149,2,0,L|56:138,1,71.9999978027344,8|0,0:0|0:0,0:0:0:0:
0,191,115514,1,8,0:0:0:0:
35,61,115697,1,0,0:0:0:0:
146,130,115880,6,0,P|152:165|150:201,1,71.9999978027344,8|0,0:0|0:0,0:0:0:0:
55,274,116246,1,8,0:0:0:0:
130,367,116429,1,0,0:0:0:0:
228,298,116612,2,0,P|263:291|299:292,1,71.9999978027344,8|0,0:0|0:0,0:0:0:0:
398,216,116978,2,0,P|404:180|403:144,1,71.9999978027344,8|0,0:0|0:0,0:0:0:0:
306,25,117344,6,0,P|305:60|311:96,1,71.9999978027344,8|0,0:0|0:0,0:0:0:0:
474,137,117710,2,0,L|403:144,1,71.9999978027344,8|0,0:0|0:0,0:0:0:0:
294,84,118075,2,0,P|258:77|222:78,1,71.9999978027344,8|0,0:0|0:0,0:0:0:0:
140,144,118441,1,8,0:0:0:0:
87,45,118624,1,0,0:0:0:0:
222,104,118807,6,0,P|228:139|226:175,1,71.9999978027344,8|0,0:0|0:0,0:0:0:0:
107,234,119173,2,0,P|101:269|103:305,1,71.9999978027344,8|0,0:0|0:0,0:0:0:0:
170,384,119539,1,8,0:0:0:0:
228,277,119722,1,0,0:0:0:0:
107,234,119905,2,0,P|71:233|35:240,1,71.9999978027344,8|0,0:0|0:0,0:0:0:0:
228,277,120270,6,0,L|299:270,1,71.9999978027344,8|0,0:0|0:0,0:0:0:0:
396,192,120636,2,0,L|467:199,1,71.9999978027344,8|0,0:0|0:0,0:0:0:0:
306,180,121002,1,8,0:0:0:0:
306,180,121185,1,0,0:0:0:0:
397,289,121368,1,8,0:0:0:0:
397,289,121551,1,0,0:0:0:0:
227,220,121734,6,0,P|220:184|223:148,1,71.9999978027344,8|0,0:0|0:0,0:0:0:0:
344,78,122100,2,0,P|346:113|340:149,1,71.9999978027344,8|0,0:0|0:0,0:0:0:0:
227,220,122466,2,0,L|156:213,1,71.9999978027344,8|0,0:0|0:0,0:0:0:0:
48,129,122831,2,0,L|119:122,1,71.9999978027344,8|0,0:0|0:0,0:0:0:0:
208,44,123197,1,8,0:0:0:0:
256,192,123289,12,0,124478,0:0:0:0:
256,192,124661,5,8,0:0:0:0:
240,328,124844,1,8,0:0:0:0:
247,335,125210,1,8,0:0:0:0:
247,335,125301,1,8,0:0:0:0:
247,335,125392,1,8,0:0:0:0:
372,231,125575,1,8,0:0:0:0:
140,153,125941,5,8,0:0:0:0:
372,231,126856,1,2,1:3:0:0:
140,153,127588,5,8,0:0:0:0:
212,269,127770,1,8,0:0:0:0:
219,276,128136,1,8,0:0:0:0:
219,276,128227,1,8,0:0:0:0:
219,276,128318,1,8,0:0:0:0:
256,102,128502,1,8,0:0:0:0:
445,296,128868,5,8,0:0:0:0:
256,102,129783,1,2,1:3:0:0:
445,296,130514,5,8,0:0:0:0:
493,154,130697,1,8,0:0:0:0:
500,161,131063,1,8,0:0:0:0:
500,161,131154,1,8,0:0:0:0:
500,161,131245,1,8,0:0:0:0:
359,71,131429,1,8,0:0:0:0:
153,313,131795,5,8,0:0:0:0:
359,71,132710,1,2,1:3:0:0:
153,313,133441,5,8,0:0:0:0:
359,313,133624,1,8,0:0:0:0:
366,320,133990,1,8,0:0:0:0:
366,320,134081,1,8,0:0:0:0:
366,320,134172,1,8,0:0:0:0:
256,160,134356,1,8,0:0:0:0:
256,352,134722,5,8,0:0:0:0:
256,160,135088,1,8,0:0:0:0:
127,231,135636,6,0,L|144:233,6,16,0|0|0|0|0|0|0,3:0|3:0|3:0|3:0|3:0|3:0|3:0,0:0:0:0:
208,275,136002,2,0,L|245:272,5,21.3333333333333,2|2|2|2|2|2,1:3|1:3|1:3|1:3|1:3|1:3,0:0:0:0:
264,255,136368,6,0,P|299:253|335:259,1,71.9999978027344,12|0,0:0|0:0,0:0:0:0:
438,343,136734,1,8,0:1:0:0:
500,227,136917,2,0,P|502:192|496:156,1,71.9999978027344,0|8,0:0|0:0,0:0:0:0:
382,64,137283,1,0,0:0:0:0:
411,193,137466,1,8,0:1:0:0:
291,101,137649,6,0,P|256:99|220:105,1,71.9999978027344,0|8,0:0|0:0,0:0:0:0:
98,158,138014,1,0,0:0:0:0:
179,38,138197,2,0,P|190:109|194:195,1,143.999995605469,8|8,0:1|0:0,0:0:0:0:
126,297,138746,1,0,0:0:0:0:
24,195,138929,2,0,P|59:193|95:199,1,71.9999978027344,8|0,0:1|0:0,0:0:0:0:
237,283,139295,6,0,P|272:285|308:279,1,71.9999978027344,8|0,0:0|0:0,0:0:0:0:
401,196,139661,1,8,0:1:0:0:
484,295,139844,2,0,L|477:377,1,71.9999978027344,0|8,0:0|0:0,0:0:0:0:
401,196,140210,1,0,0:0:0:0:
308,278,140392,1,8,0:1:0:0:
222,181,140575,6,0,P|220:146|226:110,1,71.9999978027344,0|8,0:0|0:0,0:0:0:0:
311,62,140941,1,0,0:0:0:0:
297,203,141124,2,0,P|225:207|154:218,1,143.999995605469,8|8,0:1|0:0,0:0:0:0:
80,291,141673,1,0,0:0:0:0:
147,146,141856,2,0,L|154:218,1,71.9999978027344,8|0,0:1|0:0,0:0:0:0:
254,355,142222,6,0,L|260:283,1,71.9999978027344,12|0,0:0|0:0,0:0:0:0:
245,142,142588,1,8,0:1:0:0:
187,278,142770,2,0,P|258:266|329:262,1,143.999995605469,8|8,0:0|0:0,0:0:0:0:
450,337,143319,1,8,0:1:0:0:
293,335,143502,6,0,P|297:263|308:192,1,143.999995605469,8|8,0:0|0:0,0:0:0:0:
393,93,144051,1,8,0:1:0:0:
273,32,144234,2,0,P|238:30|202:36,1,71.9999978027344,0|8,0:0|0:0,0:0:0:0:
136,156,144600,1,0,0:0:0:0:
32,71,144783,2,0,P|30:36|36:0,1,71.9999978027344,8|8,0:1|0:0,1:0:0:0:
136,156,145149,6,0,P|138:191|132:227,1,71.9999978027344,8|8,0:1|0:0,1:0:0:0:
256,338,145514,2,0,P|254:303|260:267,1,71.9999978027344,8|8,0:1|0:0,1:0:0:0:
426,219,145880,2,0,L|344:212,1,71.9999978027344,8|8,0:1|0:0,1:0:0:0:
136,156,146246,2,0,L|218:149,1,71.9999978027344,8|8,0:1|0:0,1:0:0:0:
319,72,146612,5,8,0:1:0:0:
319,72,146795,1,8,0:0:0:0:
253,231,146978,1,8,0:1:0:0:
253,231,147161,1,8,0:0:0:0:
383,131,147344,1,8,0:1:0:0:
227,61,147527,1,8,0:0:0:0:
334,202,147710,1,8,0:1:0:0:
342,222,147801,1,8,0:0:0:0:
342,244,147892,1,8,0:0:0:0:
337,266,147984,1,8,0:0:0:0:
164,222,149539,6,0,P|243:213|323:208,1,160,4|8,0:0|0:1,0:0:0:0:
224,307,150088,1,0,0:0:0:0:
317,130,150270,2,0,P|325:169|323:209,1,80,8|0,0:0|0:0,0:0:0:0:
224,307,150636,2,0,L|146:315,1,80,8|0,0:1|0:0,0:0:0:0:
19,163,151002,6,0,P|74:216|148:196,1,160,8|8,0:0|0:1,0:0:0:0:
214,100,151551,1,0,0:0:0:0:
86,57,151734,2,0,L|95:137,1,80,8|0,0:0|0:0,0:0:0:0:
228,241,152100,2,0,L|237:161,1,80,8|0,0:1|0:0,0:0:0:0:
66,299,152466,6,0,P|105:301|145:294,1,80,8|0,0:0|0:0,0:0:0:0:
265,210,152831,2,0,P|304:207|344:214,1,80,8|0,0:1|0:0,0:0:0:0:
448,285,153197,1,8,0:0:0:0:
512,180,153380,1,0,0:0:0:0:
344,214,153563,2,0,P|337:253|339:293,1,80,8|0,0:1|0:0,0:0:0:0:
224,384,153929,6,0,L|215:304,1,80,10|0,0:0|0:0,0:0:0:0:
150,196,154295,2,0,L|159:116,1,80,10|0,0:1|0:0,0:0:0:0:
50,287,154661,2,0,P|89:289|129:282,1,80,10|0,0:0|0:0,0:0:0:0:
240,217,155027,2,0,P|279:214|319:221,1,80,10|0,0:1|0:0,0:0:0:0:
438,285,155392,5,8,0:0:0:0:
468,156,155575,1,0,0:0:0:0:
319,221,155758,1,8,0:1:0:0:
468,156,155941,2,0,P|474:116|472:76,1,80,0|8,0:0|0:0,0:0:0:0:
330,19,156307,2,0,P|327:58|334:98,1,80,0|8,0:0|0:1,0:0:0:0:
402,204,156673,1,0,0:0:0:0:
268,297,156856,5,8,0:0:0:0:
316,176,157039,1,0,0:0:0:0:
383,326,157222,1,8,0:1:0:0:
231,213,157405,2,0,L|151:221,1,80,0|8,0:0|0:0,0:0:0:0:
4,117,157770,2,0,L|84:125,1,80,0|8,0:0|0:1,0:0:0:0:
183,63,158136,1,0,0:0:0:0:
151,220,158319,5,10,0:0:0:0:
83,124,158502,1,0,0:0:0:0:
251,161,158685,1,8,0:1:0:0:
251,161,158868,1,0,0:0:0:0:
152,52,159051,1,10,0:0:0:0:
118,218,159234,1,0,0:0:0:0:
236,71,159417,1,8,0:1:0:0:
83,124,159600,1,0,0:0:0:0:
207,254,159783,6,0,L|210:296,3,40,10|0|2|0,0:0|0:0|0:0|0:0,0:0:0:0:
133,209,160149,1,10,0:1:0:0:
163,182,160240,1,0,0:0:0:0:
201,170,160331,1,2,0:0:0:0:
240,177,160423,1,0,0:0:0:0:
272,201,160515,6,0,L|313:196,3,40,10|0|2|0,0:0|0:0|0:0|0:0,0:0:0:0:
389,206,160880,1,10,0:1:0:0:
416,176,160971,1,0,0:0:0:0:
428,139,161062,1,2,0:0:0:0:
421,99,161154,1,0,0:0:0:0:
394,70,161246,6,0,P|320:50|265:103,1,160,12|8,0:0|0:1,0:0:0:0:
289,213,161795,1,0,0:0:0:0:
184,137,161978,2,0,P|182:97|188:57,1,80,8|0,0:0|0:0,0:0:0:0:
343,138,162344,2,0,P|344:177|338:217,1,80,8|0,0:1|0:0,0:0:0:0:
195,296,162710,6,0,P|188:216|183:136,1,160,8|8,0:0|0:1,0:0:0:0:
239,51,163258,1,0,0:0:0:0:
95,99,163441,2,0,P|93:139|99:179,1,80,8|0,0:0|0:0,0:0:0:0:
195,296,163807,2,0,L|275:304,1,80,8|0,0:1|0:0,0:0:0:0:
441,227,164173,6,0,L|361:235,1,80,8|0,0:0|0:0,0:0:0:0:
288,88,164539,2,0,P|286:128|292:168,1,80,8|0,0:1|0:0,0:0:0:0:
441,227,164905,2,0,P|446:187|444:147,1,80,8|0,0:0|0:0,0:0:0:0:
365,37,165270,1,8,0:1:0:0:
207,137,165453,6,0,L|287:129,1,80,0|10,0:0|0:0,0:0:0:0:
119,69,165819,1,0,0:0:0:0:
223,163,166002,2,0,P|225:202|219:242,1,80,10|0,0:1|0:0,0:0:0:0:
135,318,166368,1,10,0:0:0:0:
63,228,166551,1,0,0:0:0:0:
219,242,166734,2,0,L|299:250,1,80,10|0,0:1|0:0,0:0:0:0:
413,330,167100,5,8,0:0:0:0:
274,360,167283,1,0,0:0:0:0:
386,243,167466,1,8,0:1:0:0:
264,350,167649,2,0,L|256:270,1,80,0|8,0:0|0:0,0:0:0:0:
386,243,168014,2,0,L|394:163,1,80,0|8,0:0|0:1,0:0:0:0:
343,59,168380,1,0,0:0:0:0:
449,16,168563,5,8,0:0:0:0:
393,163,168746,1,0,0:0:0:0:
500,88,168929,1,8,0:1:0:0:
343,59,169112,2,0,P|303:57|263:63,1,80,0|8,0:0|0:0,0:0:0:0:
156,140,169478,2,0,P|116:141|76:135,1,80,0|8,0:0|0:1,0:0:0:0:
248,69,169844,1,0,0:0:0:0:
326,209,170027,6,0,P|328:249|322:289,1,80,10|0,0:0|0:0,0:0:0:0:
227,374,170392,1,8,0:1:0:0:
145,276,170575,2,0,L|65:268,1,80,0|8,0:0|0:0,0:0:0:0:
246,217,170941,2,0,L|326:209,1,80,0|8,0:0|0:1,0:0:0:0:
429,132,171307,1,0,0:0:0:0:
386,282,171490,5,10,0:0:0:0:
490,205,171673,1,0,0:0:0:0:
375,292,171856,1,8,0:1:0:0:
283,181,172039,2,0,P|281:141|287:101,1,80,0|10,0:0|0:0,0:0:0:0:
361,12,172405,1,0,0:0:0:0:
429,132,172588,1,8,0:1:0:0:
286,101,172770,1,0,0:0:0:0:
448,156,172953,6,0,P|453:195|451:235,1,80,10|0,0:0|0:0,0:0:0:0:
306,333,173319,2,0,P|301:294|303:254,1,80,8|0,0:1|0:0,0:0:0:0:
366,149,173685,1,8,0:0:0:0:
450,235,173868,1,0,0:0:0:0:
303,253,174051,2,0,L|223:245,1,80,8|0,0:1|0:0,0:0:0:0:
82,167,174417,6,0,L|162:159,1,80,10|0,0:0|0:0,0:0:0:0:
262,76,174783,1,8,0:1:0:0:
342,178,174966,1,0,0:0:0:0:
248,276,175149,2,0,P|243:237|245:197,1,80,8|0,0:0|0:0,0:0:0:0:
357,88,175514,1,8,0:1:0:0:
420,246,175697,1,0,0:0:0:0:
420,246,175789,1,0,0:0:0:0:
420,246,175880,1,2,0:0:0:0:
256,192,175972,12,0,178807,0:0:0:0:
143,257,190149,5,8,0:0:0:0:
256,352,190331,1,8,0:0:0:0:
358,229,190514,6,0,P|361:190|354:150,1,80,12|0,0:0|0:0,0:0:0:0:
268,50,190880,1,8,0:1:0:0:
174,151,191063,2,0,L|94:160,1,80,0|8,0:0|0:0,0:0:0:0:
0,206,191429,1,0,0:0:0:0:
97,296,191612,1,8,0:1:0:0:
174,151,191795,6,0,P|213:148|253:155,1,80,0|8,0:0|0:0,0:0:0:0:
352,235,192161,1,0,0:0:0:0:
426,119,192344,2,0,P|429:80|422:40,1,80,8|0,0:1|0:0,0:0:0:0:
248,75,192710,2,0,P|246:115|253:155,1,80,8|0,0:0|0:0,0:0:0:0:
343,315,193075,2,0,L|352:235,1,80,8|0,0:1|0:0,0:0:0:0:
421,181,193350,1,0,0:0:0:0:
435,201,193441,6,0,P|438:241|431:281,1,80,8|0,0:0|0:0,0:0:0:0:
343,151,193807,2,0,P|340:111|347:71,1,80,8|0,0:1|0:0,0:0:0:0:
236,0,194173,2,0,L|245:80,1,80,8|0,0:0|0:0,0:0:0:0:
184,197,194539,1,8,0:1:0:0:
74,81,194722,6,0,P|113:78|153:85,1,80,0|8,0:0|0:0,0:0:0:0:
263,168,195088,1,0,0:0:0:0:
358,79,195270,2,0,P|361:39|354:-1,1,80,8|0,0:1|0:0,0:0:0:0:
263,168,195636,1,8,0:0:0:0:
366,252,195819,1,0,0:0:0:0:
450,155,196002,2,0,L|370:164,1,80,8|0,0:1|0:0,0:0:0:0:
297,210,196277,1,0,0:0:0:0:
278,221,196368,6,0,L|198:212,1,80,8|0,0:0|0:0,0:0:0:0:
59,238,196734,1,8,0:1:0:0:
124,137,196917,1,0,0:0:0:0:
234,256,197100,2,0,P|240:216|237:176,1,80,8|0,0:0|0:0,0:0:0:0:
182,56,197466,1,8,0:1:0:0:
44,128,197649,6,0,L|124:137,1,80,0|8,0:0|0:0,0:0:0:0:
257,96,198014,1,0,0:0:0:0:
174,217,198197,2,0,L|94:226,1,80,8|0,0:1|0:0,0:0:0:0:
259,268,198563,1,8,0:0:0:0:
214,140,198746,1,0,0:0:0:0:
342,237,198929,2,0,P|345:277|338:317,1,80,8|0,0:1|0:0,0:0:0:0:
263,353,199203,1,0,0:0:0:0:
241,359,199295,6,0,L|162:350,1,80,8|0,0:0|0:0,0:0:0:0:
338,316,199661,2,0,L|418:307,1,80,8|0,0:1|0:0,0:0:0:0:
249,255,200027,1,8,0:0:0:0:
324,145,200210,1,0,0:0:0:0:
173,101,200392,2,0,P|170:140|176:180,1,80,8|0,0:1|0:0,0:0:0:0:
338,248,200758,6,0,P|343:208|341:168,1,80,8|0,0:0|0:0,0:0:0:0:
265,64,201124,1,8,0:1:0:0:
213,171,201307,1,0,0:0:0:0:
361,80,201490,2,0,P|400:77|440:83,1,80,8|0,0:0|0:0,0:0:0:0:
511,189,201856,1,8,0:1:0:0:
354,272,202039,1,0,0:0:0:0:
352,260,202130,1,0,0:0:0:0:
350,248,202222,6,0,L|341:168,1,80,8|0,0:0|0:0,0:0:0:0:
453,308,202588,2,0,L|462:228,1,80,8|0,0:1|0:0,0:0:0:0:
405,92,202953,1,8,0:0:0:0:
512,165,203136,1,0,0:0:0:0:
380,235,203319,2,0,L|300:244,1,80,8|0,0:1|0:0,0:0:0:0:
135,177,203685,6,0,P|174:174|214:180,1,80,8|0,0:0|0:0,0:0:0:0:
252,322,204051,2,0,P|212:324|172:318,1,80,8|0,0:1|0:0,0:0:0:0:
81,245,204417,1,8,0:0:0:0:
14,336,204600,1,0,0:0:0:0:
172,318,204783,2,0,L|181:238,1,80,8|0,0:1|0:0,0:0:0:0:
233,170,205057,1,0,0:0:0:0:
239,148,205148,6,0,L|230:68,1,80,8|0,0:0|0:0,0:0:0:0:
346,195,205514,2,0,L|355:115,1,80,8|0,0:1|0:0,0:0:0:0:
230,68,205880,2,0,P|190:65|150:71,1,80,8|0,0:0|0:0,0:0:0:0:
23,150,206246,2,0,P|62:147|102:153,1,80,8|0,0:1|0:0,0:0:0:0:
218,237,206612,5,8,0:0:0:0:
178,121,206795,1,0,0:0:0:0:
58,227,206978,2,0,P|52:266|54:306,1,80,8|0,0:1|0:0,0:0:0:0:
155,373,207344,1,8,0:0:0:0:
217,270,207527,1,0,0:0:0:0:
54,306,207710,1,8,0:1:0:0:
153,203,207892,1,0,0:0:0:0:
163,196,207984,1,0,0:0:0:0:
174,191,208075,6,0,P|213:185|253:187,1,80,8|0,0:0|0:0,0:0:0:0:
344,272,208441,2,0,P|383:277|423:275,1,80,8|0,0:1|0:0,0:0:0:0:
512,213,208807,1,8,0:0:0:0:
434,111,208990,1,0,0:0:0:0:
335,192,209173,2,0,L|344:272,1,80,8|0,0:1|0:0,0:0:0:0:
228,384,209539,6,0,L|237:304,1,80,8|0,0:0|0:0,0:0:0:0:
174,177,209905,1,8,0:1:0:0:
64,229,210088,1,0,0:0:0:0:
130,99,210270,2,0,P|169:93|209:95,1,80,8|0,0:0|0:0,0:0:0:0:
335,192,210636,2,0,P|374:197|414:195,1,80,8|0,0:1|0:0,0:0:0:0:
479,137,210911,1,0,0:0:0:0:
488,116,211002,6,0,L|493:35,1,80,8|0,0:0|0:0,0:0:0:0:
414,195,211368,2,0,L|419:275,1,80,8|0,0:1|0:0,0:0:0:0:
319,129,211734,2,0,P|280:126|240:132,1,80,8|0,0:0|0:0,0:0:0:0:
130,200,212100,1,8,0:1:0:0:
79,83,212283,1,0,0:0:0:0:
241,133,212466,6,0,P|247:172|245:212,1,80,8|0,0:0|0:0,0:0:0:0:
85,166,212831,2,0,L|165:175,1,80,8|0,0:1|0:0,0:0:0:0:
259,256,213197,1,8,0:0:0:0:
241,133,213380,1,0,0:0:0:0:
91,248,213563,2,0,L|171:257,1,80,8|0,0:1|0:0,0:0:0:0:
236,311,213838,1,0,0:0:0:0:
256,321,213929,6,0,P|335:312|415:307,1,160,8|8,0:0|0:1,0:0:0:0:
512,344,214478,1,0,0:0:0:0:
431,225,214661,2,0,L|426:145,1,80,8|0,0:0|0:0,0:0:0:0:
512,22,215027,2,0,L|507:102,1,80,8|0,0:1|0:0,0:0:0:0:
336,164,215392,6,0,P|280:110|206:131,1,160,8|8,0:0|0:1,0:0:0:0:
140,226,215941,1,0,0:0:0:0:
51,141,216124,2,0,P|48:101|55:61,1,80,8|0,0:0|0:0,0:0:0:0:
140,226,216490,2,0,L|145:306,1,80,8|0,0:1|0:0,0:0:0:0:
213,350,216764,1,0,0:0:0:0:
231,333,216856,6,0,B|270:311|309:331|309:331|344:351|384:331,1,160,8|8,0:0|0:1,0:0:0:0:
475,249,217405,1,0,0:0:0:0:
352,182,217588,2,0,P|345:221|348:261,1,80,8|0,0:0|0:0,0:0:0:0:
465,149,217953,2,0,P|467:109|460:69,1,80,8|0,0:1|0:0,0:0:0:0:
280,0,218319,6,0,P|270:79|265:159,1,160,8|8,0:0|0:1,0:0:0:0:
306,280,218868,1,0,0:0:0:0:
188,196,219051,2,0,P|184:156|191:116,1,80,8|0,0:0|0:0,0:0:0:0:
280,0,219417,1,8,0:1:0:0:
400,93,219601,1,0,0:0:0:0:
397,109,219692,1,0,0:0:0:0:
392,124,219783,6,0,P|338:178|264:159,1,160,8|8,0:0|0:1,0:0:0:0:
205,37,220331,1,0,0:0:0:0:
106,122,220514,2,0,P|102:161|109:201,1,80,8|0,0:0|0:0,0:0:0:0:
242,316,220880,2,0,P|249:276|246:237,1,80,8|0,0:1|0:0,0:0:0:0:
142,71,221246,6,0,P|88:125|108:200,1,160,8|8,0:0|0:1,0:0:0:0:
210,262,221795,1,0,0:0:0:0:
293,165,221978,2,0,P|332:160|372:162,1,80,8|0,0:0|0:0,0:0:0:0:
477,259,222344,2,0,L|397:268,1,80,8|0,0:1|0:0,0:0:0:0:
325,316,222618,1,0,0:0:0:0:
305,326,222709,6,0,P|226:317|146:312,1,160,8|8,0:0|0:1,0:0:0:0:
15,330,223258,1,0,0:0:0:0:
103,230,223441,2,0,P|142:223|182:226,1,80,8|0,0:0|0:0,0:0:0:0:
285,306,223807,2,0,P|324:313|364:310,1,80,8|0,0:1|0:0,0:0:0:0:
431,257,224081,1,0,0:0:0:0:
444,238,224173,6,0,L|449:158,1,80,8|0,0:0|0:0,0:0:0:0:
323,64,224539,2,0,P|337:142|348:221,1,160,8|8,0:1|0:0,0:0:0:0:
314,336,225088,1,0,0:0:0:0:
431,257,225270,2,0,L|511:248,1,80,8|0,0:1|0:0,0:0:0:0:
348,221,225636,6,0,L|271:213,1,64,10|0,0:0|0:0,0:0:0:0:
214,291,226002,1,10,0:0:0:0:
214,291,226185,2,0,L|137:299,1,64,2|8,0:0|0:0,0:0:0:0:
66,358,226551,1,2,0:0:0:0:
6,276,226734,1,10,0:0:0:0:
96,211,226917,6,0,P|102:179|104:147,1,64,2|8,0:0|0:0,0:0:0:0:
67,36,227283,1,2,0:0:0:0:
35,119,227466,2,0,P|97:107|161:98,1,128,10|8,0:0|0:0,0:0:0:0:
254,149,228014,1,0,0:0:0:0:
332,67,228197,2,0,P|338:35|340:3,1,64,8|2,0:0|0:0,0:0:0:0:
254,149,228563,6,0,L|262:226,1,64,10|2,0:0|0:0,0:0:0:0:
352,292,228929,1,10,0:0:0:0:
352,292,229112,2,0,L|360:215,1,64,2|8,0:0|0:0,0:0:0:0:
334,125,229478,1,2,0:0:0:0:
260,212,229661,1,10,0:0:0:0:
386,191,229844,6,0,P|417:192|449:199,1,64,2|8,0:0|0:0,0:0:0:0:
334,258,230210,1,2,0:0:0:0:
263,173,230392,2,0,P|200:161|136:152,1,128,10|8,0:0|0:0,0:0:0:0:
136,152,231124,1,10,0:0:0:0:
153,272,231307,1,2,0:0:0:0:
58,195,231490,2,0,P|51:163|49:131,1,64,10|2,0:0|0:0,0:0:0:0:
115,41,231856,6,0,B|302:-22|332:67|387:152|255:288|122:152|178:67|208:-22|396:41,1,640,10|8,0:0|0:0,0:0:0:0:
492,216,234051,6,0,P|489:247|484:279,1,64,10|0,0:0|0:0,0:0:0:0:
406,359,234417,2,0,P|374:364|342:366,1,64,10|2,0:0|0:0,0:0:0:0:
256,296,234783,6,0,B|244:239|176:218|176:218|92:195|61:88|160:28|229:78|229:78|283:14|394:47|389:159|314:201|314:201|252:238|268:292,1,768,10|8,0:0|0:0,0:0:0:0:
256,192,237344,12,2,238807,0:0:0:0:
256,192,238899,12,0,240088,0:0:0:0:
154,83,243197,6,0,B|201:59|244:83|244:83|288:106|338:84,1,191.999994140625,2|0,0:0|0:0,0:0:0:0:
339,85,244661,2,0,P|402:151|377:239,1,191.999994140625,2|2,0:0|0:0,0:0:0:0:
376,239,246490,6,0,P|331:256|284:249,1,95.9999970703126,0|2,0:0|0:0,0:0:0:0:
284,249,247222,2,0,P|172:233|240:324,1,287.999991210938,2|0,0:0|0:0,0:0:0:0:
240,324,248868,5,0,0:0:0:0:
303,263,249051,2,0,P|309:216|292:171,1,95.9999970703126,2|0,0:0|0:0,0:0:0:0:
216,128,249600,2,0,L|120:135,1,95.9999970703126,2|2,0:0|0:0,0:0:0:0:
120,134,250331,5,0,0:0:0:0:
50,79,250514,2,0,P|32:123|39:170,1,95.9999970703126,2|0,0:0|0:0,0:0:0:0:
113,220,251063,2,0,L|209:213,1,95.9999970703126,2|2,0:0|0:0,0:0:0:0:
208,213,251795,5,0,0:0:0:0:
273,157,251978,2,0,P|298:152|324:151,1,47.9999985351563,2|0,0:0|0:0,0:0:0:0:
389,207,252344,2,0,P|393:232|395:258,1,47.9999985351563,2|0,0:0|0:0,0:0:0:0:
320,290,252710,2,0,P|315:266|313:242,2,47.9999985351563,2|0|0,0:0|0:0|0:0,0:0:0:0:
392,342,253258,1,2,0:0:0:0:
256,192,253350,12,0,254722,0:0:0:0:
91,167,254905,6,0,P|148:222|226:201,1,167.999994873047,12|8,0:0|0:1,0:0:0:0:
271,66,255453,1,0,0:0:0:0:
378,158,255636,2,0,P|386:199|384:240,1,83.9999974365235,8|0,0:0|0:0,0:0:0:0:
220,284,256002,2,0,P|217:242|226:201,1,83.9999974365235,8|0,0:1|0:0,0:0:0:0:
369,72,256368,6,0,P|378:155|383:239,1,167.999994873047,8|8,0:0|0:1,0:0:0:0:
304,349,256917,1,0,0:0:0:0:
213,243,257100,2,0,L|129:233,1,83.9999974365235,8|0,0:0|0:0,0:0:0:0:
16,130,257466,2,0,P|57:132|98:123,1,83.9999974365235,8|0,0:1|0:0,0:0:0:0:
219,22,257831,6,0,P|260:19|301:28,1,83.9999974365235,8|0,0:0|0:0,0:0:0:0:
398,125,258197,1,8,0:1:0:0:
293,215,258380,1,0,0:0:0:0:
212,104,258563,2,0,P|209:62|218:21,1,83.9999974365235,8|0,0:0|0:0,0:0:0:0:
293,215,258929,1,8,0:1:0:0:
132,168,259112,6,0,L|48:177,1,83.9999974365235,0|8,0:0|0:0,0:0:0:0:
212,104,259478,1,0,0:0:0:0:
293,215,259661,2,0,L|376:205,1,83.9999974365235,8|0,0:1|0:0,0:0:0:0:
483,135,260027,1,8,0:0:0:0:
430,269,260210,1,0,0:0:0:0:
307,133,260392,2,0,P|294:172|292:214,1,83.9999974365235,8|0,0:1|0:0,0:0:0:0:
370,370,260758,5,8,0:0:0:0:
244,289,260941,1,0,0:0:0:0:
376,205,261124,1,8,0:1:0:0:
230,296,261307,2,0,L|146:286,1,83.9999974365235,0|8,0:0|0:0,0:0:0:0:
384,197,261673,2,0,L|467:187,1,83.9999974365235,0|8,0:0|0:1,0:0:0:0:
296,146,262039,1,0,0:0:0:0:
218,305,262222,5,8,0:0:0:0:
129,172,262405,1,0,0:0:0:0:
289,239,262588,1,8,0:1:0:0:
136,279,262770,2,0,P|137:320|150:360,1,83.9999974365235,0|8,0:0|0:0,0:0:0:0:
353,295,263136,2,0,P|366:255|367:213,1,83.9999974365235,0|8,0:0|0:1,0:0:0:0:
322,68,263502,1,0,0:0:0:0:
289,239,263685,5,8,0:0:0:0:
425,152,263868,1,0,0:0:0:0:
254,115,264051,1,8,0:1:0:0:
425,152,264234,2,0,L|509:142,1,83.9999974365235,0|8,0:0|0:0,0:0:0:0:
342,83,264600,1,0,0:0:0:0:
253,206,264783,2,0,L|169:196,1,83.9999974365235,8|0,0:1|0:0,0:0:0:0:
120,54,265149,5,10,0:0:0:0:
150,27,265240,1,0,0:0:0:0:
188,15,265331,1,2,0:0:0:0:
227,22,265423,1,0,0:0:0:0:
259,45,265515,2,0,L|263:87,3,41.9999987182618,10|0|2|0,0:1|0:0|0:0|0:0,0:0:0:0:
258,172,265880,5,10,0:0:0:0:
276,207,265971,1,0,0:0:0:0:
308,231,266062,1,10,0:1:0:0:
347,238,266154,1,0,0:0:0:0:
387,231,266246,1,10,0:1:0:0:
422,211,266338,1,0,0:0:0:0:
443,177,266429,1,10,0:1:0:0:
450,138,266520,1,0,0:0:0:0:
439,103,266612,6,0,P|377:53|302:82,1,167.999994873047,12|8,0:0|0:1,0:0:0:0:
253,206,267161,1,0,0:0:0:0:
139,127,267344,2,0,L|55:117,1,83.9999974365235,8|0,0:0|0:0,0:0:0:0:
264,69,267710,2,0,L|348:59,1,83.9999974365235,8|0,0:1|0:0,0:0:0:0:
464,194,268075,6,0,P|401:143|326:172,1,167.999994873047,8|8,0:0|0:1,0:0:0:0:
351,307,268624,1,0,0:0:0:0:
244,209,268807,2,0,P|241:167|250:126,1,83.9999974365235,8|0,0:0|0:0,0:0:0:0:
387,40,269173,2,0,P|395:80|392:122,1,83.9999974365235,8|0,0:1|0:0,0:0:0:0:
244,209,269539,6,0,L|160:199,1,83.9999974365235,8|0,0:0|0:0,0:0:0:0:
41,294,269905,2,0,L|125:284,1,83.9999974365235,8|0,0:1|0:0,0:0:0:0:
244,341,270270,1,8,0:0:0:0:
326,234,270453,1,0,0:0:0:0:
209,138,270636,2,0,P|200:178|203:220,1,83.9999974365235,8|0,0:1|0:0,0:0:0:0:
340,349,271002,6,0,P|348:308|345:266,1,83.9999974365235,10|0,0:0|0:0,0:0:0:0:
203,128,271368,2,0,P|194:168|197:210,1,83.9999974365235,10|0,0:1|0:0,0:0:0:0:
371,166,271734,2,0,L|287:176,1,83.9999974365235,10|0,0:0|0:0,0:0:0:0:
140,293,272100,2,0,L|224:303,1,83.9999974365235,10|0,0:1|0:0,0:0:0:0:
345,266,272466,5,8,0:0:0:0:
197,210,272649,1,0,0:0:0:0:
320,96,272831,1,8,0:1:0:0:
179,222,273014,2,0,P|138:230|96:227,1,83.9999974365235,0|8,0:1|0:0,0:0:0:0:
350,173,273380,2,0,P|391:169|432:178,1,83.9999974365235,0|8,0:1|0:1,0:0:0:0:
279,268,273746,1,0,0:0:0:0:
320,96,273929,5,8,0:0:0:0:
392,237,274112,1,0,0:0:0:0:
434,52,274295,1,8,0:1:0:0:
301,187,274478,2,0,L|217:177,1,83.9999974365235,0|8,0:1|0:0,0:0:0:0:
58,82,274844,2,0,L|142:72,1,83.9999974365235,0|8,0:1|0:1,0:0:0:0:
275,101,275210,1,0,0:0:0:0:
119,164,275392,5,10,0:0:0:0:
232,277,275575,1,0,0:0:0:0:
275,101,275758,1,8,0:1:0:0:
108,170,275941,1,0,0:0:0:0:
295,196,276124,1,10,0:0:0:0:
168,86,276307,1,0,0:0:0:0:
139,259,276490,1,8,0:1:0:0:
257,109,276673,1,0,0:0:0:0:
245,282,276856,5,10,0:0:0:0:
275,309,276947,1,0,0:0:0:0:
313,321,277038,1,2,0:0:0:0:
352,314,277130,1,0,0:0:0:0:
384,291,277222,2,0,L|388:249,3,41.9999987182618,10|0|2|0,0:1|0:0|0:0|0:0,0:0:0:0:
370,167,277588,5,10,0:0:0:0:
340,140,277679,1,0,0:0:0:0:
302,128,277770,1,2,0:0:0:0:
263,135,277862,1,0,0:0:0:0:
231,158,277954,2,0,L|227:200,3,41.9999987182618,10|0|2|0,0:1|0:0|0:0|0:0,0:0:0:0:
165,262,278319,6,0,B|122:282|85:261|85:261|47:240|5:261,1,167.999994873047,8|8,0:0|0:1,0:0:0:0:
127,363,278868,1,0,0:0:0:0:
251,311,279051,2,0,P|259:270|256:228,1,83.9999974365235,8|0,0:0|0:0,0:0:0:0:
120,110,279417,2,0,P|117:151|125:192,1,83.9999974365235,8|0,0:1|0:0,0:0:0:0:
297,134,279783,6,0,L|213:144,1,83.9999974365235,8|0,0:0|0:0,0:0:0:0:
69,278,280149,2,0,L|153:288,1,83.9999974365235,8|0,0:1|0:0,0:0:0:0:
270,364,280514,1,8,0:0:0:0:
222,223,280697,1,0,0:0:0:0:
340,300,280880,2,0,L|424:290,1,83.9999974365235,8|0,0:1|0:0,0:0:0:0:
222,223,281246,6,0,P|180:219|139:227,1,83.9999974365235,10|0,0:0|0:0,0:0:0:0:
56,117,281612,2,0,L|140:127,1,83.9999974365235,8|0,0:1|0:0,0:0:0:0:
244,66,281978,1,8,0:0:0:0:
286,180,282161,1,0,0:0:0:0:
139,126,282344,1,8,0:1:0:0:
241,263,282527,6,0,P|282:270|323:266,1,83.9999974365235,0|10,0:0|0:0,0:0:0:0:
417,170,282892,1,0,0:0:0:0:
503,273,283075,2,0,L|513:357,1,83.9999974365235,10|0,0:1|0:0,0:0:0:0:
417,170,283441,1,10,0:0:0:0:
323,265,283624,1,0,0:0:0:0:
239,158,283807,2,0,P|236:116|244:75,1,83.9999974365235,10|0,0:1|0:0,0:0:0:0:
323,265,284173,5,8,0:0:0:0:
208,319,284356,1,0,0:0:0:0:
239,158,284539,1,8,0:1:0:0:
407,255,284722,2,0,L|323:265,1,83.9999974365235,0|10,0:0|0:0,0:0:0:0:
155,148,285088,2,0,L|239:158,1,83.9999974365235,0|8,0:0|0:1,0:0:0:0:
350,100,285453,1,0,0:0:0:0:
323,264,285636,5,10,0:0:0:0:
238,157,285819,1,0,0:0:0:0:
410,196,286002,1,8,0:1:0:0:
224,147,286185,2,0,P|182:143|141:151,1,83.9999974365235,0|10,0:0|0:0,0:0:0:0:
366,86,286551,2,0,P|408:82|449:90,1,83.9999974365235,0|8,0:0|0:1,0:0:0:0:
300,180,286917,1,0,0:0:0:0:
189,52,287100,6,0,P|180:93|183:134,1,83.9999974365235,10|0,0:0|0:0,0:0:0:0:
247,261,287466,1,8,0:1:0:0:
123,198,287649,2,0,L|39:208,1,83.9999974365235,0|8,0:0|0:0,0:0:0:0:
214,95,288014,2,0,L|298:105,1,83.9999974365235,0|8,0:0|0:1,0:0:0:0:
387,167,288380,1,0,0:0:0:0:
253,250,288563,5,8,0:0:0:0:
297,104,288746,1,0,0:0:0:0:
247,261,288929,1,8,0:1:0:0:
387,167,289112,2,0,P|396:126|393:85,1,83.9999974365235,0|8,0:0|0:0,0:0:0:0:
317,0,289478,1,0,0:0:0:0:
248,130,289661,1,8,0:1:0:0:
392,84,289844,1,0,0:0:0:0:
222,34,290027,6,0,L|138:44,1,83.9999974365235,10|0,0:0|0:0,0:0:0:0:
0,146,290392,2,0,L|84:156,1,83.9999974365235,8|0,0:1|0:0,0:0:0:0:
164,281,290758,1,10,0:0:0:0:
30,231,290941,1,0,0:0:0:0:
157,108,291124,2,0,P|165:148|162:190,1,83.9999974365235,8|0,0:1|0:0,0:0:0:0:
76,306,291490,5,10,0:0:0:0:
195,372,291673,1,0,0:0:0:0:
289,249,291856,2,0,P|292:207|283:166,1,83.9999974365235,8|0,0:1|0:0,0:0:0:0:
214,44,292222,1,10,0:0:0:0:
141,162,292405,1,0,0:0:0:0:
299,78,292588,1,8,0:1:0:0:
296,256,292770,1,0,0:0:0:0:
296,256,292862,1,0,0:0:0:0:
296,256,292953,6,0,P|216:264|136:270,1,160,8|8,0:0|0:1,0:0:0:0:
36,191,293502,1,0,0:0:0:0:
110,86,293685,2,0,P|149:83|189:90,1,80,8|0,0:0|0:0,0:0:0:0:
289,166,294051,1,8,0:1:0:0:
384,79,294234,6,0,P|390:39|388:0,1,80,0|8,0:0|0:0,0:0:0:0:
289,166,294600,1,0,0:0:0:0:
410,232,294783,2,0,L|489:223,1,80,8|0,0:1|0:0,0:0:0:0:
312,260,295149,1,8,0:0:0:0:
384,140,295331,1,0,0:0:0:0:
258,77,295514,2,0,P|219:74|179:81,1,80,8|0,0:1|0:0,0:0:0:0:
63,208,295880,6,0,P|134:180|194:227,1,160,8|8,0:0|0:1,0:0:0:0:
112,334,296429,1,0,0:0:0:0:
208,241,296612,2,0,L|287:232,1,80,8|0,0:0|0:0,0:0:0:0:
403,288,296978,1,8,0:1:0:0:
482,174,297161,6,0,P|488:134|486:95,1,80,0|8,0:0|0:0,0:0:0:0:
402,3,297527,1,0,0:0:0:0:
318,115,297710,2,0,L|397:124,1,80,8|0,0:1|0:0,0:0:0:0:
512,217,298075,2,0,L|433:226,1,80,8|0,0:0|0:0,0:0:0:0:
315,311,298441,2,0,L|236:302,1,80,8|0,0:1|0:0,0:0:0:0:
79,219,298807,6,0,P|158:207|236:193,1,160,8|8,0:0|0:1,0:0:0:0:
317,92,299356,1,0,0:0:0:0:
421,167,299539,2,0,P|426:206|424:246,1,80,8|0,0:0|0:0,0:0:0:0:
350,355,299905,1,8,0:1:0:0:
272,269,300088,1,0,0:0:0:0:
165,376,300270,6,0,P|171:296|179:216,2,160,8|8|8,0:0|0:1|0:0,0:0:0:0:
251,288,301185,1,0,0:0:0:0:
101,232,301368,2,0,P|106:192|120:154,1,80,8|0,0:1|0:0,0:0:0:0:
221,52,301734,1,12,0:0:0:0:
256,192,301825,12,0,304478,0:0:0:0:
186,264,304661,6,0,L|281:257,1,95.9999970703126,0|2,0:0|0:0,0:0:0:0:
281,257,305392,1,2,0:0:0:0:
349,197,305575,2,0,P|355:155|336:98,1,95.9999970703126
339,104,306307,5,0,0:0:0:0:
266,50,306490,2,0,P|224:44|167:63,2,95.9999970703126,2|2|0,0:0|0:0|0:0,0:0:0:0:
266,50,307588,6,0,L|272:145,1,95.9999970703126,0|2,0:0|0:0,0:0:0:0:
272,145,308319,1,2,0:0:0:0:
330,217,308502,2,0,L|323:312,1,95.9999970703126
323,312,309234,5,0,0:0:0:0:
239,273,309417,2,0,P|197:267|140:286,2,95.9999970703126,2|2|0,0:0|0:0|0:0,0:0:0:0:
239,273,310514,6,0,P|284:287|331:282,1,95.9999970703126,0|2,0:0|0:0,0:0:0:0:
331,282,311246,1,2,0:0:0:0:
405,227,311429,2,0,P|419:181|414:134,1,95.9999970703126
414,134,312161,5,0,0:0:0:0:
335,86,312344,2,0,L|239:92,2,95.9999970703126,2|2|0,0:0|0:0|0:0,0:0:0:0:
335,86,313441,6,0,L|430:79,2,95.9999970703126,0|2|2,0:0|0:0|0:0,0:0:0:0:
265,148,314356,2,0,P|217:153|172:138,1,95.9999970703126
172,138,315088,1,0,0:0:0:0:
98,84,315270,2,0,P|83:129|88:176,2,95.9999970703126,2|2|0,0:0|0:0|0:0,0:0:0:0:
176,36,316185,6,0,L|197:35,4,11.9999996337891,2|2|2|2|2,0:0|0:0|0:0|0:0|0:0,0:0:0:0:
256,192,316460,12,0,318563,0:0:0:0:
