osu file format v14

[General]
AudioFilename: audio.mp3
AudioLeadIn: 0
PreviewTime: 61985
Countdown: 0
SampleSet: Soft
StackLeniency: 0.8
Mode: 0
LetterboxInBreaks: 0
WidescreenStoryboard: 1

[Editor]
DistanceSpacing: 1
BeatDivisor: 4
GridSize: 32
TimelineZoom: 1

[Metadata]
Title:L'Oiseau bleu
TitleUnicode:L'Oiseau bleu
Artist:Mami Kawada
ArtistUnicode:川田 まみ
Creator:-Aerith-
Version:Gaia's Insane
Source:
Tags:the blue bird I've Sound 10th Anniversary single C.G mix BUDOKAN -Space- Gaia
BeatmapID:1399445
BeatmapSetID:653632

[Difficulty]
HPDrainRate:6
CircleSize:4
OverallDifficulty:7
ApproachRate:8
SliderMultiplier:1.6
SliderTickRate:2

[Events]
//Background and Video events
0,0,"BG.jpg",0,0
//Break Periods
//Storyboard Layer 0 (Background)
//Storyboard Layer 1 (Fail)
//Storyboard Layer 2 (Pass)
//Storyboard Layer 3 (Foreground)
//Storyboard Sound Samples

[TimingPoints]
335,600,4,2,7,30,1,0
335,-125,4,2,7,30,0,0
7535,-142.857142857143,4,2,7,30,0,0
9935,-111.111111111111,4,2,7,50,0,0
21935,-100,4,2,7,40,0,0
41135,-100,4,2,7,50,0,0
62735,-90.9090909090909,4,2,7,60,0,0

[Colours]
Combo1 : 0,128,64
Combo2 : 192,192,192
Combo3 : 0,128,128

[HitObjects]
189,107,335,6,0,P|197:143|202:188,1,64,2|0,0:0|0:0,0:0:0:0:
150,297,935,2,0,P|182:277|234:266,1,64,2|0,0:0|0:0,0:0:0:0:
354,134,1535,2,0,P|320:133|267:117,1,64,2|0,0:0|0:0,0:0:0:0:
327,249,2135,2,0,P|334:283|334:320,1,64,2|0,0:0|0:0,0:0:0:0:
222,292,2735,5,2,0:0:0:0:
271,127,3035,1,2,0:0:0:0:
356,228,3335,1,2,0:0:0:0:
178,186,3635,1,2,0:0:0:0:
415,149,3935,2,0,P|455:203|438:279,1,128,2|2,0:0|0:0,0:0:0:0:
450,260,5135,5,2,0:0:0:0:
450,260,5735,1,2,0:0:0:0:
272,205,6035,1,2,0:0:0:0:
261,221,6185,2,0,P|264:273|278:328,1,96,2|2,0:0|0:0,0:0:0:0:
116,241,6935,2,0,P|124:202|128:162,1,64,2|2,0:0|0:0,0:0:0:0:
73,63,7535,6,0,B|153:37|153:103|243:74,1,167.999994873047,2|0,0:0|0:0,0:0:0:0:
361,27,8735,2,0,P|341:72|359:116,1,83.9999974365235,2|0,0:0|0:0,0:0:0:0:
375,122,9335,2,0,L|445:113,1,55.9999982910157,2|2,0:0|0:0,0:0:0:0:
495,161,9785,1,2,0:0:0:0:
495,161,9935,6,0,P|487:203|485:242,1,71.9999978027344,6|0,3:2|0:0,0:0:0:0:
380,328,10535,2,0,P|373:292|370:256,1,71.9999978027344,2|0,0:2|0:0,0:0:0:0:
349,103,11135,2,0,P|310:116|260:123,1,71.9999978027344,6|0,3:2|0:0,0:0:0:0:
102,33,11735,2,0,P|137:39|171:51,1,71.9999978027344,2|0,0:2|0:0,0:0:0:0:
266,143,12335,5,6,3:2:0:0:
194,224,12635,1,0,0:0:0:0:
116,118,12935,1,2,0:0:0:0:
206,204,13235,1,0,3:0:0:0:
144,311,13535,2,0,P|65:321|-2:343,1,143.999995605469,6|2,3:2|0:0,0:0:0:0:
68,230,14435,1,2,0:0:0:0:
255,260,14735,6,0,P|264:301|267:341,1,71.9999978027344,6|0,3:2|0:0,0:0:0:0:
359,234,15335,2,0,P|362:198|370:163,1,71.9999978027344,2|0,0:2|3:0,0:0:0:0:
478,64,15935,1,2,3:2:0:0:
389,138,16235,1,2,0:0:0:0:
298,45,16535,2,0,L|219:30,1,71.9999978027344,2|0,0:0|0:0,0:0:0:0:
96,143,17135,6,0,P|152:129|262:129,1,143.999995605469,6|2,3:2|0:0,0:0:0:0:
370,163,18035,1,0,3:2:0:0:
217,290,18335,2,0,P|200:252|201:208,1,71.9999978027344,2|0,3:2|0:0,0:0:0:0:
382,92,18935,2,0,L|367:175,1,71.9999978027344,2|2,0:0|0:0,0:0:0:0:
350,190,19385,1,0,0:0:0:0:
350,190,19535,6,0,P|409:174|479:247,1,143.999995605469,6|2,3:2|0:0,0:0:0:0:
442,347,20435,2,0,P|407:343|362:311,1,71.9999978027344,2|0,0:0|3:2,0:0:0:0:
219,295,21035,2,0,B|148:323|148:276|58:308,1,143.999995605469,8|2,0:0|0:0,0:0:0:0:
42,310,21785,1,2,0:0:0:0:
42,310,21935,6,0,P|47:259|45:230,1,80,6|0,3:2|0:0,0:0:0:0:
166,114,22535,2,0,P|164:153|169:193,1,80,2|0,0:2|0:0,0:0:0:0:
297,145,23135,2,0,P|373:131|463:123,1,160,2|2,0:0|3:2,0:0:0:0:
383,219,24035,1,0,3:0:0:0:
316,55,24335,6,0,P|355:44|415:39,1,80,2|0,3:2|0:0,0:0:0:0:
468,149,24935,1,2,0:0:0:0:
370,306,25235,1,2,0:0:0:0:
359,309,25385,1,2,0:0:0:0:
348,311,25535,2,0,P|297:275|306:164,1,160,2|2,3:2|0:0,0:0:0:0:
401,53,26435,1,0,3:2:0:0:
241,119,26735,6,0,L|136:109,1,80,2|0,3:2|0:0,0:0:0:0:
34,40,27335,1,2,0:0:0:0:
89,134,27635,1,0,0:0:0:0:
6,214,27935,2,0,P|-3:265|2:301,1,80,2|2,0:0|0:0,0:0:0:0:
118,349,28535,2,0,L|223:339,1,80,2|0,0:2|3:0,0:0:0:0:
376,242,29135,5,2,3:2:0:0:
201,230,29435,1,2,0:0:0:0:
335,350,29735,1,2,0:0:0:0:
327,138,30035,1,2,0:0:0:0:
314,157,30185,1,2,0:0:0:0:
313,182,30335,2,0,P|350:216|468:197,1,160,2|2,3:2|3:2,0:0:0:0:
402,84,31235,1,2,3:2:0:0:
201,230,31535,6,0,P|150:234|107:253,1,80,2|2,3:2|0:0,0:0:0:0:
231,120,32135,2,0,P|252:73|258:27,1,80,2|2,0:2|0:0,0:0:0:0:
281,19,32585,1,2,0:0:0:0:
281,19,32735,2,0,L|299:187,1,160,2|2,0:0|0:0,0:0:0:0:
377,348,33635,1,0,3:2:0:0:
448,269,33935,6,0,P|424:251|344:249,1,80,2|0,3:2|0:0,0:0:0:0:
141,321,34535,2,0,P|180:315|213:293,1,80,2|0,0:2|0:0,0:0:0:0:
226,254,34985,1,0,0:0:0:0:
226,254,35135,2,0,L|208:94,1,160,2|2,0:0|0:0,0:0:0:0:
93,71,36035,1,0,3:0:0:0:
306,154,36335,6,0,P|328:121|289:15,2,160,2|2|2,3:2|0:0|0:0,0:0:0:0:
208,95,37835,1,2,0:0:0:0:
320,183,38135,2,0,P|359:181|423:168,1,80,2|0,0:0|3:0,0:0:0:0:
477,317,38735,6,0,P|437:310|397:308,1,80,2|2,3:2|0:0,0:0:0:0:
255,337,39335,1,2,0:0:0:0:
303,210,39635,1,2,0:0:0:0:
162,289,39935,2,0,P|153:328|152:380,1,80,2|2,0:0|0:0,0:0:0:0:
255,337,40535,1,8,0:3:0:0:
58,300,40835,1,0,3:0:0:0:
216,218,41135,6,0,P|215:135|152:62,1,160,6|2,3:2|0:0,0:0:0:0:
58,64,42035,1,0,3:0:0:0:
293,102,42335,2,0,P|335:110|382:114,1,80,2|0,3:2|0:0,0:0:0:0:
117,176,42935,2,0,P|77:179|38:187,1,80,2|2,0:2|3:2,0:0:0:0:
23,208,43385,1,2,0:0:0:0:
23,208,43535,5,2,3:2:0:0:
147,335,43835,1,2,0:0:0:0:
242,178,44135,1,2,0:0:0:0:
120,222,44435,1,2,3:2:0:0:
306,297,44735,2,0,P|395:287|480:269,1,160,2|2,3:2|0:0,0:0:0:0:
512,164,45635,1,0,3:2:0:0:
337,157,45935,6,0,B|289:144|229:146|229:146|227:113|212:90,1,160,2|2,3:2|0:0,0:0:0:0:
299,23,46835,1,0,3:0:0:0:
138,147,47135,2,0,P|117:194|130:243,1,80,2|0,3:2|0:0,0:0:0:0:
324,371,47735,2,0,P|324:331|305:296,1,80,2|2,0:2|3:2,0:0:0:0:
274,280,48185,1,2,0:0:0:0:
274,280,48335,6,0,L|89:258,1,160,2|2,3:2|0:0,0:0:0:0:
209,168,49235,1,0,3:0:0:0:
20,235,49535,2,0,P|27:280|32:337,1,80,2|0,3:2|0:0,0:0:0:0:
90,123,50135,2,0,P|60:111|-1:104,1,80,2|0,0:0|3:2,0:0:0:0:
209,168,50735,6,0,L|382:141,1,160,6|2,3:2|0:0,0:0:0:0:
479,57,51635,1,2,3:2:0:0:
290,41,51935,2,0,P|273:89|283:137,1,80,2|2,3:2|0:0,0:0:0:0:
358,241,52535,1,2,0:0:0:0:
185,283,52835,1,2,3:2:0:0:
185,283,52985,1,2,0:0:0:0:
185,283,53135,6,0,P|127:269|92:172,1,160,2|2,3:2|0:0,0:0:0:0:
206,28,54035,1,0,3:0:0:0:
275,117,54335,2,0,P|237:133|196:140,1,80,2|2,3:2|0:0,0:0:0:0:
344,267,54935,2,0,P|383:273|419:289,1,80,2|2,0:2|3:2,0:0:0:0:
410,148,55535,6,0,P|368:94|416:1,1,160,6|2,3:2|0:0,0:0:0:0:
275,117,56435,1,2,3:2:0:0:
275,117,56735,2,0,P|286:191|293:289,1,160,2|2,3:2|0:0,0:0:0:0:
146,329,57635,1,2,3:2:0:0:
44,205,57935,6,0,L|151:222,1,80,6|0,3:2|0:0,0:0:0:0:
275,117,58535,1,2,0:0:0:0:
129,21,58835,1,2,3:2:0:0:
118,28,58985,1,2,0:0:0:0:
110,40,59135,2,0,P|97:92|106:125,1,80,2|2,3:2|0:0,0:0:0:0:
208,234,59735,1,2,0:0:0:0:
295,104,60035,1,2,3:2:0:0:
457,242,60335,5,2,3:2:0:0:
446,262,61535,1,8,0:0:0:0:
224,225,61835,1,8,0:0:0:0:
294,60,62135,1,8,0:0:0:0:
350,265,62435,1,8,0:0:0:0:
354,297,62585,1,8,0:0:0:0:
338,321,62735,6,0,P|244:335|148:340,1,176.000005371094,6|8,3:2|0:0,0:0:0:0:
59,223,63635,1,2,3:2:0:0:
209,139,63935,2,0,P|223:183|222:233,1,88.000002685547,2|2,3:2|0:0,0:0:0:0:
25,335,64535,2,0,P|25:291|39:249,1,88.000002685547,8|2,0:2|3:2,0:0:0:0:
139,90,65135,5,2,3:2:0:0:
59,223,65435,1,2,0:0:0:0:
288,125,65735,1,8,0:0:0:0:
71,18,66035,1,2,3:2:0:0:
51,31,66185,1,2,0:0:0:0:
45,53,66335,2,0,L|59:142,1,88.000002685547,2|2,3:2|0:0,0:0:0:0:
203,350,66935,2,0,L|216:263,1,88.000002685547,8|2,0:2|3:2,0:0:0:0:
223,224,67385,1,2,0:0:0:0:
223,224,67535,6,0,B|301:204|309:283|406:247,1,176.000005371094,2|8,3:2|0:0,0:0:0:0:
479,103,68435,1,2,3:2:0:0:
475,84,68585,1,2,0:0:0:0:
470,66,68735,2,0,P|421:66|374:86,1,88.000002685547,2|2,3:2|0:0,0:0:0:0:
212,39,69335,2,0,P|199:90|204:133,1,88.000002685547,8|2,0:0|3:2,0:0:0:0:
246,302,69935,5,2,3:2:0:0:
282,140,70235,1,2,0:0:0:0:
120,104,70535,1,8,0:0:0:0:
84,266,70835,1,2,3:2:0:0:
326,252,71135,5,2,3:2:0:0:
151,178,71435,1,8,0:3:0:0:
268,374,71735,1,8,0:0:0:0:
282,140,72035,1,2,3:2:0:0:
267,166,72185,1,2,0:0:0:0:
271,201,72335,6,0,P|352:218|463:225,1,176.000005371094,6|8,3:2|0:0,0:0:0:0:
508,97,73235,1,2,3:2:0:0:
384,22,73535,2,0,P|366:63|366:118,1,88.000002685547,2|2,3:2|0:0,0:0:0:0:
304,329,74135,2,0,P|301:285|284:244,1,88.000002685547,10|2,0:2|3:2,0:0:0:0:
84,182,74735,5,2,3:2:0:0:
212,311,75035,1,2,0:0:0:0:
376,194,75335,1,8,0:0:0:0:
209,81,75635,1,2,3:2:0:0:
198,103,75785,1,2,0:0:0:0:
201,127,75935,2,0,P|245:140|300:145,1,88.000002685547,2|2,3:2|0:0,0:0:0:0:
501,121,76535,1,8,3:2:0:0:
376,194,76835,1,2,3:2:0:0:
492,313,77135,6,0,P|498:229|513:133,1,176.000005371094,2|8,3:2|0:0,0:0:0:0:
351,29,78035,1,2,3:2:0:0:
361,41,78185,1,2,0:0:0:0:
367,56,78335,2,0,P|376:96|379:157,1,88.000002685547,2|2,3:2|0:0,0:0:0:0:
272,256,78935,2,0,P|232:244|183:239,1,88.000002685547,8|2,0:0|3:2,0:0:0:0:
29,146,79535,6,0,B|116:172|111:104|227:132,1,176.000005371094,2|8,3:2|0:0,0:0:0:0:
346,309,80435,1,2,3:2:0:0:
332,318,80585,1,2,0:0:0:0:
316,325,80735,2,0,P|292:284|295:234,1,88.000002685547,2|2,3:2|0:0,0:0:0:0:
466,117,81335,2,0,P|421:138|366:143,1,88.000002685547,8|2,0:0|3:2,0:0:0:0:
275,50,81935,6,0,P|288:125|300:239,1,176.000005371094,2|8,3:2|0:0,0:0:0:0:
144,360,82835,1,2,3:2:0:0:
131,347,82985,1,2,0:0:0:0:
125,326,83135,2,0,P|126:282|152:237,1,88.000002685547,2|2,3:2|0:0,0:0:0:0:
254,122,83735,1,8,0:0:0:0:
60,178,84035,1,2,3:2:0:0:
233,309,84335,6,0,P|287:312|334:324,1,88.000002685547,2|2,3:2|0:0,0:0:0:0:
497,209,84935,1,8,0:0:0:0:
299,225,85235,1,2,3:2:0:0:
437,91,85535,1,2,3:2:0:0:
340,349,85835,1,8,0:0:0:0:
141,191,86135,2,0,L|185:179,3,44.0000013427735,10|2|2|2,0:0|0:0|3:2|0:0,0:0:0:0:
256,143,86735,6,0,P|168:140|65:130,1,176.000005371094,6|8,3:2|0:0,0:0:0:0:
20,35,87635,1,2,3:2:0:0:
59,259,87935,2,0,P|99:250|149:228,1,88.000002685547,2|2,3:2|0:0,0:0:0:0:
273,58,88535,2,0,P|255:108|259:159,1,88.000002685547,8|2,0:0|3:2,0:0:0:0:
397,354,89135,6,0,P|364:288|248:305,1,176.000005371094,2|8,3:2|0:0,0:0:0:0:
167,148,90035,1,2,3:2:0:0:
359,121,90335,2,0,P|401:117|482:100,1,88.000002685547,2|2,3:2|0:0,0:0:0:0:
233,42,90935,2,0,L|134:27,1,88.000002685547,8|2,0:0|3:2,0:0:0:0:
189,175,91535,6,0,P|224:243|206:352,1,176.000005371094,2|8,3:2|0:0,0:0:0:0:
29,322,92435,1,2,3:2:0:0:
19,310,92585,1,2,0:0:0:0:
13,293,92735,2,0,P|20:243|64:199,1,88.000002685547,2|2,3:2|0:0,0:0:0:0:
201,79,93335,2,0,P|160:89|109:97,1,88.000002685547,8|2,0:0|3:2,0:0:0:0:
226,202,93935,6,0,P|316:212|416:217,1,176.000005371094,6|8,3:2|0:0,0:0:0:0:
497,133,94835,1,2,3:2:0:0:
329,256,95135,2,0,P|306:301|310:342,1,88.000002685547,2|2,3:2|0:0,0:0:0:0:
428,328,95735,1,8,0:0:0:0:
226,231,96035,1,2,3:2:0:0:
410,192,96335,6,0,P|399:110|380:14,1,176.000005371094,6|8,3:2|0:0,0:0:0:0:
234,143,97235,2,0,P|233:187|226:231,1,88.000002685547,2|2,3:2|3:2,0:0:0:0:
105,135,97835,1,8,0:0:0:0:
108,155,97985,1,8,0:0:0:0:
109,178,98135,1,8,0:3:0:0:
43,310,98435,1,8,0:3:0:0:
316,241,98735,5,6,3:2:0:0:
