osu file format v14

[General]
AudioFilename: fluff.mp3
AudioLeadIn: 0
PreviewTime: 67016
Countdown: 0
SampleSet: Soft
StackLeniency: 0.7
Mode: 0
LetterboxInBreaks: 0
WidescreenStoryboard: 0

[Editor]
DistanceSpacing: 0.9
BeatDivisor: 2
GridSize: 4
TimelineZoom: 2

[Metadata]
Title:JOINT -TV Size-
TitleUnicode:JOINT -TVサイズ-
Artist:Mami Kawada
ArtistUnicode:川田まみ
Creator:Gaia
Version:Normal
Source:灼眼のシャナⅡ
Tags:P_A_N pan Giralda Inyuschan Shakugan no Shana II Second 2nd opening
BeatmapID:780864
BeatmapSetID:349504

[Difficulty]
HPDrainRate:4
CircleSize:3.5
OverallDifficulty:4
ApproachRate:5.5
SliderMultiplier:1.2
SliderTickRate:1

[Events]
//Background and Video events
0,0,"4.jpg",0,0
Video,0,"Encoded.flv"
//Break Periods
2,800,2141
2,3466,4808
2,6466,9474
//Storyboard Layer 0 (Background)
//Storyboard Layer 1 (Fail)
//Storyboard Layer 2 (Pass)
//Storyboard Layer 3 (Foreground)
//Storyboard Sound Samples

[TimingPoints]
600,333.333333333333,4,2,1,70,1,0
11266,-100,4,2,2,70,0,0
11349,-100,4,2,1,70,0,0
16599,-100,4,2,2,70,0,0
16683,-100,4,2,1,70,0,0
19266,-100,4,2,2,70,0,0
19349,-100,4,2,1,70,0,0
20433,-100,4,2,2,70,0,0
20516,-100,4,2,1,70,0,0
20599,-100,4,2,1,40,0,0
20766,-100,4,2,1,45,0,0
20933,-100,4,2,2,50,0,0
21099,-100,4,2,1,55,0,0
21266,-100,4,2,1,60,0,0
21433,-100,4,2,1,65,0,0
21599,-100,4,2,1,70,0,0
21766,-100,4,2,1,75,0,0
21933,-100,4,2,2,80,0,0
22016,-100,4,2,1,80,0,0
24599,-100,4,2,2,80,0,0
24683,-100,4,2,1,80,0,0
27266,-100,4,2,2,70,0,0
27349,-100,4,2,1,80,0,0
29933,-100,4,2,2,70,0,0
30016,-100,4,2,1,80,0,0
32599,-100,4,2,2,60,0,0
32683,-100,4,2,1,60,0,0
43266,-100,4,2,2,60,0,0
43349,-100,4,2,1,60,0,0
53933,-100,4,2,2,60,0,0
54599,-100,4,2,1,60,0,0
56599,-100,4,2,2,60,0,0
57266,-100,4,2,1,60,0,0
59266,-100,4,2,2,60,0,0
59933,-100,4,2,1,60,0,0
61933,-100,4,2,2,70,0,0
62016,-100,4,2,1,70,0,0
67099,-100,4,2,2,80,0,0
67183,-100,4,2,1,80,0,0
69766,-100,4,2,2,70,0,0
69849,-100,4,2,1,80,0,0
72433,-100,4,2,2,80,0,0
72516,-100,4,2,1,80,0,0
75099,-100,4,2,2,70,0,0
75183,-100,4,2,1,80,0,0
77266,-100,4,2,1,50,0,0
77766,-100,4,2,1,60,0,0
77933,-100,4,2,1,80,0,0
78267,-100,4,2,2,80,0,0
78349,-100,4,2,1,80,0,0
80433,-100,4,2,2,70,0,0
80516,-100,4,2,1,80,0,0
83099,-100,4,2,2,80,0,0
83183,-100,4,2,1,80,0,0
85766,-100,4,2,2,70,0,0
85849,-100,4,2,1,80,0,0
87099,-100,4,2,2,70,0,0
87183,-100,4,2,1,80,0,0
87766,-100,4,2,1,50,0,0
87933,-100,4,2,1,80,0,0
90933,-100,4,2,2,80,0,0
91350,-100,4,2,1,50,0,0
92434,-100,4,2,1,40,0,0
93100,-100,4,2,1,30,0,0
93767,-100,4,2,1,20,0,0
94433,-100,4,2,1,10,0,0

[Colours]
Combo1 : 236,19,19
Combo2 : 206,206,206
Combo3 : 255,121,121
Combo4 : 255,255,128
Combo5 : 255,149,43

[HitObjects]
156,120,600,5,0,0:0:0:0:
156,120,3266,5,10,0:0:0:0:
156,120,5933,6,0,L|148:48,2,60,10|10|10,0:0|0:0|0:0,0:0:0:0:
156,120,10599,5,10,0:0:0:0:
92,208,10933,1,10,0:0:0:0:
152,300,11266,6,0,L|272:288,1,120,12|8,0:0|0:0,0:0:0:0:
344,208,11933,2,0,L|224:200,1,120,8|8,0:0|0:0,0:0:0:0:
156,120,12599,1,8,0:0:0:0:
220,32,12933,1,8,0:0:0:0:
312,88,13266,2,0,L|376:84,1,60,8|6,0:0|0:0,0:0:0:0:
416,116,13599,2,0,P|447:129|472:152,1,60,8|6,0:0|0:0,0:0:0:0:
476,200,13933,6,0,L|468:360,1,120,8|8,0:0|0:0,0:0:0:0:
364,348,14599,2,0,L|369:228,1,120,8|8,0:0|0:0,0:0:0:0:
304,144,15266,2,0,P|260:128|228:132,2,60,8|6|8,0:0|0:0|0:0,0:0:0:0:
244,232,15933,2,0,P|214:229|187:216,1,60,12|2,0:0|0:0,0:0:0:0:
144,184,16266,2,0,L|72:192,1,60,8|8,0:0|0:0,0:0:0:0:
40,224,16599,6,0,P|28:296|44:348,1,120,12|8,0:0|0:0,0:0:0:0:
144,372,17266,2,0,L|292:352,1,120,8|8,0:0|0:0,0:0:0:0:
336,276,17933,2,0,L|464:284,1,120,8|8,0:0|0:0,0:0:0:0:
512,192,18599,2,0,P|509:158|504:128,1,60,8|6,0:0|0:0,0:0:0:0:
456,112,18933,2,0,P|444:80|424:56,1,60,8|6,0:0|0:0,0:0:0:0:
376,56,19266,6,0,L|236:60,1,120,12|8,0:0|0:0,0:0:0:0:
172,124,19933,2,0,L|52:120,1,120,8|8,0:0|0:0,0:0:0:0:
11,156,20433,2,0,P|3:214|34:263,1,120,6|8,0:0|0:0,0:0:0:0:
88,280,20933,2,0,L|180:264,1,60,12|8,0:0|0:0,0:0:0:0:
192,300,21266,2,0,L|284:284,1,60,8|8,0:0|0:0,0:0:0:0:
296,316,21599,2,0,L|388:300,1,60,8|8,0:0|0:0,0:0:0:0:
408,296,21933,6,0,P|448:252|440:188,1,120,6|8,0:0|0:0,0:0:0:0:
372,116,22599,2,0,P|377:71|384:40,2,60,2|2|8,0:0|0:0|0:0,0:0:0:0:
336,156,23099,1,8,0:0:0:0:
336,156,23266,2,0,L|168:144,1,120,2|8,0:0|0:0,0:0:0:0:
168,172,23766,2,0,P|120:232|132:312,1,120,2|2,0:0|0:0,0:0:0:0:
144,320,24266,1,8,0:0:0:0:
240,368,24599,6,0,P|312:363|392:360,1,120,4|8,0:0|0:0,0:0:0:0:
448,300,25266,2,0,P|480:308|516:308,2,60,2|2|8,0:0|0:0|0:0,0:0:0:0:
412,260,25766,1,8,0:0:0:0:
412,260,25933,2,0,L|404:124,1,120,2|8,0:0|0:0,0:0:0:0:
372,100,26433,2,0,L|376:32,1,60
272,8,26933,1,8,0:0:0:0:
184,68,27266,6,0,L|32:60,1,120,6|8,0:0|0:0,0:0:0:0:
4,152,27933,2,0,P|6:189|12:216,1,60,2|2,0:0|0:0,0:0:0:0:
48,252,28266,2,0,L|108:244,1,60,8|8,0:0|0:0,0:0:0:0:
160,264,28599,1,2,0:0:0:0:
256,308,28933,2,0,L|248:376,2,60,8|2|2,0:0|0:0|0:0,0:0:0:0:
300,276,29433,2,0,P|320:312|348:336,2,60,2|8|2,0:0|0:0|0:0,0:0:0:0:
324,228,29933,6,0,L|312:100,1,120,6|8,0:0|0:0,0:0:0:0:
244,24,30599,2,0,L|176:20,1,60,2|2,0:0|0:0,0:0:0:0:
148,60,30933,2,0,P|111:63|76:76,1,60,8|8,0:0|0:0,0:0:0:0:
68,120,31266,2,0,P|33:122|-8:116,2,60,2|8|8,0:0|0:0|0:0,0:0:0:0:
116,148,31766,2,0,P|148:216|136:272,1,120,2|2,0:0|0:0,0:0:0:0:
112,304,32266,1,8,0:0:0:0:
192,376,32599,6,0,L|324:364,1,120,4|8,0:0|0:0,0:0:0:0:
404,312,33266,2,0,P|431:328|464:336,2,60,2|2|8,0:0|0:0|0:0,0:0:0:0:
372,268,33766,2,0,L|376:132,1,120,2|2,0:0|0:0,0:0:0:0:
352,100,34266,1,8,0:0:0:0:
256,56,34599,2,0,P|224:47|192:48,2,60,2|2|8,0:0|0:0|0:0,0:0:0:0:
268,108,35099,6,0,L|252:272,1,120,2|2,0:0|0:0,0:0:0:0:
252,280,35599,1,8,0:0:0:0:
152,324,35933,2,0,P|155:356|160:400,2,60,2|2|8,0:0|0:0|0:0,0:0:0:0:
76,248,36599,1,2,0:0:0:0:
116,148,36933,1,8,0:0:0:0:
88,44,37266,2,0,P|57:45|24:56,2,60,2|2|8,0:0|0:0|0:0,0:0:0:0:
140,56,37766,6,0,P|232:76|272:60,1,120,2|2,0:0|0:0,0:0:0:0:
300,40,38266,1,8,0:0:0:0:
404,68,38599,2,0,L|484:64,2,60,2|2|8,0:0|0:0|0:0,0:0:0:0:
380,116,39099,2,0,P|394:178|412:252,1,120,2|2,0:0|0:0,0:0:0:0:
400,288,39599,1,8,0:0:0:0:
320,360,39933,2,0,P|288:354|260:352,2,60,2|2|8,0:0|0:0|0:0,0:0:0:0:
292,256,40599,6,0,L|164:268,1,120,6|10,0:0|0:0,0:0:0:0:
108,180,41266,2,0,L|227:168,1,120,2|8,0:0|0:0,0:0:0:0:
296,84,41933,2,0,B|368:104|368:104|444:92,1,120,2|8,0:0|0:0,0:0:0:0:
496,164,42599,2,0,L|492:232,2,60,2|8|8,0:0|0:0|0:0,0:0:0:0:
492,108,43099,1,2,0:0:0:0:
492,108,43266,6,0,P|484:64|468:36,1,60,6|2,0:0|0:0,0:0:0:0:
428,24,43599,1,8,0:0:0:0:
328,64,43933,2,0,L|200:60,1,120,2|8,0:0|0:0,0:0:0:0:
160,84,44433,2,0,P|96:144|104:192,1,120,2|0,0:0|0:0,0:0:0:0:
128,216,44933,1,8,0:0:0:0:
212,280,45266,2,0,L|200:344,2,60,2|2|8,0:0|0:0|0:0,0:0:0:0:
264,268,45766,6,0,L|408:264,1,120,2|2,0:0|0:0,0:0:0:0:
436,252,46266,1,8,0:0:0:0:
484,156,46599,2,0,P|468:112|456:96,2,60,2|2|8,0:0|0:0|0:0,0:0:0:0:
376,156,47266,2,0,P|346:137|304:124,2,60,2|2|8,0:0|0:0|0:0,0:0:0:0:
324,252,47933,2,0,L|316:328,1,60,2|2,0:0|0:0,0:0:0:0:
272,340,48266,1,8,0:0:0:0:
272,340,48433,6,0,P|200:356|136:320,1,120,2|2,0:0|0:0,0:0:0:0:
116,308,48933,1,8,0:0:0:0:
64,212,49266,2,0,L|4:224,2,60,2|2|8,0:0|0:0|0:0,0:0:0:0:
100,172,49766,2,0,L|236:176,1,120,2|0,0:0|0:0,0:0:0:0:
264,144,50266,1,8,0:0:0:0:
348,212,50599,2,0,P|336:246|332:280,1,60,2|2,0:0|0:0,0:0:0:0:
364,312,50933,1,8,0:0:0:0:
472,308,51266,6,0,P|482:279|487:250,1,60,2|2,0:0|0:0,0:0:0:0:
472,200,51599,2,0,L|460:52,1,120,8|2,0:0|0:0,0:0:0:0:
432,36,52099,2,0,P|400:26|348:32,1,60,2|8,0:0|0:0,0:0:0:0:
304,108,52599,1,6,0:0:0:0:
200,72,52933,1,12,0:0:0:0:
120,148,53266,2,0,L|136:268,1,120,8|8,0:0|0:0,0:0:0:0:
180,296,53766,1,8,0:0:0:0:
180,296,53933,6,0,P|232:269|294:275,2,120,6|6|2,0:0|0:0|0:0,0:0:0:0:
256,372,54933,1,8,0:0:0:0:
256,372,55099,2,0,P|314:377|367:349,1,120,2|0,0:0|0:0,0:0:0:0:
412,316,55599,2,0,L|400:172,1,120,2|2,0:0|0:0,0:0:0:0:
376,148,56099,2,0,L|392:76,1,60,8|2,0:0|0:0,0:0:0:0:
296,32,56599,6,0,P|200:28|160:80,2,120,6|6|2,0:0|0:0|0:0,0:0:0:0:
272,136,57599,1,8,0:0:0:0:
272,136,57766,2,0,L|256:280,1,120,2|0,0:0|0:0,0:0:0:0:
240,304,58266,1,2,0:0:0:0:
140,344,58599,1,2,0:0:0:0:
140,344,58766,2,0,P|99:350|56:352,2,60,8|8|8,0:0|0:0|0:0,0:0:0:0:
144,292,59266,6,0,L|128:152,2,120,6|6|8,0:0|0:0|0:0,0:0:0:0:
252,312,60266,1,8,0:0:0:0:
252,312,60433,2,0,P|296:328|392:316,1,120,2|0,0:0|0:0,0:0:0:0:
408,288,60933,2,0,L|396:140,1,120,2|2,0:0|0:0,0:0:0:0:
376,120,61433,2,0,L|392:48,2,60,8|2|2,0:0|0:0|0:0,0:0:0:0:
328,143,61933,6,0,L|298:143|268:143,1,60,6|2,0:0|0:0,0:0:0:0:
220,124,62266,1,8,0:0:0:0:
124,76,62599,2,0,L|140:0,2,60,2|2|8,0:0|0:0|0:0,0:0:0:0:
84,116,63099,2,0,L|96:244,1,120,2|2,0:0|0:0,0:0:0:0:
100,288,63599,1,8,0:0:0:0:
192,348,63933,2,0,P|233:355|272:356,2,60,2|2|8,0:0|0:0|0:0,0:0:0:0:
244,252,64599,6,0,L|232:172,1,60,2|2,0:0|0:0,0:0:0:0:
256,144,64933,2,0,L|260:64,1,60,8|2,0:0|0:0,0:0:0:0:
352,32,65433,2,0,P|384:19|432:24,2,60,2|8|2,0:0|0:0|0:0,0:0:0:0:
408,124,66099,2,0,P|437:122|465:110,1,60,2|8,0:0|0:0,0:0:0:0:
428,212,66599,2,0,P|398:213|370:225,2,60,8|8|8,0:0|0:0|0:0,0:0:0:0:
476,236,67099,6,0,L|456:360,1,120,6|2,0:0|0:0,0:0:0:0:
408,380,67599,1,8,0:0:0:0:
312,332,67933,2,0,P|275:333|236:344,2,60,2|2|8,0:0|0:0|0:0,0:0:0:0:
356,300,68433,2,0,L|344:176,1,120,2|2,0:0|0:0,0:0:0:0:
336,128,68933,1,8,0:0:0:0:
244,72,69266,2,0,L|260:8,2,60,2|2|8,0:0|0:0|0:0,0:0:0:0:
204,108,69766,6,0,L|64:96,1,120,6|2,0:0|0:0,0:0:0:0:
40,128,70266,1,8,0:0:0:0:
8,232,70599,2,0,P|16:264|28:292,2,60,2|2|8,0:0|0:0|0:0,0:0:0:0:
56,208,71099,2,0,L|192:220,1,120,2|2,0:0|0:0,0:0:0:0:
212,260,71599,1,8,0:0:0:0:
300,320,71933,2,0,P|328:320|364:308,1,60,2|2,0:0|0:0,0:0:0:0:
400,276,72266,1,8,0:0:0:0:
400,276,72433,6,0,L|384:128,1,120,6|2,0:0|0:0,0:0:0:0:
380,104,72933,1,8,0:0:0:0:
276,68,73266,2,0,P|188:56|132:88,1,120,2|8,0:0|0:0,0:0:0:0:
140,116,73766,2,0,L|160:260,1,120,2|2,0:0|0:0,0:0:0:0:
132,284,74266,1,8,0:0:0:0:
36,232,74599,2,0,L|19:113,1,120,2|8,0:0|0:0,0:0:0:0:
52,72,75099,6,0,P|108:24|172:28,1,120,6|2,0:0|0:0,0:0:0:0:
196,48,75599,2,0,P|232:52|272:44,1,60,8|0,0:0|0:0,0:0:0:0:
308,36,75933,1,2,0:0:0:0:
416,24,76266,1,8,0:0:0:0:
416,24,76433,2,0,L|404:168,1,120,2|2,0:0|0:0,0:0:0:0:
376,188,76933,1,8,0:0:0:0:
440,276,77266,2,0,L|512:264,2,60,8|8|8,1:3|1:3|1:3,0:0:0:0:
404,316,77766,6,0,L|272:304,1,120,6|0,0:0|0:0,0:0:0:0:
232,300,78266,2,0,L|104:312,1,120,12|2,0:0|0:0,0:0:0:0:
60,292,78766,2,0,P|36:260|28:236,1,60,2|8,0:0|0:0,0:0:0:0:
72,208,79099,2,0,B|80:172|80:172|56:72,1,120,2|2,0:0|0:0,0:0:0:0:
28,48,79599,1,8,0:0:0:0:
132,20,79933,2,0,L|196:12,1,60,2|2,0:0|0:0,0:0:0:0:
236,44,80266,1,8,0:0:0:0:
236,44,80433,6,0,L|228:176,1,120,6|2,0:0|0:0,0:0:0:0:
268,200,80933,1,8,0:0:0:0:
360,256,81266,2,0,P|388:268|436:268,2,60,2|2|8,0:0|0:0|0:0,0:0:0:0:
356,204,81766,2,0,P|364:140|352:84,1,120,2|2,0:0|0:0,0:0:0:0:
340,36,82266,1,8,0:0:0:0:
236,44,82599,2,0,L|160:36,2,60,2|2|8,0:0|0:0|0:0,0:0:0:0:
252,96,83099,6,0,P|243:159|256:216,1,120,6|2,0:0|0:0,0:0:0:0:
292,252,83599,1,8,0:0:0:0:
380,192,83933,2,0,P|413:188|452:188,2,60,2|2|8,0:0|0:0|0:0,0:0:0:0:
345,152,84433,2,0,P|354:104|327:13,1,120,2|2,0:0|0:0,0:0:0:0:
288,16,84933,1,12,0:0:0:0:
200,76,85266,2,0,L|80:68,1,120,2|8,0:0|0:0,0:0:0:0:
44,108,85766,6,0,P|20:192|36:264,1,120,6|2,0:0|0:0,0:0:0:0:
56,268,86266,1,8,0:0:0:0:
160,292,86599,2,0,P|165:320|168:360,2,60,2|2|8,0:0|0:0|0:0,0:0:0:0:
204,260,87099,2,0,P|264:288|340:272,1,120,6|2,0:0|0:0,0:0:0:0:
360,252,87599,2,0,L|352:184,1,60,12|8,0:0|1:3,0:0:0:0:
320,148,87933,2,0,L|324:84,1,60,6|2,0:0|0:0,0:0:0:0:
332,36,88266,1,8,0:0:0:0:
224,32,88599,6,0,L|228:108,1,60,14|10,0:0|0:0,0:0:0:0:
120,100,89099,2,0,L|132:160,1,60,10|10,0:0|0:0,0:0:0:0:
28,192,89599,2,0,L|60:268,1,60,10|10,0:0|0:0,0:0:0:0:
24,352,90099,2,0,L|84:372,1,60,10|10,0:0|0:0,0:0:0:0:
228,304,90766,2,0,L|284:285,1,60,2|12,0:0|0:0,0:0:0:0:
384,244,91266,5,6,0:0:0:0:
256,192,91433,12,0,94933,0:0:0:0:
