osu file format v14

[General]
AudioFilename: fluff.mp3
AudioLeadIn: 0
PreviewTime: 67016
Countdown: 0
SampleSet: Soft
StackLeniency: 0.7
Mode: 0
LetterboxInBreaks: 0
WidescreenStoryboard: 0

[Editor]
DistanceSpacing: 1
BeatDivisor: 2
GridSize: 4
TimelineZoom: 2

[Metadata]
Title:JOINT -TV Size-
TitleUnicode:JOINT -TVサイズ-
Artist:Mami Kawada
ArtistUnicode:川田まみ
Creator:Gaia
Version:Easy
Source:灼眼のシャナⅡ
Tags:P_A_N pan Giralda Inyuschan Shakugan no Shana II Second 2nd opening
BeatmapID:780863
BeatmapSetID:349504

[Difficulty]
HPDrainRate:2
CircleSize:3
OverallDifficulty:2
ApproachRate:3
SliderMultiplier:0.9
SliderTickRate:1

[Events]
//Background and Video events
0,0,"4.jpg",0,0
Video,0,"Encoded.flv"
//Break Periods
2,800,1826
2,3466,4493
2,6466,9159
//Storyboard Layer 0 (Background)
//Storyboard Layer 1 (Fail)
//Storyboard Layer 2 (Pass)
//Storyboard Layer 3 (Foreground)
//Storyboard Sound Samples

[TimingPoints]
600,333.333333333333,4,2,1,70,1,0
11266,-100,4,2,2,70,0,0
11349,-100,4,2,1,70,0,0
16599,-100,4,2,2,70,0,0
16683,-100,4,2,1,70,0,0
19266,-100,4,2,2,70,0,0
19349,-100,4,2,1,70,0,0
20433,-100,4,2,2,70,0,0
20516,-100,4,2,1,70,0,0
20599,-100,4,2,1,40,0,0
20766,-100,4,2,1,45,0,0
20933,-100,4,2,2,50,0,0
21099,-100,4,2,1,55,0,0
21266,-100,4,2,1,60,0,0
21433,-100,4,2,1,65,0,0
21599,-100,4,2,1,70,0,0
21766,-100,4,2,1,75,0,0
21933,-100,4,2,2,80,0,0
22016,-100,4,2,1,80,0,0
24599,-100,4,2,2,80,0,0
24683,-100,4,2,1,80,0,0
27266,-100,4,2,2,70,0,0
27349,-100,4,2,1,80,0,0
29933,-100,4,2,2,70,0,0
30016,-100,4,2,1,80,0,0
32599,-100,4,2,2,60,0,0
32683,-100,4,2,1,60,0,0
43266,-100,4,2,2,60,0,0
43349,-100,4,2,1,60,0,0
53933,-100,4,2,2,60,0,0
54599,-100,4,2,1,60,0,0
56599,-100,4,2,2,60,0,0
57266,-100,4,2,1,60,0,0
59266,-100,4,2,2,60,0,0
59933,-100,4,2,1,60,0,0
61933,-100,4,2,2,70,0,0
62016,-100,4,2,1,70,0,0
67099,-100,4,2,2,80,0,0
67183,-100,4,2,1,80,0,0
69766,-100,4,2,2,70,0,0
69849,-100,4,2,1,80,0,0
72433,-100,4,2,2,80,0,0
72516,-100,4,2,1,80,0,0
75099,-100,4,2,2,70,0,0
75183,-100,4,2,1,80,0,0
77266,-100,4,2,1,50,0,0
77766,-100,4,2,1,60,0,0
77933,-100,4,2,1,80,0,0
78267,-100,4,2,2,80,0,0
78349,-100,4,2,1,80,0,0
80433,-100,4,2,2,70,0,0
80516,-100,4,2,1,80,0,0
83099,-100,4,2,2,80,0,0
83183,-100,4,2,1,80,0,0
85766,-100,4,2,2,70,0,0
85849,-100,4,2,1,80,0,0
87099,-100,4,2,2,70,0,0
87183,-100,4,2,1,80,0,0
87766,-100,4,2,1,50,0,0
87933,-100,4,2,1,80,0,0
90933,-100,4,2,2,80,0,0
91350,-100,4,2,1,50,0,0
92434,-100,4,2,1,40,0,0
93100,-100,4,2,1,30,0,0
93767,-100,4,2,1,20,0,0
94433,-100,4,2,1,10,0,0

[Colours]
Combo1 : 236,19,19
Combo2 : 206,206,206
Combo3 : 255,121,121
Combo4 : 255,255,128
Combo5 : 255,149,43

[HitObjects]
332,152,600,5,0,0:0:0:0:
332,152,3266,5,10,0:0:0:0:
332,152,5933,6,0,L|324:260,1,90,10|10,0:0|0:0,0:0:0:0:
325,241,10599,5,10,0:0:0:0:
252,296,10933,1,10,0:0:0:0:
180,240,11266,6,0,P|136:164|176:60,2,180,12|8|8,0:0|0:0|0:0,0:0:0:0:
256,288,12933,1,8,0:0:0:0:
320,228,13266,2,0,L|424:232,1,90,8|8,0:0|0:0,0:0:0:0:
456,308,13933,6,0,L|444:112,2,180,8|8|8,0:0|0:0|0:0,0:0:0:0:
388,364,15599,1,8,0:0:0:0:
296,368,15933,2,0,P|240:352|208:312,1,90,12|8,0:0|0:0,0:0:0:0:
244,244,16599,6,0,B|260:188|260:188|244:60,2,180,12|8|8,0:0|0:0|0:0,0:0:0:0:
156,268,18266,1,8,0:0:0:0:
92,208,18599,2,0,L|-12:216,1,90,8|8,0:0|0:0,0:0:0:0:
12,124,19266,6,0,L|101:117,1,90,12|8,0:0|0:0,0:0:0:0:
176,168,19933,2,0,P|232:200|316:168,2,135,8|6|12,0:0|0:0|0:0,0:0:0:0:
244,108,21266,2,0,L|240:8,1,90,8|8,0:0|0:0,0:0:0:0:
328,8,21933,6,0,L|332:100,1,90,6|8,0:0|0:0,0:0:0:0:
392,164,22599,2,0,L|388:264,1,90,2|8,0:0|0:0,0:0:0:0:
320,316,23266,2,0,P|248:344|188:316,2,135,2|2|8,0:0|0:0|0:0,0:0:0:0:
256,252,24599,6,0,P|200:232|152:244,1,90,4|8,0:0|0:0,0:0:0:0:
88,272,25266,2,0,P|40:248|20:216,1,90,2|8,0:0|0:0,0:0:0:0:
60,136,25933,2,0,B|136:156|136:156|196:136,2,135,2|0|8,0:0|0:0|0:0,0:0:0:0:
88,52,27266,6,0,B|132:44|132:44|196:56,1,90,6|8,0:0|0:0,0:0:0:0:
260,88,27933,2,0,B|304:96|304:96|348:88,1,90,2|8,0:0|0:0,0:0:0:0:
432,116,28599,2,0,P|484:156|496:228,2,135,2|2|8,0:0|0:0|0:0,0:0:0:0:
384,192,29933,6,0,L|288:188,1,90,6|8,0:0|0:0,0:0:0:0:
228,248,30599,2,0,L|132:244,1,90,2|8,0:0|0:0,0:0:0:0:
64,196,31266,2,0,P|56:128|92:68,2,135,2|2|8,0:0|0:0|0:0,0:0:0:0:
120,268,32599,5,4,0:0:0:0:
208,248,32933,1,8,0:0:0:0:
284,296,33266,2,0,P|344:340|412:328,2,135,2|2|8,0:0|0:0|0:0,0:0:0:0:
312,212,34599,6,0,P|377:208|429:249,2,135,2|2|8,0:0|0:0|0:0,0:0:0:0:
240,160,35933,2,0,L|240:60,1,90,2|8,0:0|0:0,0:0:0:0:
152,48,36599,2,0,L|152:138,1,90,2|8,0:0|0:0,0:0:0:0:
100,212,37266,6,0,P|64:264|88:356,2,135,2|2|8,0:0|0:0|0:0,0:0:0:0:
152,288,38599,2,0,L|312:284,2,135,2|2|8,0:0|0:0|0:0,0:0:0:0:
188,204,39933,2,0,L|292:200,1,90,2|8,0:0|0:0,0:0:0:0:
352,148,40599,6,0,P|380:104|372:40,1,90,6|10,0:0|0:0,0:0:0:0:
300,32,41266,2,0,P|272:76|280:140,1,90,2|8,0:0|0:0,0:0:0:0:
277,200,41933,2,0,L|285:292,1,90,2|8,0:0|0:0,0:0:0:0:
224,356,42599,1,2,0:0:0:0:
136,348,42933,1,8,0:0:0:0:
64,296,43266,6,0,L|71:206,1,90,6|8,0:0|0:0,0:0:0:0:
128,136,43933,2,0,P|56:164|-24:152,2,135,2|2|8,0:0|0:0|0:0,0:0:0:0:
200,80,45266,6,0,P|260:72|332:116,2,135,2|2|8,0:0|0:0|0:0,0:0:0:0:
216,168,46599,2,0,L|220:280,1,90,2|8,0:0|0:0,0:0:0:0:
304,288,47266,2,0,P|360:312|416:284,1,90,2|8,0:0|0:0,0:0:0:0:
452,244,47933,6,0,L|428:396,2,135,2|2|8,0:0|0:0|0:0,0:0:0:0:
428,156,49266,2,0,L|420:60,1,90,2|8,0:0|0:0,0:0:0:0:
332,52,49933,2,0,L|339:141,1,90,2|8,0:0|0:0,0:0:0:0:
256,176,50599,2,0,L|248:80,1,90,2|8,0:0|0:0,0:0:0:0:
164,52,51266,5,2,0:0:0:0:
100,116,51599,2,0,L|8:112,2,90,8|2|8,0:0|0:0|0:0,0:0:0:0:
160,184,52599,1,6,0:0:0:0:
136,272,52933,1,12,0:0:0:0:
192,344,53266,2,0,P|248:352|300:320,1,90,8|8,0:0|0:0,0:0:0:0:
340,276,53933,5,6,0:0:0:0:
316,188,54267,1,6,0:0:0:0:
292,104,54599,2,0,B|204:120|204:120|136:104,2,135,2|2|2,0:0|0:0|0:0,0:0:0:0:
372,64,55933,2,0,P|424:80|456:128,1,90,2|2,0:0|0:0,0:0:0:0:
408,188,56599,5,6,0:0:0:0:
316,188,56933,1,6,0:0:0:0:
228,188,57266,2,0,L|248:356,2,135,2|2|2,0:0|0:0|0:0,0:0:0:0:
148,144,58599,2,0,P|87:172|60:220,1,90,2|8,0:0|0:0,0:0:0:0:
64,280,59266,5,6,0:0:0:0:
152,304,59599,1,6,0:0:0:0:
243,322,59933,2,0,L|399:306,2,135,8|2|2,0:0|0:0|0:0,0:0:0:0:
168,272,61266,2,0,P|148:216|160:168,1,90,2|2,0:0|0:0,0:0:0:0:
212,120,61933,6,0,L|312:128,1,90,6|8,0:0|0:0,0:0:0:0:
364,64,62599,2,0,P|428:60|488:116,2,135,2|2|8,0:0|0:0|0:0,0:0:0:0:
404,144,63933,2,0,L|392:260,1,90,2|8,0:0|0:0,0:0:0:0:
320,284,64599,6,0,B|252:300|248:264|148:288,1,135,2|2,0:0|0:0,0:0:0:0:
100,312,65433,1,2,0:0:0:0:
52,236,65766,2,0,P|40:168|72:80,1,135,2|8,0:0|0:0,0:0:0:0:
132,56,66599,6,0,L|276:64,2,135,8|6|8,0:0|0:0|0:0,0:0:0:0:
140,148,67933,2,0,L|296:156,1,135,2|2,0:0|0:0,0:0:0:0:
380,72,68933,1,8,0:0:0:0:
456,120,69266,6,0,P|496:196|488:268,2,135,2|6|8,0:0|0:0|0:0,0:0:0:0:
376,164,70599,2,0,P|379:230|415:287,2,135,2|2|8,0:0|0:0|0:0,0:0:0:0:
380,72,71933,2,0,P|328:132|256:144,1,135,2|6,0:0|0:0,0:0:0:0:
152,96,72933,5,8,0:0:0:0:
84,156,73266,2,0,L|100:304,2,135,2|2|8,0:0|0:0|0:0,0:0:0:0:
152,96,74599,6,0,P|196:48|292:56,2,135,2|6|8,0:0|0:0|0:0,0:0:0:0:
212,160,75933,2,0,L|208:264,1,90,2|8,0:0|0:0,0:0:0:0:
288,292,76599,2,0,L|400:276,1,90,0|8,0:0|0:0,0:0:0:0:
456,320,77266,2,0,P|408:280|428:148,1,180,8|2,1:3|0:0,0:0:0:0:
496,144,78266,6,0,L|272:136,1,225,12|2,0:0|0:0,0:0:0:0:
152,72,79599,1,8,0:0:0:0:
92,140,79933,6,0,P|80:204|116:304,2,135,2|6|8,0:0|0:0|0:0,0:0:0:0:
176,104,81266,2,0,L|316:96,2,135,2|2|8,0:0|0:0|0:0,0:0:0:0:
208,188,82599,2,0,P|215:249|224:328,1,135,2|6,0:0|0:0,0:0:0:0:
352,368,83599,5,8,0:0:0:0:
424,316,83933,2,0,P|464:268|448:184,2,135,2|2|12,0:0|0:0|0:0,0:0:0:0:
352,264,85266,6,0,P|345:198|386:147,2,135,2|6|8,0:0|0:0|0:0,0:0:0:0:
300,336,86599,2,0,L|140:320,1,135,2|6,0:0|0:0,0:0:0:0:
48,256,87599,5,12,0:0:0:0:
8,176,87933,2,0,L|28:68,1,90,6|8,0:0|0:0,0:0:0:0:
108,56,88599,2,0,P|176:44|248:60,1,135,14|10,0:0|0:0,0:0:0:0:
360,116,89599,2,0,L|344:268,1,135,10|10,0:0|0:0,0:0:0:0:
120,248,90933,6,0,L|112:152,1,90,12|6,0:0|0:0,0:0:0:0:
256,192,91433,12,0,94933,0:0:0:0:
