osu file format v14

[General]
AudioFilename: audio.mp3
AudioLeadIn: 0
PreviewTime: 66696
Countdown: 0
SampleSet: Soft
StackLeniency: 0.3
Mode: 0
LetterboxInBreaks: 0
WidescreenStoryboard: 1

[Editor]
DistanceSpacing: 0.9
BeatDivisor: 4
GridSize: 32
TimelineZoom: 1.5

[Metadata]
Title:JOINT
TitleUnicode:JOINT
Artist:Mami Kawada
ArtistUnicode:川田まみ
Creator:Andrea
Version:Gaia's Advanced
Source:灼眼のシャナⅡ
Tags:osuplayer111 Sekai Sekaii Sekai-nyan Kowari Gaia Akitoshi Corinn -Laura- midorijeon - Ex - -_Ex_- AsuKow GrazuKo Erisu Lanzhu Mayuzumi Fuyuko Full Version Female Vocals Shakugan no Shana Second Opening OP 2nd Season Two Anime Japanese Pop J-Pop JPop Rock J-Rock JRock
BeatmapID:3612058
BeatmapSetID:1764643

[Difficulty]
HPDrainRate:4
CircleSize:4
OverallDifficulty:5
ApproachRate:6
SliderMultiplier:1
SliderTickRate:1

[Events]
//Background and Video events
0,0,"BG.jpg",0,0
//Break Periods
2,480,1896
2,3146,4563
2,6145,9229
2,91146,95229
2,155146,175229
2,205646,206896
//Storyboard Layer 0 (Background)
//Storyboard Layer 1 (Fail)
//Storyboard Layer 2 (Pass)
//Storyboard Layer 3 (Foreground)
//Storyboard Layer 4 (Overlay)
//Storyboard Sound Samples

[TimingPoints]
280,333.333333333333,4,2,2,60,1,0
280,-100,4,2,2,60,0,0
10279,-100,4,2,2,60,0,0
10946,-100,4,2,2,75,0,0
11279,-100,4,2,6,75,0,0
11363,-100,4,2,2,75,0,0
11613,-100,4,2,6,75,0,0
11697,-100,4,2,2,75,0,0
11946,-100,4,2,6,75,0,0
12030,-100,4,2,2,75,0,0
12279,-100,4,2,6,75,0,0
12363,-100,4,2,2,75,0,0
12529,-100,4,2,2,5,0,0
12613,-100,4,2,6,75,0,0
12697,-100,4,2,2,75,0,0
12946,-100,4,2,6,75,0,0
13030,-100,4,2,2,75,0,0
13113,-100,4,2,5,75,0,0
13613,-100,4,2,2,75,0,0
13863,-100,4,2,2,5,0,0
13946,-100,4,2,6,75,0,0
14030,-100,4,2,2,75,0,0
14279,-100,4,2,6,75,0,0
14363,-100,4,2,2,75,0,0
14613,-100,4,2,6,75,0,0
14697,-100,4,2,2,75,0,0
14946,-100,4,2,6,75,0,0
15030,-100,4,2,2,75,0,0
15113,-100,4,2,3,75,0,0
15613,-100,4,2,6,75,0,0
15697,-100,4,2,2,75,0,0
15946,-100,4,2,5,75,0,0
16279,-100,4,2,2,75,0,0
16529,-100,4,2,2,5,0,0
16613,-100,4,2,6,75,0,0
16697,-100,4,2,2,75,0,0
16946,-100,4,2,6,75,0,0
17030,-100,4,2,2,75,0,0
17279,-100,4,2,6,75,0,0
17363,-100,4,2,2,75,0,0
17613,-100,4,2,6,75,0,0
17697,-100,4,2,2,75,0,0
17863,-100,4,2,2,5,0,0
17946,-100,4,2,6,75,0,0
18030,-100,4,2,2,75,0,0
18279,-100,4,2,6,75,0,0
18363,-100,4,2,2,75,0,0
18613,-100,4,2,6,75,0,0
18697,-100,4,2,2,75,0,0
18946,-100,4,2,3,75,0,0
19196,-100,4,2,3,5,0,0
19279,-100,4,2,6,75,0,0
19363,-100,4,2,2,75,0,0
19613,-100,4,2,6,75,0,0
19697,-100,4,2,2,75,0,0
19946,-100,4,2,6,75,0,0
20030,-100,4,2,2,75,0,0
20279,-100,4,2,6,75,0,0
20363,-100,4,2,2,75,0,0
21613,-100,4,2,3,75,0,0
21946,-100,4,2,6,75,0,0
22030,-100,4,2,2,75,0,0
22279,-100,4,2,6,75,0,0
22363,-100,4,2,2,75,0,0
22613,-100,4,2,6,75,0,0
22697,-100,4,2,2,75,0,0
22946,-100,4,2,6,75,0,0
23030,-100,4,2,2,75,0,0
23279,-100,4,2,6,75,0,0
23363,-100,4,2,2,75,0,0
23613,-100,4,2,6,75,0,0
23697,-100,4,2,2,75,0,0
23946,-100,4,2,6,75,0,0
24030,-100,4,2,2,75,0,0
24279,-100,4,2,3,75,0,0
24613,-100,4,2,6,75,0,0
24697,-100,4,2,2,75,0,0
24946,-100,4,2,6,75,0,0
25030,-100,4,2,2,75,0,0
25279,-100,4,2,6,75,0,0
25363,-100,4,2,2,75,0,0
25613,-100,4,2,6,75,0,0
25697,-100,4,2,2,75,0,0
25946,-100,4,2,6,75,0,0
26030,-100,4,2,2,75,0,0
26279,-100,4,2,6,75,0,0
26363,-100,4,2,2,75,0,0
26613,-100,4,2,6,75,0,0
26697,-100,4,2,2,75,0,0
27279,-100,4,2,6,75,0,0
27363,-100,4,2,2,75,0,0
27613,-100,4,2,6,75,0,0
27697,-100,4,2,2,75,0,0
27946,-100,4,2,6,75,0,0
28030,-100,4,2,2,75,0,0
28279,-100,4,2,6,75,0,0
28363,-100,4,2,2,75,0,0
28613,-100,4,2,6,75,0,0
28697,-100,4,2,2,75,0,0
28946,-100,4,2,6,75,0,0
29030,-100,4,2,2,75,0,0
29279,-100,4,2,6,75,0,0
29363,-100,4,2,2,75,0,0
29613,-100,4,2,3,75,0,0
29946,-100,4,2,6,75,0,0
30030,-100,4,2,2,75,0,0
32280,-100,4,2,3,70,0,0
32613,-100,4,2,8,70,0,0
32697,-100,4,2,2,70,0,0
32946,-100,4,2,8,70,0,0
33030,-100,4,2,2,70,0,0
33279,-100,4,2,8,70,0,0
33363,-100,4,2,2,70,0,0
33613,-100,4,2,8,70,0,0
33697,-100,4,2,2,70,0,0
33946,-100,4,2,8,70,0,0
34030,-100,4,2,2,70,0,0
34196,-100,4,2,2,5,0,0
34279,-100,4,2,8,70,0,0
34363,-100,4,2,2,70,0,0
34613,-100,4,2,8,70,0,0
34697,-100,4,2,2,70,0,0
34779,-100,4,2,12,70,0,0
34863,-100,4,2,2,70,0,0
35279,-100,4,2,8,70,0,0
35363,-100,4,2,2,70,0,0
35613,-100,4,2,8,70,0,0
35697,-100,4,2,2,70,0,0
35946,-100,4,2,8,70,0,0
36030,-100,4,2,2,70,0,0
36279,-100,4,2,8,70,0,0
36363,-100,4,2,2,70,0,0
36613,-100,4,2,8,70,0,0
36697,-100,4,2,2,70,0,0
36946,-100,4,2,8,70,0,0
37030,-100,4,2,2,70,0,0
37113,-100,4,2,12,70,0,0
37197,-100,4,2,2,70,0,0
37446,-100,4,2,8,70,0,0
37530,-100,4,2,2,70,0,0
37946,-100,4,2,8,70,0,0
38030,-100,4,2,2,70,0,0
38279,-100,4,2,8,70,0,0
38363,-100,4,2,2,70,0,0
38613,-100,4,2,8,70,0,0
38697,-100,4,2,2,70,0,0
38946,-100,4,2,8,70,0,0
39030,-100,4,2,2,70,0,0
39279,-100,4,2,8,70,0,0
39363,-100,4,2,2,70,0,0
39613,-100,4,2,8,70,0,0
39697,-100,4,2,2,70,0,0
39946,-100,4,2,8,70,0,0
40030,-100,4,2,2,70,0,0
40113,-100,4,2,12,70,0,0
40197,-100,4,2,2,70,0,0
40279,-100,4,2,9,70,0,0
40363,-100,4,2,2,70,0,0
40613,-100,4,2,8,70,0,0
40697,-100,4,2,2,70,0,0
40946,-100,4,2,8,70,0,0
41030,-100,4,2,2,70,0,0
41279,-100,4,2,8,70,0,0
41363,-100,4,2,2,70,0,0
41613,-100,4,2,8,70,0,0
41697,-100,4,2,2,70,0,0
41946,-100,4,2,12,70,0,0
42030,-100,4,2,2,70,0,0
42279,-100,4,2,12,70,0,0
42363,-100,4,2,2,70,0,0
42613,-100,4,2,12,70,0,0
42697,-100,4,2,2,70,0,0
42779,-100,4,2,3,70,0,0
42946,-100,4,2,2,70,0,0
43279,-100,4,2,8,70,0,0
43363,-100,4,2,2,70,0,0
43529,-100,4,2,2,5,0,0
43613,-100,4,2,8,70,0,0
43697,-100,4,2,2,70,0,0
43946,-100,4,2,8,70,0,0
44030,-100,4,2,2,70,0,0
44279,-100,4,2,8,70,0,0
44363,-100,4,2,2,70,0,0
44613,-100,4,2,8,70,0,0
44697,-100,4,2,2,70,0,0
44946,-100,4,2,8,70,0,0
45030,-100,4,2,2,70,0,0
45279,-100,4,2,8,70,0,0
45363,-100,4,2,2,70,0,0
45446,-100,4,2,12,70,0,0
45530,-100,4,2,2,70,0,0
45946,-100,4,2,8,70,0,0
46030,-100,4,2,2,70,0,0
46279,-100,4,2,8,70,0,0
46363,-100,4,2,2,70,0,0
46613,-100,4,2,8,70,0,0
46697,-100,4,2,2,70,0,0
46946,-100,4,2,8,70,0,0
47030,-100,4,2,2,70,0,0
47279,-100,4,2,8,70,0,0
47363,-100,4,2,2,70,0,0
47613,-100,4,2,8,70,0,0
47697,-100,4,2,2,70,0,0
47946,-100,4,2,8,70,0,0
48030,-100,4,2,2,70,0,0
48113,-100,4,2,12,70,0,0
48197,-100,4,2,2,70,0,0
48613,-100,4,2,8,70,0,0
48697,-100,4,2,2,70,0,0
48863,-100,4,2,2,5,0,0
48946,-100,4,2,8,70,0,0
49030,-100,4,2,2,70,0,0
49279,-100,4,2,8,70,0,0
49363,-100,4,2,2,70,0,0
49613,-100,4,2,8,70,0,0
49697,-100,4,2,2,70,0,0
49946,-100,4,2,8,70,0,0
50030,-100,4,2,2,70,0,0
50279,-100,4,2,8,70,0,0
50363,-100,4,2,2,70,0,0
50613,-100,4,2,8,70,0,0
50697,-100,4,2,2,70,0,0
50946,-100,4,2,8,70,0,0
51030,-100,4,2,2,70,0,0
51279,-100,4,2,8,70,0,0
51363,-100,4,2,2,70,0,0
51613,-100,4,2,8,70,0,0
51697,-100,4,2,2,70,0,0
51863,-100,4,2,2,5,0,0
51946,-100,4,2,8,70,0,0
52030,-100,4,2,2,70,0,0
52279,-100,4,2,6,70,0,0
52363,-100,4,2,2,70,0,0
52613,-100,4,2,6,70,0,0
52697,-100,4,2,2,70,0,0
52946,-100,4,2,6,70,0,0
53030,-100,4,2,2,70,0,0
53279,-100,4,2,6,70,0,0
53363,-100,4,2,2,70,0,0
53613,-100,4,2,2,70,0,0
53863,-100,4,2,2,5,0,0
53946,-100,4,2,3,70,0,0
54196,-100,4,2,2,5,0,0
54279,-100,4,2,3,70,0,0
55529,-100,4,2,2,5,0,0
55613,-100,4,2,3,70,0,0
56613,-100,4,2,2,70,0,0
56863,-100,4,2,2,5,0,0
56946,-100,4,2,2,70,0,0
59279,-100,4,2,3,70,0,0
59529,-100,4,2,2,5,0,0
59613,-100,4,2,3,70,0,0
60863,-100,4,2,2,5,0,0
60946,-100,4,2,3,70,0,0
61613,-100,4,2,2,70,0,0
61946,-100,4,2,6,70,0,0
62030,-100,4,2,2,70,0,0
62279,-100,4,2,6,70,0,0
62363,-100,4,2,2,70,0,0
62613,-100,4,2,6,70,0,0
62697,-100,4,2,2,70,0,0
62946,-100,4,2,7,70,0,0
63030,-100,4,2,2,70,0,0
63279,-100,4,2,6,70,0,0
63363,-100,4,2,2,70,0,0
63613,-100,4,2,6,70,0,0
63697,-100,4,2,2,70,0,0
63946,-100,4,2,6,70,0,0
64030,-100,4,2,2,70,0,0
64279,-100,4,2,6,70,0,0
64363,-100,4,2,2,70,0,0
64613,-100,4,2,6,70,0,0
64697,-100,4,2,2,70,0,0
64946,-100,4,2,6,70,0,0
65030,-100,4,2,2,70,0,0
65446,-100,4,2,6,70,0,0
65530,-100,4,2,2,70,0,0
66779,-100,4,2,1,80,0,1
67029,-100,4,2,1,5,0,1
67113,-100,4,2,1,80,0,1
67279,-100,4,2,6,80,0,1
67363,-100,4,2,2,80,0,1
67613,-100,4,2,6,80,0,1
67697,-100,4,2,2,80,0,1
67946,-100,4,2,6,80,0,1
68030,-100,4,2,2,80,0,1
68279,-100,4,2,6,80,0,1
68363,-100,4,2,2,80,0,1
68613,-100,4,2,6,80,0,1
68697,-100,4,2,2,80,0,1
68946,-100,4,2,6,80,0,1
69030,-100,4,2,2,80,0,1
69279,-100,4,2,6,80,0,1
69363,-100,4,2,2,80,0,1
69446,-100,4,2,3,80,0,1
69946,-100,4,2,6,80,0,1
70030,-100,4,2,2,80,0,1
70279,-100,4,2,6,80,0,1
70363,-100,4,2,2,80,0,1
70613,-100,4,2,6,80,0,1
70697,-100,4,2,2,80,0,1
70946,-100,4,2,6,80,0,1
71030,-100,4,2,2,80,0,1
71279,-100,4,2,6,80,0,1
71363,-100,4,2,2,80,0,1
71613,-100,4,2,6,80,0,1
71697,-100,4,2,2,80,0,1
71946,-100,4,2,6,80,0,1
72030,-100,4,2,2,80,0,1
72613,-100,4,2,6,80,0,1
72697,-100,4,2,2,80,0,1
72946,-100,4,2,6,80,0,1
73030,-100,4,2,2,80,0,1
73279,-100,4,2,6,80,0,1
73363,-100,4,2,2,80,0,1
73613,-100,4,2,6,80,0,1
73697,-100,4,2,2,80,0,1
73946,-100,4,2,6,80,0,1
74030,-100,4,2,2,80,0,1
74279,-100,4,2,6,80,0,1
74363,-100,4,2,2,80,0,1
74613,-100,4,2,6,80,0,1
74697,-100,4,2,2,80,0,1
74779,-100,4,2,3,80,0,1
75029,-100,4,2,3,5,0,1
75113,-100,4,2,3,80,0,1
75279,-100,4,2,6,80,0,1
75363,-100,4,2,2,80,0,1
75613,-100,4,2,6,80,0,1
75697,-100,4,2,2,80,0,1
75946,-100,4,2,6,80,0,1
76030,-100,4,2,2,80,0,1
76279,-100,4,2,6,80,0,1
76363,-100,4,2,2,80,0,1
76613,-100,4,2,6,80,0,1
76697,-100,4,2,2,80,0,1
76779,-100,4,2,1,80,0,1
76946,-100,4,2,6,80,0,1
77030,-100,4,2,2,80,0,1
77279,-100,4,2,6,80,0,1
77363,-100,4,2,2,80,0,1
77696,-100,4,2,2,5,0,1
77779,-100,4,2,2,80,0,1
77946,-100,4,2,5,80,0,1
78279,-100,4,2,6,80,0,1
78363,-100,4,2,2,80,0,1
78613,-100,4,2,6,80,0,1
78697,-100,4,2,2,80,0,1
78946,-100,4,2,6,80,0,1
79030,-100,4,2,2,80,0,1
79279,-100,4,2,6,80,0,1
79363,-100,4,2,2,80,0,1
79613,-100,4,2,6,80,0,1
79697,-100,4,2,2,80,0,1
79946,-100,4,2,6,80,0,1
80030,-100,4,2,2,80,0,1
80613,-100,4,2,6,80,0,1
80697,-100,4,2,2,80,0,1
80946,-100,4,2,6,80,0,1
81030,-100,4,2,2,80,0,1
81279,-100,4,2,6,80,0,1
81363,-100,4,2,2,80,0,1
81613,-100,4,2,6,80,0,1
81696,-100,4,2,2,80,0,1
81946,-100,4,2,6,80,0,1
82030,-100,4,2,2,80,0,1
82279,-100,4,2,6,80,0,1
82363,-100,4,2,2,80,0,1
82613,-100,4,2,6,80,0,1
82697,-100,4,2,2,80,0,1
82779,-100,4,2,3,80,0,1
83279,-100,4,2,6,80,0,1
83363,-100,4,2,2,80,0,1
83613,-100,4,2,6,80,0,1
83697,-100,4,2,2,80,0,1
83946,-100,4,2,6,80,0,1
84030,-100,4,2,2,80,0,1
84279,-100,4,2,6,80,0,1
84363,-100,4,2,2,80,0,1
84613,-100,4,2,5,80,0,1
84946,-100,4,2,6,80,0,1
85030,-100,4,2,2,80,0,1
85279,-100,4,2,6,80,0,1
85363,-100,4,2,2,80,0,1
85696,-100,4,2,2,5,0,1
85779,-100,4,2,2,80,0,1
85946,-100,4,2,6,80,0,1
86030,-100,4,2,2,80,0,1
86279,-100,4,2,6,80,0,1
86363,-100,4,2,2,80,0,1
86613,-100,4,2,6,80,0,1
86697,-100,4,2,2,80,0,1
86779,-100,4,2,3,80,0,1
87613,-100,4,2,2,80,0,1
87946,-100,4,2,5,80,0,1
88279,-100,4,2,4,80,0,0
89946,-100,4,2,6,80,0,0
90030,-100,4,2,2,80,0,0
90279,-100,4,2,6,80,0,0
90363,-100,4,2,2,80,0,0
90863,-100,4,2,2,5,0,0
90946,-100,4,2,2,75,0,0
91279,-100,4,2,3,75,0,0
93946,-100,4,2,2,75,0,0
96279,-100,4,2,3,70,0,0
96613,-100,4,2,8,70,0,0
96697,-100,4,2,2,70,0,0
96863,-100,4,2,2,5,0,0
96946,-100,4,2,8,70,0,0
97030,-100,4,2,2,70,0,0
97279,-100,4,2,8,70,0,0
97363,-100,4,2,2,70,0,0
97613,-100,4,2,8,70,0,0
97697,-100,4,2,2,70,0,0
97946,-100,4,2,8,70,0,0
98030,-100,4,2,2,70,0,0
98279,-100,4,2,8,70,0,0
98363,-100,4,2,2,70,0,0
98613,-100,4,2,8,70,0,0
98697,-100,4,2,2,70,0,0
98779,-100,4,2,12,70,0,0
98863,-100,4,2,2,70,0,0
99279,-100,4,2,8,70,0,0
99363,-100,4,2,2,70,0,0
99613,-100,4,2,8,70,0,0
99697,-100,4,2,2,70,0,0
99946,-100,4,2,8,70,0,0
100030,-100,4,2,2,70,0,0
100279,-100,4,2,8,70,0,0
100363,-100,4,2,2,70,0,0
100613,-100,4,2,8,70,0,0
100697,-100,4,2,2,70,0,0
100946,-100,4,2,8,70,0,0
101030,-100,4,2,2,70,0,0
101113,-100,4,2,12,70,0,0
101197,-100,4,2,2,70,0,0
101613,-100,4,2,8,70,0,0
101697,-100,4,2,2,70,0,0
101946,-100,4,2,8,70,0,0
102030,-100,4,2,2,70,0,0
102196,-100,4,2,2,5,0,0
102279,-100,4,2,8,70,0,0
102363,-100,4,2,2,70,0,0
102613,-100,4,2,8,70,0,0
102697,-100,4,2,2,70,0,0
102946,-100,4,2,8,70,0,0
103030,-100,4,2,2,70,0,0
103279,-100,4,2,8,70,0,0
103363,-100,4,2,2,70,0,0
103613,-100,4,2,8,70,0,0
103697,-100,4,2,2,70,0,0
103946,-100,4,2,8,70,0,0
104030,-100,4,2,2,70,0,0
104280,-100,4,2,8,70,0,0
104363,-100,4,2,2,70,0,0
104613,-100,4,2,8,70,0,0
104697,-100,4,2,2,70,0,0
104946,-100,4,2,8,70,0,0
105030,-100,4,2,2,70,0,0
105279,-100,4,2,8,70,0,0
105363,-100,4,2,2,70,0,0
105613,-100,4,2,8,70,0,0
105697,-100,4,2,2,70,0,0
105946,-100,4,2,8,70,0,0
106030,-100,4,2,2,70,0,0
106279,-100,4,2,8,70,0,0
106363,-100,4,2,2,70,0,0
106613,-100,4,2,8,70,0,0
106697,-100,4,2,2,70,0,0
106946,-100,4,2,2,70,0,0
107279,-100,4,2,8,70,0,0
107363,-100,4,2,2,70,0,0
107613,-100,4,2,8,70,0,0
107697,-100,4,2,2,70,0,0
107946,-100,4,2,8,70,0,0
108030,-100,4,2,2,70,0,0
108279,-100,4,2,8,70,0,0
108363,-100,4,2,2,70,0,0
108613,-100,4,2,8,70,0,0
108697,-100,4,2,2,70,0,0
108946,-100,4,2,8,70,0,0
109030,-100,4,2,2,70,0,0
109279,-100,4,2,8,70,0,0
109363,-100,4,2,2,70,0,0
109613,-100,4,2,8,70,0,0
109697,-100,4,2,2,70,0,0
109946,-100,4,2,8,70,0,0
110030,-100,4,2,2,70,0,0
110279,-100,4,2,8,70,0,0
110363,-100,4,2,2,70,0,0
110613,-100,4,2,8,70,0,0
110697,-100,4,2,2,70,0,0
110946,-100,4,2,8,70,0,0
111030,-100,4,2,2,70,0,0
111279,-100,4,2,8,70,0,0
111363,-100,4,2,2,70,0,0
111613,-100,4,2,8,70,0,0
111697,-100,4,2,2,70,0,0
111779,-100,4,2,12,70,0,0
111863,-100,4,2,2,70,0,0
112279,-100,4,2,8,70,0,0
112363,-100,4,2,2,70,0,0
112613,-100,4,2,8,70,0,0
112697,-100,4,2,2,70,0,0
112946,-100,4,2,8,70,0,0
113030,-100,4,2,2,70,0,0
113279,-100,4,2,8,70,0,0
113363,-100,4,2,2,70,0,0
113613,-100,4,2,8,70,0,0
113697,-100,4,2,2,70,0,0
113946,-100,4,2,8,70,0,0
114030,-100,4,2,2,70,0,0
114279,-100,4,2,8,70,0,0
114363,-100,4,2,2,70,0,0
114613,-100,4,2,8,70,0,0
114697,-100,4,2,2,70,0,0
114946,-100,4,2,8,70,0,0
115030,-100,4,2,2,70,0,0
115279,-100,4,2,8,70,0,0
115363,-100,4,2,2,70,0,0
115613,-100,4,2,8,70,0,0
115697,-100,4,2,2,70,0,0
115946,-100,4,2,8,70,0,0
116030,-100,4,2,2,70,0,0
116279,-100,4,2,8,70,0,0
116363,-100,4,2,2,70,0,0
116613,-100,4,2,6,70,0,0
116697,-100,4,2,2,70,0,0
116946,-100,4,2,6,70,0,0
117030,-100,4,2,2,70,0,0
117279,-100,4,2,6,70,0,0
117363,-100,4,2,2,70,0,0
117613,-100,4,2,2,70,0,0
117863,-100,4,2,2,5,0,0
117946,-100,4,2,3,70,0,0
118196,-100,4,2,2,5,0,0
118279,-100,4,2,3,70,0,0
120613,-100,4,2,2,70,0,0
120863,-100,4,2,2,5,0,0
120946,-100,4,2,2,70,0,0
123279,-100,4,2,3,70,0,0
123529,-100,4,2,3,5,0,0
123613,-100,4,2,3,70,0,0
124863,-100,4,2,3,5,0,0
124946,-100,4,2,3,70,0,0
125613,-100,4,2,2,70,0,0
125946,-100,4,2,6,70,0,0
126030,-100,4,2,2,70,0,0
126279,-100,4,2,6,70,0,0
126363,-100,4,2,2,70,0,0
126613,-100,4,2,6,70,0,0
126697,-100,4,2,2,70,0,0
126946,-100,4,2,7,70,0,0
127030,-100,4,2,2,70,0,0
127279,-100,4,2,6,70,0,0
127363,-100,4,2,2,70,0,0
127613,-100,4,2,6,70,0,0
127697,-100,4,2,2,70,0,0
127946,-100,4,2,6,70,0,0
128030,-100,4,2,2,70,0,0
128279,-100,4,2,6,70,0,0
128363,-100,4,2,2,70,0,0
128613,-100,4,2,6,70,0,0
128697,-100,4,2,2,70,0,0
128946,-100,4,2,6,70,0,0
129030,-100,4,2,2,70,0,0
129446,-100,4,2,6,70,0,0
129530,-100,4,2,2,70,0,0
130279,-100,4,2,1,70,0,0
130613,-100,4,2,3,70,0,0
130779,-100,4,2,1,80,0,1
131029,-100,4,2,1,5,0,1
131113,-100,4,2,1,80,0,1
131279,-100,4,2,6,80,0,1
131363,-100,4,2,2,80,0,1
131613,-100,4,2,6,80,0,1
131697,-100,4,2,2,80,0,1
131946,-100,4,2,6,80,0,1
132030,-100,4,2,2,80,0,1
132279,-100,4,2,6,80,0,1
132363,-100,4,2,2,80,0,1
132613,-100,4,2,6,80,0,1
132697,-100,4,2,2,80,0,1
132946,-100,4,2,6,80,0,1
133030,-100,4,2,2,80,0,1
133279,-100,4,2,6,80,0,1
133363,-100,4,2,2,80,0,1
133446,-100,4,2,3,80,0,1
133946,-100,4,2,6,80,0,1
134030,-100,4,2,2,80,0,1
134279,-100,4,2,6,80,0,1
134363,-100,4,2,2,80,0,1
134613,-100,4,2,6,80,0,1
134697,-100,4,2,2,80,0,1
134946,-100,4,2,6,80,0,1
135030,-100,4,2,2,80,0,1
135279,-100,4,2,6,80,0,1
135363,-100,4,2,2,80,0,1
135613,-100,4,2,6,80,0,1
135697,-100,4,2,2,80,0,1
135946,-100,4,2,6,80,0,1
136030,-100,4,2,2,80,0,1
136613,-100,4,2,6,80,0,1
136697,-100,4,2,2,80,0,1
136946,-100,4,2,6,80,0,1
137030,-100,4,2,2,80,0,1
137279,-100,4,2,6,80,0,1
137363,-100,4,2,2,80,0,1
137613,-100,4,2,6,80,0,1
137697,-100,4,2,2,80,0,1
137946,-100,4,2,6,80,0,1
138030,-100,4,2,2,80,0,1
138279,-100,4,2,6,80,0,1
138363,-100,4,2,2,80,0,1
138613,-100,4,2,6,80,0,1
138697,-100,4,2,2,80,0,1
138779,-100,4,2,3,80,0,1
139279,-100,4,2,6,80,0,1
139363,-100,4,2,2,80,0,1
139613,-100,4,2,6,80,0,1
139697,-100,4,2,2,80,0,1
139946,-100,4,2,6,80,0,1
140030,-100,4,2,2,80,0,1
140279,-100,4,2,6,80,0,1
140363,-100,4,2,2,80,0,1
140613,-100,4,2,6,80,0,1
140697,-100,4,2,2,80,0,1
140779,-100,4,2,1,80,0,1
140946,-100,4,2,6,80,0,1
141030,-100,4,2,2,80,0,1
141279,-100,4,2,6,80,0,1
141363,-100,4,2,2,80,0,1
141696,-100,4,2,2,5,0,1
141779,-100,4,2,2,80,0,1
141946,-100,4,2,5,80,0,1
142279,-100,4,2,6,80,0,1
142363,-100,4,2,2,80,0,1
142613,-100,4,2,6,80,0,1
142697,-100,4,2,2,80,0,1
142946,-100,4,2,6,80,0,1
143030,-100,4,2,2,80,0,1
143279,-100,4,2,6,80,0,1
143363,-100,4,2,2,80,0,1
143613,-100,4,2,6,80,0,1
143697,-100,4,2,2,80,0,1
143946,-100,4,2,6,80,0,1
144030,-100,4,2,2,80,0,1
144613,-100,4,2,6,80,0,1
144697,-100,4,2,2,80,0,1
144946,-100,4,2,6,80,0,1
145030,-100,4,2,2,80,0,1
145279,-100,4,2,6,80,0,1
145363,-100,4,2,2,80,0,1
145613,-100,4,2,6,80,0,1
145696,-100,4,2,2,80,0,1
145946,-100,4,2,6,80,0,1
146030,-100,4,2,2,80,0,1
146279,-100,4,2,6,80,0,1
146363,-100,4,2,2,80,0,1
146613,-100,4,2,6,80,0,1
146697,-100,4,2,2,80,0,1
146779,-100,4,2,3,80,0,1
147279,-100,4,2,6,80,0,1
147363,-100,4,2,2,80,0,1
147613,-100,4,2,6,80,0,1
147697,-100,4,2,2,80,0,1
147946,-100,4,2,6,80,0,1
148030,-100,4,2,2,80,0,1
148279,-100,4,2,6,80,0,1
148363,-100,4,2,2,80,0,1
148613,-100,4,2,5,80,0,1
148946,-100,4,2,6,80,0,1
149030,-100,4,2,2,80,0,1
149279,-100,4,2,6,80,0,1
149363,-100,4,2,2,80,0,1
149946,-100,4,2,6,80,0,1
150030,-100,4,2,2,80,0,1
150279,-100,4,2,6,80,0,1
150363,-100,4,2,2,80,0,1
150613,-100,4,2,6,80,0,1
150697,-100,4,2,2,80,0,1
150779,-100,4,2,3,80,0,1
151613,-100,4,2,2,80,0,1
151946,-100,4,2,5,80,0,1
152279,-100,4,2,6,75,0,0
152363,-100,4,2,2,75,0,0
152613,-100,4,2,6,75,0,0
152697,-100,4,2,2,75,0,0
152946,-100,4,2,6,75,0,0
153030,-100,4,2,2,75,0,0
153279,-100,4,2,6,75,0,0
153363,-100,4,2,2,75,0,0
153446,-100,4,2,5,75,0,0
153613,-100,4,2,3,75,0,0
153946,-100,4,2,5,75,0,0
154279,-100,4,2,2,75,0,0
154613,-100,4,2,5,75,0,0
154946,-100,4,2,5,70,0,0
155279,-100,4,2,6,70,0,0
155363,-100,4,2,2,70,0,0
155613,-100,4,2,6,70,0,0
155697,-100,4,2,2,70,0,0
155946,-100,4,2,6,70,0,0
156030,-100,4,2,2,70,0,0
156279,-100,4,2,6,70,0,0
156363,-100,4,2,2,70,0,0
156613,-100,4,2,6,70,0,0
156697,-100,4,2,2,70,0,0
156946,-100,4,2,3,70,0,0
157613,-100,4,2,2,70,0,0
157946,-100,4,2,6,70,0,0
158030,-100,4,2,2,70,0,0
158279,-100,4,2,6,70,0,0
158363,-100,4,2,2,70,0,0
159113,-100,4,2,3,70,0,0
160279,-100,4,2,2,70,0,0
160613,-100,4,2,6,70,0,0
160697,-100,4,2,2,70,0,0
160946,-100,4,2,6,70,0,0
161030,-100,4,2,2,70,0,0
161279,-100,4,2,6,70,0,0
161363,-100,4,2,2,70,0,0
161613,-100,4,2,6,70,0,0
161697,-100,4,2,2,70,0,0
161946,-100,4,2,6,70,0,0
162030,-100,4,2,2,70,0,0
162279,-100,4,2,3,70,0,0
162946,-100,4,2,2,70,0,0
163279,-100,4,2,6,70,0,0
163363,-100,4,2,2,70,0,0
163613,-100,4,2,6,70,0,0
163697,-100,4,2,2,70,0,0
164446,-100,4,2,3,70,0,0
165613,-100,4,2,2,70,0,0
165863,-100,4,2,2,5,0,0
165946,-100,4,2,6,70,0,0
166030,-100,4,2,2,70,0,0
166279,-100,4,2,6,70,0,0
166363,-100,4,2,2,70,0,0
166613,-100,4,2,6,70,0,0
166697,-100,4,2,2,70,0,0
166946,-100,4,2,6,70,0,0
167030,-100,4,2,2,70,0,0
167279,-100,4,2,6,70,0,0
167363,-100,4,2,2,70,0,0
167613,-100,4,2,4,70,0,0
167863,-100,4,2,4,5,0,0
167946,-100,4,2,4,70,0,0
168196,-100,4,2,4,5,0,0
168279,-100,4,2,2,70,0,0
168613,-100,4,2,6,70,0,0
168697,-100,4,2,2,70,0,0
168946,-100,4,2,6,70,0,0
169030,-100,4,2,2,70,0,0
169779,-100,4,2,3,70,0,0
170946,-100,4,2,3,55,0,0
172946,-100,4,2,4,70,0,0
173196,-100,4,2,4,5,0,0
173279,-100,4,2,4,70,0,0
173613,-100,4,2,2,70,0,0
173946,-100,4,2,6,70,0,0
174030,-100,4,2,2,70,0,0
174279,-100,4,2,6,70,0,0
174363,-100,4,2,2,70,0,0
175113,-100,4,2,3,70,0,0
176279,-100,4,2,2,75,0,0
176529,-100,4,2,2,5,0,0
176613,-100,4,2,6,75,0,0
176696,-100,4,2,2,75,0,0
176946,-100,4,2,6,75,0,0
177029,-100,4,2,2,75,0,0
177279,-100,4,2,6,75,0,0
177362,-100,4,2,2,75,0,0
177613,-100,4,2,7,75,0,0
177696,-100,4,2,2,75,0,0
177946,-100,4,2,6,75,0,0
178029,-100,4,2,2,75,0,0
178279,-100,4,2,6,75,0,0
178362,-100,4,2,2,75,0,0
178613,-100,4,2,6,75,0,0
178696,-100,4,2,2,75,0,0
178779,-100,4,2,3,75,0,0
179279,-100,4,2,6,75,0,0
179362,-100,4,2,2,75,0,0
179613,-100,4,2,6,75,0,0
179696,-100,4,2,2,75,0,0
179946,-100,4,2,6,75,0,0
180029,-100,4,2,2,75,0,0
180279,-100,4,2,6,75,0,0
180362,-100,4,2,2,75,0,0
180613,-100,4,2,6,75,0,0
180696,-100,4,2,2,75,0,0
180946,-100,4,2,6,75,0,0
181029,-100,4,2,2,75,0,0
181279,-100,4,2,6,75,0,0
181362,-100,4,2,2,75,0,0
181946,-100,4,2,6,75,0,0
182029,-100,4,2,2,75,0,0
182279,-100,4,2,6,75,0,0
182362,-100,4,2,2,75,0,0
182613,-100,4,2,6,75,0,0
182696,-100,4,2,2,75,0,0
182946,-100,4,2,6,75,0,0
183029,-100,4,2,2,75,0,0
183279,-100,4,2,6,75,0,0
183362,-100,4,2,2,75,0,0
183613,-100,4,2,6,75,0,0
183696,-100,4,2,2,75,0,0
183946,-100,4,2,6,75,0,0
184029,-100,4,2,2,75,0,0
184113,-100,4,2,3,75,0,0
184613,-100,4,2,6,75,0,0
184696,-100,4,2,2,75,0,0
184946,-100,4,2,6,75,0,0
185029,-100,4,2,2,75,0,0
185279,-100,4,2,6,75,0,0
185362,-100,4,2,2,75,0,0
185613,-100,4,2,6,75,0,0
185696,-100,4,2,2,75,0,0
185946,-100,4,2,6,75,0,0
186029,-100,4,2,2,75,0,0
186113,-100,4,2,1,75,0,0
186279,-100,4,2,6,75,0,0
186362,-100,4,2,2,75,0,0
186613,-100,4,2,3,75,0,0
186946,-100,4,2,2,75,0,0
187196,-100,4,2,2,5,0,0
187279,-100,4,2,6,75,0,0
187362,-100,4,2,2,75,0,0
187613,-100,4,2,6,75,0,0
187696,-100,4,2,2,75,0,0
187946,-100,4,2,6,75,0,0
188029,-100,4,2,2,75,0,0
188279,-100,4,2,7,75,0,0
188362,-100,4,2,2,75,0,0
188613,-100,4,2,6,75,0,0
188696,-100,4,2,2,75,0,0
188946,-100,4,2,6,75,0,0
189029,-100,4,2,2,75,0,0
189279,-100,4,2,6,75,0,0
189362,-100,4,2,2,75,0,0
189946,-100,4,2,6,75,0,0
190029,-100,4,2,2,75,0,0
190279,-100,4,2,6,75,0,0
190362,-100,4,2,2,75,0,0
190613,-100,4,2,6,75,0,0
190696,-100,4,2,2,75,0,0
190946,-100,4,2,6,75,0,0
191029,-100,4,2,2,75,0,0
191279,-100,4,2,6,75,0,0
191362,-100,4,2,2,75,0,0
191613,-100,4,2,6,75,0,0
191696,-100,4,2,2,75,0,0
191946,-100,4,2,6,75,0,0
192029,-100,4,2,2,75,0,0
192113,-100,4,2,3,75,0,0
192613,-100,4,2,6,75,0,0
192696,-100,4,2,2,75,0,0
192946,-100,4,2,6,75,0,0
193029,-100,4,2,2,75,0,0
193279,-100,4,2,6,75,0,0
193362,-100,4,2,2,75,0,0
193613,-100,4,2,6,75,0,0
193696,-100,4,2,2,75,0,0
193946,-100,4,2,5,75,0,0
194279,-100,4,2,6,75,0,0
194362,-100,4,2,2,75,0,0
194613,-100,4,2,6,75,0,0
194696,-100,4,2,2,75,0,0
195279,-100,4,2,6,75,0,0
195362,-100,4,2,2,75,0,0
195613,-100,4,2,6,75,0,0
195696,-100,4,2,2,75,0,0
195946,-100,4,2,6,75,0,0
196029,-100,4,2,2,75,0,0
196113,-100,4,2,5,75,0,0
196613,-100,4,2,3,75,0,0
196946,-100,4,2,2,75,0,0
197279,-100,4,2,5,75,0,0
197613,-100,4,2,2,70,0,0
197946,-100,4,2,3,70,0,0
200279,-100,4,2,2,70,0,0
200613,-100,4,2,3,70,0,0
202446,-100,4,2,5,70,0,0
202946,-100,4,2,2,70,0,0
203279,-100,4,2,3,70,0,0
205446,-100,4,2,3,50,0,0
207029,-100,4,2,3,5,0,0
207279,-100,4,2,3,50,0,0
207696,-100,4,2,3,5,0,0
207946,-100,4,2,3,65,0,0
208113,-100,4,2,3,80,0,1
208363,-100,4,2,3,5,0,1
208446,-100,4,2,3,80,0,1
208613,-100,4,2,6,80,0,1
208697,-100,4,2,2,80,0,1
208946,-100,4,2,6,80,0,1
209030,-100,4,2,2,80,0,1
209280,-100,4,2,6,80,0,1
209364,-100,4,2,2,80,0,1
209613,-100,4,2,6,80,0,1
209697,-100,4,2,2,80,0,1
209946,-100,4,2,6,80,0,1
210030,-100,4,2,2,80,0,1
210280,-100,4,2,6,80,0,1
210364,-100,4,2,2,80,0,1
210613,-100,4,2,6,80,0,1
210697,-100,4,2,2,80,0,1
211280,-100,4,2,6,80,0,1
211364,-100,4,2,2,80,0,1
211613,-100,4,2,6,80,0,1
211697,-100,4,2,2,80,0,1
211946,-100,4,2,6,80,0,1
212030,-100,4,2,2,80,0,1
212280,-100,4,2,6,80,0,1
212364,-100,4,2,2,80,0,1
212613,-100,4,2,6,80,0,1
212697,-100,4,2,2,80,0,1
212946,-100,4,2,6,80,0,1
213030,-100,4,2,2,80,0,1
213280,-100,4,2,6,80,0,1
213364,-100,4,2,2,80,0,1
213446,-100,4,2,3,80,0,1
213946,-100,4,2,6,80,0,1
214030,-100,4,2,2,80,0,1
214280,-100,4,2,6,80,0,1
214364,-100,4,2,2,80,0,1
214613,-100,4,2,6,80,0,1
214697,-100,4,2,2,80,0,1
214946,-100,4,2,6,80,0,1
215030,-100,4,2,2,80,0,1
215280,-100,4,2,6,80,0,1
215364,-100,4,2,2,80,0,1
215446,-100,4,2,1,80,0,1
215613,-100,4,2,6,80,0,1
215697,-100,4,2,2,80,0,1
215946,-100,4,2,6,80,0,1
216030,-100,4,2,2,80,0,1
216363,-100,4,2,2,5,0,1
216446,-100,4,2,2,80,0,1
216613,-100,4,2,5,80,0,1
216946,-100,4,2,6,80,0,1
217030,-100,4,2,2,80,0,1
217280,-100,4,2,6,80,0,1
217364,-100,4,2,2,80,0,1
217613,-100,4,2,6,80,0,1
217697,-100,4,2,2,80,0,1
217946,-100,4,2,6,80,0,1
218030,-100,4,2,2,80,0,1
218280,-100,4,2,6,80,0,1
218364,-100,4,2,2,80,0,1
218613,-100,4,2,6,80,0,1
218697,-100,4,2,2,80,0,1
219280,-100,4,2,6,80,0,1
219364,-100,4,2,2,80,0,1
219613,-100,4,2,6,80,0,1
219697,-100,4,2,2,80,0,1
219946,-100,4,2,6,80,0,1
220030,-100,4,2,2,80,0,1
220280,-100,4,2,6,80,0,1
220363,-100,4,2,2,80,0,1
220613,-100,4,2,6,80,0,1
220697,-100,4,2,2,80,0,1
220946,-100,4,2,6,80,0,1
221030,-100,4,2,2,80,0,1
221280,-100,4,2,6,80,0,1
221364,-100,4,2,2,80,0,1
221446,-100,4,2,3,80,0,1
221946,-100,4,2,6,80,0,1
222030,-100,4,2,2,80,0,1
222280,-100,4,2,6,80,0,1
222364,-100,4,2,2,80,0,1
222613,-100,4,2,6,80,0,1
222697,-100,4,2,2,80,0,1
222946,-100,4,2,6,80,0,1
223030,-100,4,2,2,80,0,1
223280,-100,4,2,5,80,0,1
223613,-100,4,2,6,80,0,1
223697,-100,4,2,2,80,0,1
223946,-100,4,2,6,80,0,1
224030,-100,4,2,2,80,0,1
224613,-100,4,2,6,80,0,1
224697,-100,4,2,2,80,0,1
224946,-100,4,2,6,80,0,1
225030,-100,4,2,2,80,0,1
225280,-100,4,2,6,80,0,1
225364,-100,4,2,2,80,0,1
225446,-100,4,2,3,80,0,1
226280,-100,4,2,2,80,0,1
226613,-100,4,2,5,80,0,1
226779,-100,4,2,2,75,0,1
226863,-100,4,2,2,75,0,0
226946,-100,4,2,6,75,0,1
227029,-100,4,2,2,75,0,1
227279,-100,4,2,6,75,0,1
227362,-100,4,2,2,75,0,1
227613,-100,4,2,6,75,0,1
227696,-100,4,2,2,75,0,1
227946,-100,4,2,6,75,0,1
228029,-100,4,2,2,75,0,1
228279,-100,4,2,6,75,0,1
228362,-100,4,2,2,75,0,1
228613,-100,4,2,6,75,0,1
228696,-100,4,2,2,75,0,1
228946,-100,4,2,6,75,0,1
229029,-100,4,2,2,75,0,1
229113,-100,4,2,5,75,0,1
229946,-100,4,2,6,75,0,1
230029,-100,4,2,2,75,0,1
230279,-100,4,2,6,75,0,1
230362,-100,4,2,2,75,0,1
230613,-100,4,2,6,75,0,1
230696,-100,4,2,2,75,0,1
230946,-100,4,2,6,75,0,1
231029,-100,4,2,2,75,0,1
231113,-100,4,2,3,75,0,1
231946,-100,4,2,5,75,0,1
232279,-100,4,2,6,75,0,1
232362,-100,4,2,2,75,0,1
232613,-100,4,2,6,75,0,1
232696,-100,4,2,2,75,0,1
232946,-100,4,2,6,75,0,1
233029,-100,4,2,2,75,0,1
233279,-100,4,2,6,75,0,1
233362,-100,4,2,2,75,0,1
233613,-100,4,2,6,75,0,1
233696,-100,4,2,2,75,0,1
233946,-100,4,2,6,75,0,1
234029,-100,4,2,2,75,0,1
234446,-100,4,2,5,75,0,1
234946,-100,4,2,3,75,0,1
235279,-100,4,2,6,75,0,1
235362,-100,4,2,2,75,0,1
235613,-100,4,2,6,75,0,1
235696,-100,4,2,2,75,0,1
235946,-100,4,2,6,75,0,1
236029,-100,4,2,2,75,0,1
236779,-100,4,2,5,75,0,1
237613,-100,4,2,2,60,0,0

[Colours]
Combo1 : 255,128,64
Combo2 : 255,64,64
SliderBorder : 200,200,200
SliderTrackOverride : 25,34,58

[HitObjects]
256,192,280,5,2,0:0:0:0:
411,173,2946,5,8,0:2:0:0:
124,65,5613,5,8,0:2:0:0:
124,65,5779,2,0,L|118:122,1,50,8|8,0:2|0:2,0:0:0:0:
73,324,10279,5,14,0:0:0:0:
141,255,10613,1,10,0:0:0:0:
79,175,10946,2,0,P|56:136|65:55,1,100,14|10,0:0|0:2,0:0:0:0:
115,16,11613,1,10,0:2:0:0:
189,65,11946,1,10,0:2:0:0:
189,65,12113,2,0,B|237:82|237:82|308:76,1,100,10|0,0:1|0:0,0:0:0:0:
322,51,12613,1,10,0:2:0:0:
398,97,12946,1,10,0:2:0:0:
398,97,13113,2,0,L|407:156,1,50,12|10,0:1|0:2,0:0:0:0:
443,170,13446,5,12,0:1:0:0:
443,170,13613,2,0,L|427:290,1,100,10|10,0:2|0:2,0:0:0:0:
471,348,14279,2,0,B|424:331|424:331|345:338,1,100,10|10,0:2|0:2,0:0:0:0:
330,323,14779,2,0,L|222:335,1,100,10|14,0:1|0:1,0:0:0:0:
209,373,15279,2,0,L|137:359,1,50,10|14,0:2|0:1,0:0:0:0:
123,335,15613,1,10,0:2:0:0:
77,257,15946,5,14,0:2:0:0:
103,220,16113,1,8,0:2:0:0:
103,220,16279,2,0,L|84:100,1,100,14|10,0:2|0:2,0:0:0:0:
15,66,16946,2,0,P|72:33|132:44,1,100,10|10,0:2|0:2,0:0:0:0:
146,50,17446,2,0,B|178:67|178:67|280:44,1,100,10|0,0:1|0:0,0:0:0:0:
282,37,17946,1,10,0:2:0:0:
371,43,18279,1,10,0:2:0:0:
371,43,18446,2,0,P|381:74|383:107,1,50,14|10,0:1|0:2,0:0:0:0:
417,120,18779,5,12,0:1:0:0:
417,120,18946,2,0,P|402:174|408:249,1,100,14|10,0:2|0:2,0:0:0:0:
445,296,19613,2,0,P|404:333|338:332,1,100,10|10,0:2|0:2,0:0:0:0:
322,361,20113,2,0,B|263:359|282:343|225:336,1,100,14|10,0:1|0:2,0:0:0:0:
185,317,20613,2,0,P|153:323|118:350,1,50,10|10,0:2|0:2,0:0:0:0:
103,360,20946,2,0,P|71:353|36:327,1,50,10|10,0:2|0:2,0:0:0:0:
27,310,21279,1,10,0:2:0:0:
39,220,21613,6,0,B|27:159|27:159|53:119,1,100,14|10,0:1|0:2,0:0:0:0:
92,51,22279,2,0,L|170:68,1,50,10|10,0:1|0:1,0:0:0:0:
180,84,22613,1,10,0:2:0:0:
220,102,22779,1,10,0:2:0:0:
220,102,22946,2,0,L|357:76,1,100,8|10,0:1|0:2,0:0:0:0:
355,58,23446,2,0,B|380:89|380:89|375:179,1,100,10|10,0:1|0:1,0:0:0:0:
355,188,23946,1,10,0:2:0:0:
407,260,24279,5,14,0:1:0:0:
368,341,24613,1,10,0:2:0:0:
282,312,24946,2,0,L|195:321,1,50,10|10,0:1|0:1,0:0:0:0:
200,349,25279,1,10,0:2:0:0:
200,349,25446,1,10,0:2:0:0:
154,346,25613,2,0,L|40:328,1,100,8|10,0:1|0:2,0:0:0:0:
13,312,26113,2,0,P|2:271|6:185,1,100,2|8,0:2|0:1,0:0:0:0:
27,177,26613,1,10,0:2:0:0:
74,100,26946,6,0,L|206:121,1,100,14|10,0:1|0:2,0:0:0:0:
250,70,27613,1,10,0:1:0:0:
250,70,27779,2,0,L|299:54,1,50,10|10,0:1|0:2,0:0:0:0:
338,34,28113,1,10,0:2:0:0:
338,34,28279,2,0,P|347:86|330:157,1,100,8|10,0:1|0:2,0:0:0:0:
309,165,28779,2,0,L|322:275,1,100,10|10,0:1|0:1,0:0:0:0:
327,308,29279,1,10,0:2:0:0:
251,357,29613,6,0,P|196:359|144:367,1,100,14|10,0:1|0:2,0:0:0:0:
106,365,30113,2,0,P|99:340|100:292,1,50,8|14,0:1|0:1,0:0:0:0:
42,244,30613,1,10,0:2:0:0:
67,207,30779,1,14,0:2:0:0:
67,207,30946,2,0,P|72:180|71:145,1,50,8|10,0:1|0:2,0:0:0:0:
54,114,31279,1,10,0:2:0:0:
54,114,31446,2,0,B|99:94|99:94|171:109,1,100,10|10,0:1|0:1,0:0:0:0:
186,128,31946,1,10,0:2:0:0:
269,94,32279,6,0,B|312:84|312:84|324:72|324:72|401:57,1,100,14|8,0:1|0:2,0:0:0:0:
452,72,32946,2,0,L|467:143,1,50,10|10,0:1|0:1,0:0:0:0:
442,161,33279,1,10,0:2:0:0:
442,161,33446,2,0,L|430:281,1,100,10|8,0:1|0:1,0:0:0:0:
452,300,33946,1,10,0:2:0:0:
380,354,34279,2,0,P|365:352|303:327,1,50,10|10,0:1|0:1,0:0:0:0:
298,311,34613,5,8,0:2:0:0:
298,311,34779,2,0,P|240:307|164:346,1,100,10|10,0:1|0:1,0:0:0:0:
166,348,35279,1,10,0:2:0:0:
78,324,35613,2,0,P|64:301|63:256,1,50,8|8,0:1|0:1,0:0:0:0:
71,235,35946,1,8,0:2:0:0:
2,176,36279,2,0,P|61:147|130:171,1,100,8|8,0:1|0:2,0:0:0:0:
168,200,36946,2,0,P|194:213|231:215,1,50,8|8,0:1|0:1,0:0:0:0:
248,246,37279,5,8,0:2:0:0:
248,246,37446,2,0,P|277:205|267:129,1,100,10|8,0:1|0:1,0:0:0:0:
247,118,37946,1,10,0:2:0:0:
286,37,38279,2,0,L|341:25,2,50,10|10|10,0:1|0:1|0:2,0:0:0:0:
243,21,38779,2,0,L|106:11,1,100,10|8,0:1|0:1,0:0:0:0:
98,7,39279,1,10,0:2:0:0:
30,66,39613,2,0,L|40:136,1,50,10|10,0:1|0:1,0:0:0:0:
60,154,39946,1,8,0:2:0:0:
101,238,40279,6,0,L|87:357,1,100,2|8,0:3|0:2,0:0:0:0:
171,373,40946,2,0,L|307:349,1,100,10|8,0:1|0:2,0:0:0:0:
337,296,41613,2,0,L|439:320,1,100,10|8,0:1|0:2,0:0:0:0:
479,321,42113,2,0,P|500:264|480:211,1,100,2|8,0:2|0:2,0:0:0:0:
464,191,42613,2,0,L|459:112,1,50,8|8,0:2|0:1,0:0:0:0:
424,114,42946,5,14,0:1:0:0:
424,114,43113,2,0,L|436:54,1,50,8|8,0:1|0:2,0:0:0:0:
354,21,43613,2,0,P|331:67|343:124,1,100,10|10,0:1|0:2,0:0:0:0:
328,157,44113,2,0,P|288:141|201:132,1,100,10|0,0:1|0:0,0:0:0:0:
189,147,44613,1,10,0:2:0:0:
116,93,44946,2,0,L|126:20,2,50,10|10|8,0:1|0:1|0:2,0:0:0:0:
78,117,45446,6,0,L|93:230,1,100,10|10,0:1|0:1,0:0:0:0:
73,257,45946,1,10,0:2:0:0:
128,327,46279,2,0,P|161:318|199:288,1,50,8|8,0:1|0:1,0:0:0:0:
206,278,46613,1,8,0:2:0:0:
291,306,46946,2,0,P|348:312|411:340,1,100,8|8,0:1|0:2,0:0:0:0:
431,339,47446,1,10,0:1:0:0:
432,339,47613,2,0,P|443:317|445:292,1,50,8|10,0:1|0:1,0:0:0:0:
428,250,47946,5,8,0:2:0:0:
428,250,48113,2,0,L|418:131,1,100,10|10,0:1|0:1,0:0:0:0:
383,123,48613,1,8,0:2:0:0:
325,54,48946,2,0,L|341:-1,2,50,10|10|10,0:1|0:1|0:2,0:0:0:0:
290,83,49446,2,0,P|241:88|157:101,1,100,10|0,0:1|0:0,0:0:0:0:
146,101,49946,1,10,0:2:0:0:
81,163,50279,1,10,0:1:0:0:
81,163,50446,2,0,L|95:232,1,50,10|8,0:1|0:2,0:0:0:0:
128,236,50779,5,2,0:2:0:0:
128,236,50946,2,0,P|124:290|116:365,1,100,10|8,0:1|0:2,0:0:0:0:
203,371,51613,2,0,P|252:365|302:363,1,100,10|8,0:1|0:2,0:0:0:0:
346,373,52113,1,2,0:2:0:0:
346,373,52279,2,0,P|355:345|358:292,1,50,10|10,0:1|0:1,0:0:0:0:
391,294,52613,1,8,0:2:0:0:
391,294,52779,2,0,P|380:245|380:165,1,100,10|10,0:1|0:1,0:0:0:0:
388,151,53279,1,8,0:2:0:0:
432,72,53613,5,14,0:1:0:0:
432,72,53946,1,12,0:1:0:0:
432,72,54279,2,0,P|391:48|314:60,1,100,10|10,0:2|0:2,0:0:0:0:
308,80,54779,2,0,B|256:87|271:119|191:112,1,100,10|0,0:1|0:0,0:0:0:0:
174,93,55279,2,0,B|154:126|154:126|164:171|174:218,1,100,10|10,0:1|0:1,0:0:0:0:
195,221,55779,2,0,L|189:295,1,50,10|8,0:2|0:1,0:0:0:0:
156,354,56279,5,14,0:1:0:0:
156,354,56613,1,14,0:1:0:0:
156,354,56946,2,0,P|205:369|267:363,1,100,10|10,0:2|0:2,0:0:0:0:
296,379,57446,2,0,B|298:324|282:280|282:280|302:259|313:224,1,150,10|10,0:1|0:1,0:0:0:0:
364,168,58279,1,8,0:1:0:0:
394,135,58446,1,10,0:2:0:0:
394,135,58613,2,0,P|389:112|379:69,1,50,10|10,0:2|0:2,0:0:0:0:
353,52,58946,5,14,0:1:0:0:
353,52,59279,1,14,0:1:0:0:
353,52,59613,2,0,P|366:104|370:155,1,100,10|10,0:2|0:2,0:0:0:0:
344,187,60113,2,0,P|293:197|225:214,1,100,10|2,0:1|0:0,0:0:0:0:
223,247,60613,2,0,P|163:251|119:204,1,100,10|10,0:1|0:1,0:0:0:0:
90,211,61113,1,14,0:2:0:0:
90,211,61279,2,0,P|100:186|98:137,1,50,8|10,0:1|0:1,0:0:0:0:
68,133,61613,6,0,P|42:179|68:259,1,100,14|8,0:1|0:2,0:0:0:0:
33,313,62279,2,0,P|56:335|92:348,1,50,10|8,0:1|0:1,0:0:0:0:
109,368,62613,1,8,0:2:0:0:
109,368,62779,2,0,P|156:357|227:354,1,100,8|8,0:1|0:1,0:0:0:0:
251,363,63279,1,8,0:2:0:0:
326,313,63613,1,10,0:1:0:0:
326,313,63779,2,0,L|384:328,1,50,8|8,0:1|0:2,0:0:0:0:
461,348,64279,5,10,0:1:0:0:
482,308,64446,1,10,0:1:0:0:
501,267,64613,2,0,L|486:194,1,50,10|10,0:2|0:1,0:0:0:0:
417,165,65113,1,10,0:1:0:0:
439,126,65279,2,0,L|446:54,1,50,10|10,0:2|0:1,0:0:0:0:
366,29,65779,1,10,0:1:0:0:
366,29,65946,2,0,P|320:36|224:50,1,100,10|10,0:2|0:2,0:0:0:0:
235,75,66446,1,10,0:2:0:0:
204,108,66613,5,10,0:2:0:0:
204,108,66779,2,0,L|64:92,1,100,14|10,0:1|0:1,0:0:0:0:
61,82,67279,1,10,0:2:0:0:
14,158,67613,2,0,L|29:227,1,50,10|10,0:1|0:1,0:0:0:0:
65,226,67946,1,10,0:2:0:0:
65,226,68113,2,0,L|55:356,1,100,10|8,0:1|0:1,0:0:0:0:
90,355,68613,1,10,0:2:0:0:
177,375,68946,2,0,P|207:368|241:342,1,50,8|8,0:1|0:1,0:0:0:0:
246,319,69279,5,8,0:2:0:0:
246,319,69446,2,0,P|301:324|354:352,1,100,14|10,0:1|0:1,0:0:0:0:
375,372,69946,1,10,0:2:0:0:
419,293,70279,2,0,P|411:268|409:216,1,50,10|10,0:1|0:1,0:0:0:0:
375,213,70613,1,10,0:2:0:0:
375,213,70779,2,0,P|387:180|386:101,1,100,10|8,0:1|0:1,0:0:0:0:
400,72,71279,2,0,P|353:89|280:97,1,100,10|10,0:2|0:1,0:0:0:0:
216,68,71946,5,10,0:2:0:0:
216,68,72113,2,0,L|80:56,1,100,14|8,0:1|0:1,0:0:0:0:
80,32,72613,1,8,0:2:0:0:
5,82,72946,2,0,P|1:136|33:193,1,100,10|10,0:1|0:2,0:0:0:0:
15,222,73446,2,0,L|151:210,1,100,10|8,0:1|0:1,0:0:0:0:
152,238,73946,1,8,0:2:0:0:
216,175,74279,2,0,B|275:170|262:199|336:191,1,100,10|10,0:1|0:2,0:0:0:0:
351,168,74779,6,0,B|382:201|382:201|369:290,1,100,14|10,0:1|0:1,0:0:0:0:
388,297,75279,1,10,0:2:0:0:
310,342,75613,2,0,L|239:352,1,50,10|8,0:1|0:1,0:0:0:0:
220,328,75946,1,10,0:2:0:0:
220,328,76113,2,0,L|84:312,1,100,10|10,0:1|0:1,0:0:0:0:
79,333,76613,1,10,0:2:0:0:
18,266,76946,1,10,0:1:0:0:
18,266,77113,2,0,L|25:201,1,50,10|10,0:2|0:2,0:0:0:0:
48,178,77446,6,0,L|36:67,1,100,14|10,0:1|0:1,0:0:0:0:
45,34,77946,2,0,P|102:37|138:73,1,100,14|10,0:2|0:1,0:0:0:0:
220,85,78613,1,10,0:2:0:0:
220,85,78779,2,0,P|272:74|349:67,1,100,10|8,0:1|0:1,0:0:0:0:
358,47,79279,1,10,0:2:0:0:
439,86,79613,2,0,P|447:127|445:159,1,50,8|8,0:1|0:1,0:0:0:0:
481,159,79946,5,8,0:2:0:0:
481,159,80113,2,0,P|467:222|464:283,1,100,14|10,0:1|0:1,0:0:0:0:
475,300,80613,2,0,P|432:325|365:323,1,100,10|10,0:2|0:1,0:0:0:0:
303,285,81279,1,10,0:2:0:0:
303,285,81446,2,0,B|280:280|258:265|258:265|229:271|191:270,1,100,10|8,0:1|0:1,0:0:0:0:
169,293,81946,1,10,0:2:0:0:
91,338,82279,2,0,P|67:336|32:309,1,50,10|10,0:1|0:1,0:0:0:0:
21,285,82613,5,10,0:2:0:0:
21,285,82779,2,0,P|48:246|37:172,1,100,14|8,0:1|0:1,0:0:0:0:
21,158,83279,1,8,0:2:0:0:
59,76,83613,2,0,P|102:50|169:62,1,100,10|10,0:1|0:2,0:0:0:0:
191,35,84113,2,0,L|206:145,1,100,10|8,0:1|0:1,0:0:0:0:
237,164,84613,1,12,0:2:0:0:
320,130,84946,2,0,L|334:65,2,50,10|8|10,0:1|0:1|0:2,0:0:0:0:
344,167,85446,6,0,P|380:193|443:189,1,100,14|10,0:1|0:1,0:0:0:0:
478,195,85946,2,0,L|467:273,1,50,10|2,0:2|0:2,0:0:0:0:
436,273,86279,2,0,L|452:345,1,50,10|8,0:1|0:1,0:0:0:0:
475,357,86613,1,10,0:2:0:0:
475,357,86779,2,0,L|339:341,1,100,14|8,0:1|0:1,0:0:0:0:
331,338,87279,1,14,0:2:0:0:
261,281,87613,2,0,L|210:292,1,50,14|8,0:1|0:1,0:0:0:0:
181,324,87946,1,14,0:2:0:0:
93,302,88279,5,14,0:2:0:0:
93,302,88446,1,14,0:2:0:0:
112,214,88779,1,10,0:2:0:0:
112,214,88946,1,10,0:2:0:0:
74,132,89279,1,10,0:2:0:0:
74,132,89446,1,10,0:2:0:0:
119,54,89779,1,10,0:2:0:0:
119,54,89946,2,0,B|149:48|173:28|173:28|209:72|285:61,1,150,10|8,0:2|0:1,0:0:0:0:
291,85,90613,2,0,L|366:66,1,50,14|0,0:2|0:0,0:0:0:0:
383,62,90946,5,14,0:1:0:0:
384,62,96279,6,0,L|446:44,2,50,14|0|8,0:1|0:0|0:2,0:0:0:0:
325,130,96946,2,0,L|308:210,2,50,10|10|10,0:1|0:1|0:2,0:0:0:0:
294,97,97446,2,0,P|246:90|176:78,1,100,10|8,0:1|0:1,0:0:0:0:
162,50,97946,2,0,P|108:56|66:125,1,100,10|10,0:2|0:1,0:0:0:0:
59,174,98613,5,8,0:2:0:0:
59,174,98779,2,0,P|67:227|74:295,1,100,10|10,0:1|0:1,0:0:0:0:
55,315,99279,2,0,B|88:301|88:301|187:327,1,100,10|8,0:2|0:1,0:0:0:0:
184,346,99779,1,8,0:1:0:0:
228,338,99946,1,8,0:2:0:0:
293,276,100279,1,8,0:1:0:0:
382,289,100613,1,8,0:2:0:0:
456,238,100946,1,8,0:1:0:0:
456,238,101113,2,0,P|464:212|462:176,1,50,10|8,0:1|0:2,0:0:0:0:
486,150,101446,6,0,P|457:119|460:44,1,100,10|8,0:1|0:1,0:0:0:0:
476,25,101946,2,0,B|439:14|439:14|364:37,1,100,10|10,0:2|0:1,0:0:0:0:
331,107,102613,1,10,0:2:0:0:
331,107,102779,2,0,L|193:91,1,100,10|8,0:1|0:1,0:0:0:0:
187,87,103279,1,10,0:2:0:0:
118,28,103613,1,10,0:1:0:0:
118,28,103779,2,0,P|89:41|60:44,1,50,10|8,0:1|0:2,0:0:0:0:
28,27,104113,5,10,0:1:0:0:
28,27,104279,2,0,B|3:59|3:59|16:103|26:152,1,100,10|8,0:1|0:2,0:0:0:0:
80,181,104946,2,0,P|67:222|69:299,1,100,10|8,0:1|0:2,0:0:0:0:
141,327,105613,2,0,P|154:286|152:209,1,100,10|8,0:1|0:2,0:0:0:0:
194,206,106113,1,2,0:2:0:0:
194,206,106279,2,0,P|219:223|260:230,1,50,8|8,0:1|0:2,0:0:0:0:
274,254,106612,2,0,P|296:245|335:240,1,50,8|8,0:2|0:1,0:0:0:0:
321,240,106946,6,0,L|421:261,1,100,14|8,0:1|0:2,0:0:0:0:
452,290,107446,2,0,B|473:274|499:267|499:267|511:218|475:166,1,150,2|10,0:2|0:2,0:0:0:0:
417,109,108279,2,0,P|418:83|430:54,1,50,8|8,0:1|0:1,0:0:0:0:
443,18,108613,2,0,B|379:20|403:42|315:54,1,100,10|10,0:2|0:1,0:0:0:0:
286,113,109279,5,8,0:2:0:0:
286,113,109446,2,0,P|237:87|164:92,1,100,2|10,0:2|0:1,0:0:0:0:
156,110,109946,1,10,0:2:0:0:
87,51,110279,2,0,P|80:26|75:-23,2,50,8|8|8,0:1|0:1|0:2,0:0:0:0:
48,132,110946,2,0,L|-23:144,2,50,8|8|8,0:1|0:1|0:2,0:0:0:0:
117,189,111613,2,0,P|125:225|134:268,1,50,8|8,0:1|0:1,0:0:0:0:
110,279,111946,1,8,0:2:0:0:
162,350,112279,6,0,P|208:370|258:375,1,100,10|8,0:1|0:2,0:0:0:0:
281,336,112779,2,0,B|380:320|380:320|397:358|422:374,1,150,2|10,0:2|0:2,0:0:0:0:
496,351,113613,2,0,P|506:323|501:286,1,50,8|8,0:1|0:1,0:0:0:0:
486,262,113946,2,0,L|471:138,1,100,10|10,0:2|0:1,0:0:0:0:
438,135,114446,2,0,L|446:73,1,50,10|8,0:1|0:2,0:0:0:0:
375,26,114946,5,10,0:1:0:0:
375,26,115113,2,0,L|293:50,1,50,8|8,0:1|0:2,0:0:0:0:
265,105,115613,1,10,0:1:0:0:
265,105,115779,2,0,L|202:90,1,50,8|8,0:1|0:2,0:0:0:0:
139,46,116279,1,10,0:2:0:0:
139,46,116446,2,0,L|58:70,1,50,10|8,0:1|0:2,0:0:0:0:
46,52,116779,2,0,B|29:89|29:89|39:123|45:167,1,100,10|10,0:1|0:1,0:0:0:0:
73,179,117279,2,0,P|65:213|64:251,1,50,8|8,0:2|0:1,0:0:0:0:
60,273,117613,5,14,0:1:0:0:
60,273,117946,1,14,0:1:0:0:
60,273,118279,2,0,P|96:300|166:300,1,100,10|10,0:2|0:2,0:0:0:0:
194,304,118779,2,0,P|252:312|318:323,1,100,10|0,0:1|0:0,0:0:0:0:
318,355,119279,2,0,B|356:345|390:354|390:354|419:326,1,100,10|10,0:1|0:1,0:0:0:0:
431,295,119779,1,10,0:2:0:0:
426,250,119946,1,8,0:1:0:0:
416,160,120279,5,14,0:1:0:0:
416,160,120613,1,14,0:1:0:0:
416,159,120946,2,0,P|378:194|373:247,1,100,10|10,0:2|0:2,0:0:0:0:
352,281,121446,2,0,P|301:286|233:297,1,100,10|8,0:1|0:2,0:0:0:0:
229,331,121946,1,10,0:1:0:0:
147,369,122279,1,8,0:1:0:0:
102,361,122446,1,10,0:2:0:0:
102,361,122613,2,0,L|35:350,1,50,10|10,0:2|0:2,0:0:0:0:
8,343,122946,5,14,0:1:0:0:
8,343,123279,1,14,0:1:0:0:
8,343,123613,2,0,P|53:318|120:339,1,100,10|10,0:2|0:2,0:0:0:0:
132,354,124113,2,0,P|154:322|140:243,1,100,10|0,0:1|0:0,0:0:0:0:
124,227,124613,1,10,0:1:0:0:
60,162,124946,1,10,0:1:0:0:
60,162,125113,2,0,P|62:137|71:91,1,50,14|8,0:2|0:1,0:0:0:0:
44,72,125446,5,10,0:1:0:0:
44,72,125613,2,0,B|76:47|76:47|110:52|168:57,1,100,14|8,0:1|0:2,0:0:0:0:
196,120,126279,2,0,P|220:114|264:106,1,50,10|8,0:1|0:1,0:0:0:0:
279,80,126613,1,8,0:2:0:0:
279,80,126779,2,0,P|327:103|394:99,1,100,8|8,0:1|0:1,0:0:0:0:
410,80,127279,2,0,B|437:120|437:120|426:183,1,100,8|10,0:2|0:1,0:0:0:0:
405,209,127779,1,8,0:1:0:0:
412,253,127946,1,8,0:2:0:0:
348,316,128279,6,0,P|310:309|278:286,1,50,10|8,0:1|0:1,0:0:0:0:
263,277,128613,1,10,0:2:0:0:
263,277,128779,2,0,B|211:284|222:311|163:312,1,100,10|10,0:1|0:1,0:0:0:0:
130,330,129279,1,10,0:2:0:0:
85,323,129446,1,10,0:1:0:0:
28,252,129779,1,10,0:2:0:0:
28,252,129946,2,0,P|38:222|36:177,1,50,10|10,0:2|0:2,0:0:0:0:
73,173,130279,2,0,P|68:143|56:106,2,50,6|6|6,0:3|0:3|0:3,0:0:0:0:
112,195,130779,6,0,P|152:222|228:220,1,100,14|10,0:1|0:1,0:0:0:0:
245,212,131279,1,10,0:2:0:0:
300,140,131613,2,0,L|285:84,2,50,10|10|10,0:1|0:1|0:2,0:0:0:0:
339,161,132113,2,0,B|403:173|403:173|412:192|429:215,1,100,10|8,0:1|0:1,0:0:0:0:
422,248,132613,1,10,0:2:0:0:
371,322,132946,2,0,P|339:330|310:343,1,50,8|8,0:1|0:1,0:0:0:0:
287,364,133279,5,8,0:2:0:0:
287,364,133446,2,0,P|244:352|171:348,1,100,14|10,0:1|0:1,0:0:0:0:
158,313,133946,2,0,P|129:319|93:347,1,50,10|2,0:2|0:2,0:0:0:0:
76,300,134279,2,0,P|50:317|33:343,1,50,10|10,0:1|0:1,0:0:0:0:
9,366,134613,1,10,0:2:0:0:
9,366,134779,2,0,P|-12:327|-11:244,1,100,10|8,0:1|0:1,0:0:0:0:
7,234,135279,1,10,0:2:0:0:
51,155,135613,2,0,P|44:123|20:91,1,50,10|10,0:1|0:1,0:0:0:0:
6,73,135946,5,10,0:2:0:0:
6,73,136113,2,0,B|64:79|40:99|116:108,1,100,14|8,0:1|0:1,0:0:0:0:
141,90,136613,1,8,0:2:0:0:
198,20,136946,2,0,P|259:27|296:78,1,100,10|10,0:1|0:2,0:0:0:0:
291,97,137446,2,0,B|348:102|348:102|394:65,1,100,10|8,0:1|0:1,0:0:0:0:
409,39,137946,1,8,0:2:0:0:
491,75,138279,2,0,P|509:127|503:190,1,100,10|10,0:1|0:2,0:0:0:0:
482,208,138779,6,0,B|440:216|440:216|427:227|427:227|359:237,1,100,14|10,0:1|0:1,0:0:0:0:
354,263,139279,1,10,0:2:0:0:
325,297,139446,1,2,0:2:0:0:
294,330,139613,2,0,L|175:364,1,100,10|10,0:1|0:2,0:0:0:0:
155,373,140113,2,0,P|134:330|138:263,1,100,10|10,0:1|0:1,0:0:0:0:
164,245,140613,1,10,0:2:0:0:
116,168,140946,2,0,L|95:76,1,50,10|10,0:1|0:2,0:0:0:0:
104,74,141279,1,10,0:2:0:0:
104,74,141446,2,0,B|42:76|42:76|22:93|22:130,1,100,14|10,0:1|0:1,0:0:0:0:
12,152,141946,5,14,0:2:0:0:
60,227,142279,2,0,L|44:294,1,50,10|10,0:1|0:1,0:0:0:0:
18,309,142613,1,10,0:2:0:0:
18,309,142779,2,0,P|54:348|129:341,1,100,10|8,0:1|0:1,0:0:0:0:
136,330,143279,1,10,0:2:0:0:
220,361,143613,1,8,0:1:0:0:
303,327,143946,5,8,0:2:0:0:
303,327,144113,2,0,B|321:310|332:290|332:290|328:264|324:237,1,100,14|10,0:1|0:1,0:0:0:0:
312,194,144613,2,0,L|391:207,1,50,10|2,0:2|0:2,0:0:0:0:
393,170,144946,2,0,L|447:158,1,50,8|10,0:1|0:1,0:0:0:0:
480,181,145279,1,10,0:2:0:0:
480,181,145446,2,0,P|507:121|476:63,1,100,10|8,0:1|0:1,0:0:0:0:
471,54,145946,1,10,0:2:0:0:
381,42,146279,2,0,L|309:60,1,50,10|10,0:1|0:1,0:0:0:0:
296,81,146613,5,10,0:2:0:0:
296,81,146779,2,0,P|256:56|180:64,1,100,14|8,0:1|0:1,0:0:0:0:
168,81,147279,1,8,0:2:0:0:
140,166,147613,2,0,B|108:173|79:186|79:186|25:173,1,100,10|10,0:1|0:2,0:0:0:0:
5,154,148113,2,0,P|-9:192|25:273,1,100,10|8,0:1|0:1,0:0:0:0:
32,282,148613,1,12,0:2:0:0:
101,339,148946,2,0,L|227:325,1,100,10|10,0:1|0:2,0:0:0:0:
230,294,149446,6,0,P|284:297|331:344,1,100,14|10,0:1|0:1,0:0:0:0:
357,348,149946,2,0,P|385:342|428:319,1,50,10|2,0:2|0:2,0:0:0:0:
446,349,150279,2,0,P|464:308|447:223,1,100,10|10,0:1|0:2,0:0:0:0:
486,216,150779,2,0,B|449:214|420:207|420:207|400:232|400:232|369:226|328:239,1,150,14|14,0:1|0:2,0:0:0:0:
267,272,151613,2,0,P|231:300|169:300,1,100,14|14,0:1|0:2,0:0:0:0:
136,319,152113,5,10,0:1:0:0:
136,319,152279,2,0,L|122:209,1,100,10|8,0:1|0:2,0:0:0:0:
39,187,152946,2,0,L|51:79,1,100,8|8,0:1|0:2,0:0:0:0:
39,43,153446,1,4,0:2:0:0:
39,43,153613,2,0,P|78:74|134:74,1,100,14|14,0:1|0:2,0:0:0:0:
208,114,154279,2,0,L|278:96,1,50,12|10,0:1|0:1,0:0:0:0:
285,66,154613,1,12,0:2:0:0:
372,84,154946,5,14,0:1:0:0:
22,284,176279,6,0,P|57:312|131:304,1,100,14|8,0:1|0:2,0:0:0:0:
189,269,176946,1,8,0:1:0:0:
267,312,177279,2,0,L|349:326,1,50,10|10,0:2|0:1,0:0:0:0:
351,348,177613,2,0,P|387:296|362:234,1,100,2|10,0:3|0:2,0:0:0:0:
363,221,178113,1,2,0:2:0:0:
334,135,178446,2,0,P|344:105|369:72,1,50,10|10,0:1|0:2,0:0:0:0:
386,58,178779,6,0,B|357:32|357:32|256:42,1,100,14|10,0:1|0:1,0:0:0:0:
256,59,179279,2,0,L|139:72,1,100,10|8,0:2|0:1,0:0:0:0:
75,31,179946,1,8,0:2:0:0:
75,31,180113,2,0,B|42:71|42:71|51:101|61:154,1,100,8|8,0:1|0:1,0:0:0:0:
67,160,180613,2,0,P|57:215|56:289,1,100,8|10,0:2|0:1,0:0:0:0:
18,341,181279,5,10,0:2:0:0:
18,341,181446,2,0,B|40:327|61:315|61:315|95:318|127:326,1,100,14|10,0:1|0:1,0:0:0:0:
150,303,181946,2,0,P|176:325|187:355,1,50,10|2,0:2|0:2,0:0:0:0:
226,352,182279,2,0,B|284:355|262:384|360:375,1,100,10|10,0:1|0:2,0:0:0:0:
366,372,182779,2,0,B|383:355|417:346|417:346|429:285|386:246,1,150,10|8,0:1|0:2,0:0:0:0:
316,219,183613,2,0,B|298:185|298:185|305:155|338:107,1,100,10|10,0:1|0:2,0:0:0:0:
332,84,184113,6,0,P|266:118|218:109,1,100,14|10,0:1|0:1,0:0:0:0:
204,91,184613,1,10,0:2:0:0:
118,64,184946,1,10,0:1:0:0:
43,114,185279,1,10,0:2:0:0:
43,114,185446,2,0,P|33:194|37:235,1,100,2|0,0:2|0:0,0:0:0:0:
77,225,185946,2,0,P|85:274|85:324,1,100,10|10,0:2|0:1,0:0:0:0:
112,360,186446,1,10,0:2:0:0:
156,350,186613,1,12,0:2:0:0:
237,312,186946,6,0,B|283:318|283:318|290:328|290:328|357:340,2,100,14|8|8,0:1|0:2|0:1,0:0:0:0:
193,233,187946,2,0,P|186:207|183:166,1,50,10|8,0:2|0:1,0:0:0:0:
175,139,188279,2,0,P|210:167|296:161,1,100,2|10,0:3|0:2,0:0:0:0:
289,136,188779,2,0,L|386:112,1,100,2|10,0:2|0:1,0:0:0:0:
416,78,189279,5,10,0:2:0:0:
416,78,189446,2,0,P|439:117|436:193,1,100,14|10,0:1|0:1,0:0:0:0:
432,214,189946,2,0,P|424:268|422:355,1,100,10|8,0:2|0:1,0:0:0:0:
346,361,190613,1,8,0:2:0:0:
346,361,190779,2,0,P|297:348|248:340,1,100,8|8,0:1|0:1,0:0:0:0:
205,353,191279,1,8,0:2:0:0:
122,317,191613,2,0,B|92:321|72:329|72:329|63:313|31:284,1,100,10|10,0:1|0:2,0:0:0:0:
1,268,192113,6,0,P|21:227|18:150,1,100,14|10,0:1|0:1,0:0:0:0:
55,140,192613,2,0,P|47:118|41:73,1,50,10|2,0:2|0:2,0:0:0:0:
18,53,192946,2,0,P|64:9|124:34,1,100,10|10,0:1|0:2,0:0:0:0:
136,32,193446,2,0,B|227:42|194:89|287:85,1,150,10|12,0:1|0:2,0:0:0:0:
326,157,194279,2,0,B|384:145|384:145|396:130|398:87,1,100,10|10,0:1|0:2,0:0:0:0:
434,82,194779,6,0,P|453:145|445:212,1,100,14|10,0:1|0:1,0:0:0:0:
481,213,195279,2,0,P|474:243|473:285,1,50,10|2,0:2|0:2,0:0:0:0:
486,305,195613,1,10,0:1:0:0:
417,362,195946,1,10,0:2:0:0:
417,362,196113,2,0,P|379:347|305:343,1,100,6|0,0:2|0:0,0:0:0:0:
283,367,196613,1,14,0:2:0:0:
198,337,196946,2,0,L|107:348,1,50,14|10,0:1|0:1,0:0:0:0:
107,361,197279,2,0,P|91:341|85:303,1,50,14|8,0:2|0:1,0:0:0:0:
98,274,197613,5,14,0:1:0:0:
55,194,197946,1,14,0:1:0:0:
104,119,198279,2,0,P|100:94|84:70,1,50,10|8,0:2|0:1,0:0:0:0:
53,43,198613,1,10,0:2:0:0:
53,43,198779,2,0,P|94:17|173:25,1,100,10|8,0:1|0:2,0:0:0:0:
179,43,199279,1,10,0:1:0:0:
262,76,199613,2,0,P|289:71|324:54,1,50,10|14,0:1|0:2,0:0:0:0:
342,32,199946,1,8,0:1:0:0:
431,40,200279,5,14,0:1:0:0:
465,123,200613,1,12,0:1:0:0:
405,190,200946,1,10,0:2:0:0:
405,190,201113,1,8,0:1:0:0:
320,160,201446,1,8,0:1:0:0:
320,160,201613,2,0,P|285:154|256:128,1,50,10|8,0:2|0:1,0:0:0:0:
242,113,201946,2,0,P|206:119|179:138,1,50,8|8,0:1|0:2,0:0:0:0:
165,160,202279,1,10,0:1:0:0:
165,160,202446,2,0,L|80:177,1,50,12|12,0:1|0:1,0:0:0:0:
36,211,202946,5,14,0:1:0:0:
28,255,203113,1,10,0:1:0:0:
22,299,203279,2,0,L|31:354,1,50,14|10,0:2|0:1,0:0:0:0:
115,376,203779,1,10,0:2:0:0:
160,376,203946,2,0,L|223:353,1,50,2|10,0:2|0:2,0:0:0:0:
296,368,204446,1,8,0:1:0:0:
296,368,204613,2,0,L|360:342,1,50,8|8,0:2|0:1,0:0:0:0:
381,326,204946,5,8,0:2:0:0:
389,281,205113,1,8,0:2:0:0:
363,244,205279,1,8,0:2:0:0:
354,199,205446,1,10,0:2:0:0:
119,48,207946,5,8,0:2:0:0:
119,48,208113,2,0,P|112:97|113:165,1,100,14|10,0:1|0:1,0:0:0:0:
125,190,208613,1,10,0:2:0:0:
57,248,208946,2,0,P|54:280|45:318,1,50,10|10,0:1|0:1,0:0:0:0:
31,338,209279,1,10,0:2:0:0:
31,338,209446,2,0,B|70:329|70:329|88:334|88:334|148:322,1,100,10|8,0:1|0:1,0:0:0:0:
172,314,209946,1,10,0:2:0:0:
258,339,210279,1,10,0:1:0:0:
258,339,210446,2,0,L|333:352,1,50,10|8,0:1|0:2,0:0:0:0:
348,365,210779,6,0,P|367:334|349:244,1,100,14|8,0:1|0:1,0:0:0:0:
383,230,211279,1,8,0:2:0:0:
331,155,211613,2,0,B|327:127|318:94|318:94|342:47,1,100,10|10,0:1|0:2,0:0:0:0:
379,50,212113,2,0,P|320:7|238:29,1,150,10|8,0:1|0:2,0:0:0:0:
183,82,212946,2,0,L|106:63,1,50,10|8,0:1|0:1,0:0:0:0:
94,48,213279,5,10,0:2:0:0:
94,48,213446,2,0,B|59:86|59:86|78:165,1,100,14|10,0:1|0:1,0:0:0:0:
102,164,213946,2,0,P|100:196|96:227,1,50,10|2,0:2|0:2,0:0:0:0:
91,258,214279,1,10,0:1:0:0:
24,318,214613,5,10,0:2:0:0:
24,318,214779,2,0,P|58:348|128:338,1,100,10|10,0:1|0:1,0:0:0:0:
152,363,215279,2,0,P|197:339|259:350,1,100,10|10,0:2|0:1,0:0:0:0:
286,359,215779,1,10,0:2:0:0:
327,375,215946,1,10,0:2:0:0:
327,375,216113,2,0,L|447:358,1,100,14|10,0:1|0:1,0:0:0:0:
469,371,216613,6,0,B|507:339|507:339|507:312|487:264,1,100,14|10,0:2|0:1,0:0:0:0:
437,222,217279,1,10,0:2:0:0:
437,222,217446,2,0,B|371:234|398:259|301:260,1,100,10|8,0:1|0:1,0:0:0:0:
299,250,217946,1,10,0:2:0:0:
240,181,218279,2,0,L|251:121,2,50,8|8|8,0:1|0:1|0:2,0:0:0:0:
202,205,218779,6,0,P|148:199|108:153,1,100,14|10,0:1|0:1,0:0:0:0:
73,153,219279,2,0,P|61:184|56:216,1,50,10|2,0:2|0:2,0:0:0:0:
18,223,219613,2,0,P|22:258|44:292,1,50,8|10,0:1|0:1,0:0:0:0:
13,313,219946,1,10,0:2:0:0:
13,313,220113,2,0,B|46:337|46:337|129:321,1,100,10|8,0:1|0:1,0:0:0:0:
142,348,220613,1,10,0:2:0:0:
223,310,220946,1,10,0:1:0:0:
266,322,221113,1,10,0:1:0:0:
308,335,221279,5,10,0:2:0:0:
308,335,221446,2,0,P|331:305|330:218,1,100,14|8,0:1|0:1,0:0:0:0:
314,206,221946,1,8,0:2:0:0:
258,135,222279,2,0,L|247:56,1,50,10|8,0:1|0:1,0:0:0:0:
275,47,222613,1,10,0:2:0:0:
275,47,222779,2,0,P|227:16|174:39,1,100,10|8,0:1|0:1,0:0:0:0:
154,55,223279,1,12,0:2:0:0:
128,141,223613,2,0,L|134:190,1,50,10|8,0:1|0:1,0:0:0:0:
109,227,223946,5,10,0:2:0:0:
109,227,224113,2,0,L|95:350,1,100,14|10,0:1|0:1,0:0:0:0:
124,362,224613,1,10,0:2:0:0:
213,365,224946,2,0,L|287:348,1,50,10|8,0:1|0:1,0:0:0:0:
300,376,225279,1,10,0:2:0:0:
300,376,225446,2,0,B|326:365|337:341|337:341|336:311|317:272,1,100,14|8,0:1|0:1,0:0:0:0:
294,263,225946,6,0,B|289:252|289:236|289:236|291:217|301:192,1,50,14|8,0:2|0:2,0:0:0:0:
322,179,226279,1,14,0:1:0:0:
371,103,226613,1,10,0:2:0:0:
360,59,226779,1,14,0:1:0:0:
350,15,226946,5,10,0:2:0:0:
267,50,227279,1,10,0:2:0:0:
189,4,227613,1,10,0:2:0:0:
123,65,227946,1,10,0:2:0:0:
37,38,228279,1,10,0:2:0:0:
3,121,228613,5,8,0:2:0:0:
3,121,228779,1,10,0:1:0:0:
3,121,228946,2,0,L|18:182,1,50,8|14,0:2|0:1,0:0:0:0:
49,198,229279,2,0,L|33:271,1,50,10|14,0:2|0:1,0:0:0:0:
18,287,229613,5,10,0:2:0:0:
78,353,229946,1,10,0:2:0:0:
167,360,230279,1,10,0:2:0:0:
247,318,230613,1,10,0:2:0:0:
263,229,230946,5,10,0:2:0:0:
251,185,231113,1,14,0:1:0:0:
240,141,231279,2,0,L|256:65,1,50,8|14,0:2|0:1,0:0:0:0:
265,49,231613,1,8,0:2:0:0:
349,18,231946,1,14,0:2:0:0:
379,51,232113,1,10,0:2:0:0:
412,81,232279,5,14,0:2:0:0:
389,168,232613,1,10,0:2:0:0:
441,240,232946,1,10,0:2:0:0:
402,321,233279,1,10,0:2:0:0:
312,330,233613,1,10,0:2:0:0:
242,273,233946,5,8,0:2:0:0:
198,261,234113,1,14,0:1:0:0:
154,250,234279,2,0,L|77:278,1,50,8|14,0:2|0:1,0:0:0:0:
86,307,234613,2,0,L|20:286,1,50,10|14,0:2|0:1,0:0:0:0:
12,254,234946,5,14,0:2:0:0:
4,164,235279,1,10,0:2:0:0:
69,101,235613,1,10,0:2:0:0:
157,85,235946,5,10,0:2:0:0:
157,85,236113,1,14,0:1:0:0:
157,85,236279,2,0,L|209:144,1,50,10|14,0:2|0:2,0:0:0:0:
235,116,236613,2,0,L|247:203,1,50,8|14,0:2|0:2,0:0:0:0:
276,194,236946,5,8,0:2:0:0:
268,238,237113,1,14,0:2:0:0:
299,270,237279,1,10,0:2:0:0:
307,314,237446,1,10,0:2:0:0:
288,355,237613,5,10,0:2:0:0:
288,355,237779,2,0,B|333:356|333:356|351:350|351:350|412:354,2,100,10|10|10,0:1|0:1|0:1,0:0:0:0:
