osu file format v14

[General]
AudioFilename: audio.mp3
AudioLeadIn: 0
PreviewTime: 66696
Countdown: 0
SampleSet: Soft
StackLeniency: 0.3
Mode: 0
LetterboxInBreaks: 0
WidescreenStoryboard: 1

[Editor]
Bookmarks: 10279,32279,42946,53613,66779,77946,90946,91029,91113,91196,91279,91363,91446,91529,91613,91696,91779,91863,91946,92029,92113,92196,92279,92363,92446,92529,92613,92696,92779,92863,92946,93029,93113,93196,93279,93363,93446,93529,93613,93696,93779,93863,93946,94029,94113,94196,94279,94363,94446,94529,94613,94696,94779,94863,94946,95029,95113,95196,95279,95363,95446,95529,95613,95696,95863,95946,96029,96113,96196,96279,106946,117613,130779,141946,152279,162946,173613,184113,194779,208113,221446
DistanceSpacing: 1.4
BeatDivisor: 4
GridSize: 32
TimelineZoom: 1.7

[Metadata]
Title:JOINT
TitleUnicode:JOINT
Artist:Mami Kawada
ArtistUnicode:川田まみ
Creator:Andrea
Version:Ex & AsuKo's Hard
Source:灼眼のシャナⅡ
Tags:osuplayer111 Sekai Sekaii Sekai-nyan Kowari Gaia Akitoshi Corinn -Laura- midorijeon - Ex - -_Ex_- AsuKow GrazuKo Erisu Lanzhu Mayuzumi Fuyuko Full Version Female Vocals Shakugan no Shana Second Opening OP 2nd Season Two Anime Japanese Pop J-Pop JPop Rock J-Rock JRock
BeatmapID:3612057
BeatmapSetID:1764643

[Difficulty]
HPDrainRate:5
CircleSize:4
OverallDifficulty:7
ApproachRate:8
SliderMultiplier:1.4
SliderTickRate:1

[Events]
//Background and Video events
0,0,"BG.jpg",0,0
//Break Periods
2,91146,95529
2,171146,172196
2,205646,207196
//Storyboard Layer 0 (Background)
//Storyboard Layer 1 (Fail)
//Storyboard Layer 2 (Pass)
//Storyboard Layer 3 (Foreground)
//Storyboard Layer 4 (Overlay)
//Storyboard Sound Samples

[TimingPoints]
280,333.333333333333,4,2,2,60,1,0
280,-125,4,2,2,60,0,0
10279,-111.111111111111,4,2,2,60,0,0
10946,-100,4,2,2,75,0,0
11279,-100,4,2,6,75,0,0
11363,-100,4,2,2,75,0,0
11613,-100,4,2,6,75,0,0
11697,-100,4,2,2,75,0,0
11946,-100,4,2,6,75,0,0
12030,-100,4,2,2,75,0,0
12279,-100,4,2,6,75,0,0
12363,-100,4,2,2,75,0,0
12529,-100,4,2,2,5,0,0
12613,-100,4,2,6,75,0,0
12697,-100,4,2,2,75,0,0
12946,-100,4,2,6,75,0,0
13030,-100,4,2,2,75,0,0
13113,-100,4,2,5,75,0,0
13613,-100,4,2,2,75,0,0
13863,-100,4,2,2,5,0,0
13946,-100,4,2,6,75,0,0
14030,-100,4,2,2,75,0,0
14279,-100,4,2,6,75,0,0
14363,-100,4,2,2,75,0,0
14613,-100,4,2,6,75,0,0
14697,-100,4,2,2,75,0,0
14946,-100,4,2,6,75,0,0
15030,-100,4,2,2,75,0,0
15113,-100,4,2,3,75,0,0
15613,-100,4,2,6,75,0,0
15697,-100,4,2,2,75,0,0
15946,-100,4,2,5,75,0,0
16279,-100,4,2,2,75,0,0
16529,-100,4,2,2,5,0,0
16613,-100,4,2,6,75,0,0
16697,-100,4,2,2,75,0,0
16946,-100,4,2,6,75,0,0
17030,-100,4,2,2,75,0,0
17279,-100,4,2,6,75,0,0
17363,-100,4,2,2,75,0,0
17613,-100,4,2,6,75,0,0
17697,-100,4,2,2,75,0,0
17863,-100,4,2,2,5,0,0
17946,-100,4,2,6,75,0,0
18030,-100,4,2,2,75,0,0
18279,-100,4,2,6,75,0,0
18363,-100,4,2,2,75,0,0
18613,-100,4,2,6,75,0,0
18697,-100,4,2,2,75,0,0
18946,-100,4,2,3,75,0,0
19196,-100,4,2,3,5,0,0
19279,-100,4,2,6,75,0,0
19363,-100,4,2,2,75,0,0
19613,-100,4,2,6,75,0,0
19697,-100,4,2,2,75,0,0
19946,-100,4,2,6,75,0,0
20030,-100,4,2,2,75,0,0
20279,-100,4,2,6,75,0,0
20363,-100,4,2,2,75,0,0
21613,-100,4,2,3,75,0,0
21946,-100,4,2,6,75,0,0
22030,-100,4,2,2,75,0,0
22279,-100,4,2,6,75,0,0
22363,-100,4,2,2,75,0,0
22613,-100,4,2,6,75,0,0
22697,-100,4,2,2,75,0,0
22946,-100,4,2,6,75,0,0
23030,-100,4,2,2,75,0,0
23279,-100,4,2,6,75,0,0
23363,-100,4,2,2,75,0,0
23613,-100,4,2,6,75,0,0
23697,-100,4,2,2,75,0,0
23946,-100,4,2,6,75,0,0
24030,-100,4,2,2,75,0,0
24279,-100,4,2,3,75,0,0
24613,-100,4,2,6,75,0,0
24697,-100,4,2,2,75,0,0
24946,-100,4,2,6,75,0,0
25030,-100,4,2,2,75,0,0
25279,-100,4,2,6,75,0,0
25363,-100,4,2,2,75,0,0
25613,-100,4,2,6,75,0,0
25697,-100,4,2,2,75,0,0
25946,-100,4,2,6,75,0,0
26030,-100,4,2,2,75,0,0
26279,-100,4,2,6,75,0,0
26363,-100,4,2,2,75,0,0
26613,-100,4,2,6,75,0,0
26697,-100,4,2,2,75,0,0
27279,-100,4,2,6,75,0,0
27363,-100,4,2,2,75,0,0
27613,-100,4,2,6,75,0,0
27697,-100,4,2,2,75,0,0
27946,-100,4,2,6,75,0,0
28030,-100,4,2,2,75,0,0
28279,-100,4,2,6,75,0,0
28363,-100,4,2,2,75,0,0
28613,-100,4,2,6,75,0,0
28697,-100,4,2,2,75,0,0
28946,-100,4,2,6,75,0,0
29030,-100,4,2,2,75,0,0
29279,-100,4,2,6,75,0,0
29363,-100,4,2,2,75,0,0
29613,-100,4,2,3,75,0,0
29946,-100,4,2,6,75,0,0
30030,-100,4,2,2,75,0,0
32279,-111.111111111111,4,2,3,70,0,0
32613,-111.111111111111,4,2,8,70,0,0
32697,-111.111111111111,4,2,2,70,0,0
32946,-111.111111111111,4,2,8,70,0,0
33030,-111.111111111111,4,2,2,70,0,0
33279,-111.111111111111,4,2,8,70,0,0
33363,-111.111111111111,4,2,2,70,0,0
33613,-111.111111111111,4,2,8,70,0,0
33697,-111.111111111111,4,2,2,70,0,0
33946,-111.111111111111,4,2,8,70,0,0
34030,-111.111111111111,4,2,2,70,0,0
34196,-111.111111111111,4,2,2,5,0,0
34279,-111.111111111111,4,2,8,70,0,0
34363,-111.111111111111,4,2,2,70,0,0
34613,-111.111111111111,4,2,8,70,0,0
34697,-111.111111111111,4,2,2,70,0,0
34779,-111.111111111111,4,2,12,70,0,0
34863,-111.111111111111,4,2,2,70,0,0
35279,-111.111111111111,4,2,8,70,0,0
35363,-111.111111111111,4,2,2,70,0,0
35613,-111.111111111111,4,2,8,70,0,0
35697,-111.111111111111,4,2,2,70,0,0
35946,-111.111111111111,4,2,8,70,0,0
36030,-111.111111111111,4,2,2,70,0,0
36279,-111.111111111111,4,2,8,70,0,0
36363,-111.111111111111,4,2,2,70,0,0
36613,-111.111111111111,4,2,8,70,0,0
36697,-111.111111111111,4,2,2,70,0,0
36946,-111.111111111111,4,2,8,70,0,0
37030,-111.111111111111,4,2,2,70,0,0
37113,-111.111111111111,4,2,12,70,0,0
37197,-111.111111111111,4,2,2,70,0,0
37446,-111.111111111111,4,2,8,70,0,0
37530,-111.111111111111,4,2,2,70,0,0
37946,-111.111111111111,4,2,8,70,0,0
38030,-111.111111111111,4,2,2,70,0,0
38279,-111.111111111111,4,2,8,70,0,0
38363,-111.111111111111,4,2,2,70,0,0
38613,-111.111111111111,4,2,8,70,0,0
38697,-111.111111111111,4,2,2,70,0,0
38946,-111.111111111111,4,2,8,70,0,0
39030,-111.111111111111,4,2,2,70,0,0
39279,-111.111111111111,4,2,8,70,0,0
39363,-111.111111111111,4,2,2,70,0,0
39613,-111.111111111111,4,2,8,70,0,0
39697,-111.111111111111,4,2,2,70,0,0
39946,-111.111111111111,4,2,8,70,0,0
40030,-111.111111111111,4,2,2,70,0,0
40113,-111.111111111111,4,2,12,70,0,0
40197,-111.111111111111,4,2,2,70,0,0
40279,-100,4,2,9,70,0,0
40363,-100,4,2,2,70,0,0
40613,-100,4,2,8,70,0,0
40697,-100,4,2,2,70,0,0
40946,-100,4,2,8,70,0,0
41030,-100,4,2,2,70,0,0
41279,-100,4,2,8,70,0,0
41363,-100,4,2,2,70,0,0
41613,-100,4,2,8,70,0,0
41697,-100,4,2,2,70,0,0
41946,-100,4,2,12,70,0,0
42030,-100,4,2,2,70,0,0
42279,-100,4,2,12,70,0,0
42363,-100,4,2,2,70,0,0
42613,-100,4,2,12,70,0,0
42697,-100,4,2,2,70,0,0
42779,-100,4,2,3,70,0,0
42946,-111.111111111111,4,2,2,70,0,0
43279,-111.111111111111,4,2,8,70,0,0
43363,-111.111111111111,4,2,2,70,0,0
43529,-111.111111111111,4,2,2,5,0,0
43613,-111.111111111111,4,2,8,70,0,0
43697,-111.111111111111,4,2,2,70,0,0
43946,-111.111111111111,4,2,8,70,0,0
44030,-111.111111111111,4,2,2,70,0,0
44279,-111.111111111111,4,2,8,70,0,0
44363,-111.111111111111,4,2,2,70,0,0
44613,-111.111111111111,4,2,8,70,0,0
44697,-111.111111111111,4,2,2,70,0,0
44946,-111.111111111111,4,2,8,70,0,0
45030,-111.111111111111,4,2,2,70,0,0
45279,-111.111111111111,4,2,8,70,0,0
45363,-111.111111111111,4,2,2,70,0,0
45446,-111.111111111111,4,2,12,70,0,0
45530,-111.111111111111,4,2,2,70,0,0
45946,-111.111111111111,4,2,8,70,0,0
46030,-111.111111111111,4,2,2,70,0,0
46279,-111.111111111111,4,2,8,70,0,0
46363,-111.111111111111,4,2,2,70,0,0
46613,-111.111111111111,4,2,8,70,0,0
46697,-111.111111111111,4,2,2,70,0,0
46946,-111.111111111111,4,2,8,70,0,0
47030,-111.111111111111,4,2,2,70,0,0
47279,-111.111111111111,4,2,8,70,0,0
47363,-111.111111111111,4,2,2,70,0,0
47613,-111.111111111111,4,2,8,70,0,0
47697,-111.111111111111,4,2,2,70,0,0
47946,-111.111111111111,4,2,8,70,0,0
48030,-111.111111111111,4,2,2,70,0,0
48113,-111.111111111111,4,2,12,70,0,0
48197,-111.111111111111,4,2,2,70,0,0
48613,-111.111111111111,4,2,8,70,0,0
48697,-111.111111111111,4,2,2,70,0,0
48863,-111.111111111111,4,2,2,5,0,0
48946,-111.111111111111,4,2,8,70,0,0
49030,-111.111111111111,4,2,2,70,0,0
49279,-111.111111111111,4,2,8,70,0,0
49363,-111.111111111111,4,2,2,70,0,0
49613,-111.111111111111,4,2,8,70,0,0
49697,-111.111111111111,4,2,2,70,0,0
49946,-111.111111111111,4,2,8,70,0,0
50030,-111.111111111111,4,2,2,70,0,0
50279,-111.111111111111,4,2,8,70,0,0
50363,-111.111111111111,4,2,2,70,0,0
50613,-111.111111111111,4,2,8,70,0,0
50697,-111.111111111111,4,2,2,70,0,0
50946,-100,4,2,8,70,0,0
51030,-100,4,2,2,70,0,0
51279,-100,4,2,8,70,0,0
51363,-100,4,2,2,70,0,0
51613,-100,4,2,8,70,0,0
51697,-100,4,2,2,70,0,0
51863,-100,4,2,2,5,0,0
51946,-100,4,2,8,70,0,0
52030,-100,4,2,2,70,0,0
52279,-100,4,2,6,70,0,0
52363,-100,4,2,2,70,0,0
52613,-100,4,2,6,70,0,0
52697,-100,4,2,2,70,0,0
52946,-100,4,2,6,70,0,0
53030,-100,4,2,2,70,0,0
53279,-100,4,2,6,70,0,0
53363,-100,4,2,2,70,0,0
53613,-111.111111111111,4,2,2,70,0,0
53863,-111.111111111111,4,2,2,5,0,0
53946,-111.111111111111,4,2,3,70,0,0
54196,-111.111111111111,4,2,2,5,0,0
54279,-111.111111111111,4,2,3,70,0,0
55529,-111.111111111111,4,2,2,5,0,0
55613,-111.111111111111,4,2,3,70,0,0
56613,-111.111111111111,4,2,2,70,0,0
56863,-111.111111111111,4,2,2,5,0,0
56946,-111.111111111111,4,2,2,70,0,0
59279,-111.111111111111,4,2,3,70,0,0
59529,-111.111111111111,4,2,2,5,0,0
59613,-111.111111111111,4,2,3,70,0,0
60863,-111.111111111111,4,2,2,5,0,0
60946,-111.111111111111,4,2,3,70,0,0
61613,-100,4,2,2,70,0,0
61863,-100,4,2,2,5,0,0
61946,-100,4,2,6,70,0,0
62030,-100,4,2,2,70,0,0
62279,-100,4,2,6,70,0,0
62363,-100,4,2,2,70,0,0
62613,-100,4,2,6,70,0,0
62697,-100,4,2,2,70,0,0
62863,-100,4,2,2,5,0,0
62946,-100,4,2,7,70,0,0
63030,-100,4,2,2,70,0,0
63279,-100,4,2,6,70,0,0
63363,-100,4,2,2,70,0,0
63613,-100,4,2,6,70,0,0
63697,-100,4,2,2,70,0,0
63946,-100,4,2,6,70,0,0
64030,-100,4,2,2,70,0,0
64279,-100,4,2,6,70,0,0
64363,-100,4,2,2,70,0,0
64613,-100,4,2,6,70,0,0
64697,-100,4,2,2,70,0,0
64946,-100,4,2,6,70,0,0
65030,-100,4,2,2,70,0,0
65446,-100,4,2,6,70,0,0
65530,-100,4,2,2,70,0,0
66779,-90.9090909090909,4,2,1,80,0,1
67029,-90.9090909090909,4,2,1,5,0,1
67113,-90.9090909090909,4,2,1,80,0,1
67279,-90.9090909090909,4,2,6,80,0,1
67363,-90.9090909090909,4,2,2,80,0,1
67613,-90.9090909090909,4,2,6,80,0,1
67697,-90.9090909090909,4,2,2,80,0,1
67946,-90.9090909090909,4,2,6,80,0,1
68030,-90.9090909090909,4,2,2,80,0,1
68279,-90.9090909090909,4,2,6,80,0,1
68363,-90.9090909090909,4,2,2,80,0,1
68613,-90.9090909090909,4,2,6,80,0,1
68697,-90.9090909090909,4,2,2,80,0,1
68946,-90.9090909090909,4,2,6,80,0,1
69030,-90.9090909090909,4,2,2,80,0,1
69279,-90.9090909090909,4,2,6,80,0,1
69363,-90.9090909090909,4,2,2,80,0,1
69446,-90.9090909090909,4,2,3,80,0,1
69946,-90.9090909090909,4,2,6,80,0,1
70030,-90.9090909090909,4,2,2,80,0,1
70279,-90.9090909090909,4,2,6,80,0,1
70363,-90.9090909090909,4,2,2,80,0,1
70613,-90.9090909090909,4,2,6,80,0,1
70697,-90.9090909090909,4,2,2,80,0,1
70946,-90.9090909090909,4,2,6,80,0,1
71030,-90.9090909090909,4,2,2,80,0,1
71279,-90.9090909090909,4,2,6,80,0,1
71363,-90.9090909090909,4,2,2,80,0,1
71613,-90.9090909090909,4,2,6,80,0,1
71697,-90.9090909090909,4,2,2,80,0,1
71946,-90.9090909090909,4,2,6,80,0,1
72030,-90.9090909090909,4,2,2,80,0,1
72613,-90.9090909090909,4,2,6,80,0,1
72697,-90.9090909090909,4,2,2,80,0,1
72946,-90.9090909090909,4,2,6,80,0,1
73030,-90.9090909090909,4,2,2,80,0,1
73279,-90.9090909090909,4,2,6,80,0,1
73363,-90.9090909090909,4,2,2,80,0,1
73613,-90.9090909090909,4,2,6,80,0,1
73697,-90.9090909090909,4,2,2,80,0,1
73946,-90.9090909090909,4,2,6,80,0,1
74030,-90.9090909090909,4,2,2,80,0,1
74279,-90.9090909090909,4,2,6,80,0,1
74363,-90.9090909090909,4,2,2,80,0,1
74613,-90.9090909090909,4,2,6,80,0,1
74697,-90.9090909090909,4,2,2,80,0,1
74779,-90.9090909090909,4,2,3,80,0,1
75029,-90.9090909090909,4,2,3,5,0,1
75113,-90.9090909090909,4,2,3,80,0,1
75279,-90.9090909090909,4,2,6,80,0,1
75363,-90.9090909090909,4,2,2,80,0,1
75613,-90.9090909090909,4,2,6,80,0,1
75697,-90.9090909090909,4,2,2,80,0,1
75946,-90.9090909090909,4,2,6,80,0,1
76030,-90.9090909090909,4,2,2,80,0,1
76279,-90.9090909090909,4,2,6,80,0,1
76363,-90.9090909090909,4,2,2,80,0,1
76613,-90.9090909090909,4,2,6,80,0,1
76697,-90.9090909090909,4,2,2,80,0,1
76779,-90.9090909090909,4,2,1,80,0,1
76946,-90.9090909090909,4,2,6,80,0,1
77030,-90.9090909090909,4,2,2,80,0,1
77279,-90.9090909090909,4,2,6,80,0,1
77363,-90.9090909090909,4,2,2,80,0,1
77696,-90.9090909090909,4,2,2,5,0,1
77779,-90.9090909090909,4,2,2,80,0,1
77946,-90.9090909090909,4,2,5,80,0,1
78279,-90.9090909090909,4,2,6,80,0,1
78363,-90.9090909090909,4,2,2,80,0,1
78613,-90.9090909090909,4,2,6,80,0,1
78697,-90.9090909090909,4,2,2,80,0,1
78946,-90.9090909090909,4,2,6,80,0,1
79030,-90.9090909090909,4,2,2,80,0,1
79279,-90.9090909090909,4,2,6,80,0,1
79363,-90.9090909090909,4,2,2,80,0,1
79613,-90.9090909090909,4,2,6,80,0,1
79697,-90.9090909090909,4,2,2,80,0,1
79946,-90.9090909090909,4,2,6,80,0,1
80030,-90.9090909090909,4,2,2,80,0,1
80613,-90.9090909090909,4,2,6,80,0,1
80697,-90.9090909090909,4,2,2,80,0,1
80946,-90.9090909090909,4,2,6,80,0,1
81030,-90.9090909090909,4,2,2,80,0,1
81279,-90.9090909090909,4,2,6,80,0,1
81363,-90.9090909090909,4,2,2,80,0,1
81613,-90.9090909090909,4,2,6,80,0,1
81696,-90.9090909090909,4,2,2,80,0,1
81946,-90.9090909090909,4,2,6,80,0,1
82030,-90.9090909090909,4,2,2,80,0,1
82279,-90.9090909090909,4,2,6,80,0,1
82363,-90.9090909090909,4,2,2,80,0,1
82613,-90.9090909090909,4,2,6,80,0,1
82697,-90.9090909090909,4,2,2,80,0,1
82779,-90.9090909090909,4,2,3,80,0,1
83279,-90.9090909090909,4,2,6,80,0,1
83363,-90.9090909090909,4,2,2,80,0,1
83613,-90.9090909090909,4,2,6,80,0,1
83697,-90.9090909090909,4,2,2,80,0,1
83946,-90.9090909090909,4,2,6,80,0,1
84030,-90.9090909090909,4,2,2,80,0,1
84279,-90.9090909090909,4,2,6,80,0,1
84363,-90.9090909090909,4,2,2,80,0,1
84613,-90.9090909090909,4,2,5,80,0,1
84946,-90.9090909090909,4,2,6,80,0,1
85030,-90.9090909090909,4,2,2,80,0,1
85279,-90.9090909090909,4,2,6,80,0,1
85363,-90.9090909090909,4,2,2,80,0,1
85696,-90.9090909090909,4,2,2,5,0,1
85779,-90.9090909090909,4,2,2,80,0,1
85946,-90.9090909090909,4,2,6,80,0,1
86030,-90.9090909090909,4,2,2,80,0,1
86279,-90.9090909090909,4,2,6,80,0,1
86363,-90.9090909090909,4,2,2,80,0,1
86613,-90.9090909090909,4,2,6,80,0,1
86697,-90.9090909090909,4,2,2,80,0,1
86779,-90.9090909090909,4,2,3,80,0,1
87613,-90.9090909090909,4,2,2,80,0,1
87946,-90.9090909090909,4,2,5,80,0,1
88279,-111.111111111111,4,2,4,80,0,0
88280,-111.111111111111,4,2,4,80,0,0
89946,-111.111111111111,4,2,6,80,0,0
90030,-111.111111111111,4,2,2,80,0,0
90279,-111.111111111111,4,2,6,80,0,0
90363,-111.111111111111,4,2,2,80,0,0
90863,-111.111111111111,4,2,2,5,0,0
90946,-111.111111111111,4,2,2,75,0,0
91279,-111.111111111111,4,2,3,75,0,0
93946,-111.111111111111,4,2,2,75,0,0
96279,-111.111111111111,4,2,3,70,0,0
96613,-111.111111111111,4,2,8,70,0,0
96697,-111.111111111111,4,2,2,70,0,0
96863,-111.111111111111,4,2,2,5,0,0
96946,-111.111111111111,4,2,8,70,0,0
97030,-111.111111111111,4,2,2,70,0,0
97279,-111.111111111111,4,2,8,70,0,0
97363,-111.111111111111,4,2,2,70,0,0
97613,-111.111111111111,4,2,8,70,0,0
97697,-111.111111111111,4,2,2,70,0,0
97946,-111.111111111111,4,2,8,70,0,0
98030,-111.111111111111,4,2,2,70,0,0
98279,-111.111111111111,4,2,8,70,0,0
98363,-111.111111111111,4,2,2,70,0,0
98613,-111.111111111111,4,2,8,70,0,0
98697,-111.111111111111,4,2,2,70,0,0
98779,-111.111111111111,4,2,12,70,0,0
98863,-111.111111111111,4,2,2,70,0,0
99279,-111.111111111111,4,2,8,70,0,0
99363,-111.111111111111,4,2,2,70,0,0
99613,-111.111111111111,4,2,8,70,0,0
99697,-111.111111111111,4,2,2,70,0,0
99946,-111.111111111111,4,2,8,70,0,0
100030,-111.111111111111,4,2,2,70,0,0
100279,-111.111111111111,4,2,8,70,0,0
100363,-111.111111111111,4,2,2,70,0,0
100613,-111.111111111111,4,2,8,70,0,0
100697,-111.111111111111,4,2,2,70,0,0
100946,-111.111111111111,4,2,8,70,0,0
101030,-111.111111111111,4,2,2,70,0,0
101113,-111.111111111111,4,2,12,70,0,0
101197,-111.111111111111,4,2,2,70,0,0
101613,-111.111111111111,4,2,8,70,0,0
101697,-111.111111111111,4,2,2,70,0,0
101946,-111.111111111111,4,2,8,70,0,0
102030,-111.111111111111,4,2,2,70,0,0
102196,-111.111111111111,4,2,2,5,0,0
102279,-111.111111111111,4,2,8,70,0,0
102363,-111.111111111111,4,2,2,70,0,0
102613,-111.111111111111,4,2,8,70,0,0
102697,-111.111111111111,4,2,2,70,0,0
102946,-111.111111111111,4,2,8,70,0,0
103030,-111.111111111111,4,2,2,70,0,0
103279,-111.111111111111,4,2,8,70,0,0
103363,-111.111111111111,4,2,2,70,0,0
103613,-111.111111111111,4,2,8,70,0,0
103697,-111.111111111111,4,2,2,70,0,0
103946,-111.111111111111,4,2,8,70,0,0
104030,-111.111111111111,4,2,2,70,0,0
104279,-100,4,2,8,70,0,0
104363,-100,4,2,2,70,0,0
104613,-100,4,2,8,70,0,0
104697,-100,4,2,2,70,0,0
104946,-100,4,2,8,70,0,0
105030,-100,4,2,2,70,0,0
105279,-100,4,2,8,70,0,0
105363,-100,4,2,2,70,0,0
105613,-100,4,2,8,70,0,0
105697,-100,4,2,2,70,0,0
105946,-100,4,2,8,70,0,0
106030,-100,4,2,2,70,0,0
106279,-100,4,2,8,70,0,0
106363,-100,4,2,2,70,0,0
106613,-100,4,2,8,70,0,0
106697,-100,4,2,2,70,0,0
106946,-111.111111111111,4,2,2,70,0,0
107279,-111.111111111111,4,2,8,70,0,0
107363,-111.111111111111,4,2,2,70,0,0
107613,-111.111111111111,4,2,8,70,0,0
107697,-111.111111111111,4,2,2,70,0,0
107946,-111.111111111111,4,2,8,70,0,0
108030,-111.111111111111,4,2,2,70,0,0
108279,-111.111111111111,4,2,8,70,0,0
108363,-111.111111111111,4,2,2,70,0,0
108613,-111.111111111111,4,2,8,70,0,0
108697,-111.111111111111,4,2,2,70,0,0
108946,-111.111111111111,4,2,8,70,0,0
109030,-111.111111111111,4,2,2,70,0,0
109279,-111.111111111111,4,2,8,70,0,0
109363,-111.111111111111,4,2,2,70,0,0
109613,-111.111111111111,4,2,8,70,0,0
109697,-111.111111111111,4,2,2,70,0,0
109946,-111.111111111111,4,2,8,70,0,0
110030,-111.111111111111,4,2,2,70,0,0
110279,-111.111111111111,4,2,8,70,0,0
110363,-111.111111111111,4,2,2,70,0,0
110613,-111.111111111111,4,2,8,70,0,0
110697,-111.111111111111,4,2,2,70,0,0
110946,-111.111111111111,4,2,8,70,0,0
111030,-111.111111111111,4,2,2,70,0,0
111279,-111.111111111111,4,2,8,70,0,0
111363,-111.111111111111,4,2,2,70,0,0
111613,-111.111111111111,4,2,8,70,0,0
111697,-111.111111111111,4,2,2,70,0,0
111779,-111.111111111111,4,2,12,70,0,0
111863,-111.111111111111,4,2,2,70,0,0
112279,-111.111111111111,4,2,8,70,0,0
112363,-111.111111111111,4,2,2,70,0,0
112613,-111.111111111111,4,2,8,70,0,0
112697,-111.111111111111,4,2,2,70,0,0
112946,-111.111111111111,4,2,8,70,0,0
113030,-111.111111111111,4,2,2,70,0,0
113279,-111.111111111111,4,2,8,70,0,0
113363,-111.111111111111,4,2,2,70,0,0
113613,-111.111111111111,4,2,8,70,0,0
113697,-111.111111111111,4,2,2,70,0,0
113946,-111.111111111111,4,2,8,70,0,0
114030,-111.111111111111,4,2,2,70,0,0
114279,-111.111111111111,4,2,8,70,0,0
114363,-111.111111111111,4,2,2,70,0,0
114613,-111.111111111111,4,2,8,70,0,0
114697,-111.111111111111,4,2,2,70,0,0
114946,-100,4,2,8,70,0,0
115030,-100,4,2,2,70,0,0
115279,-100,4,2,8,70,0,0
115363,-100,4,2,2,70,0,0
115613,-100,4,2,8,70,0,0
115697,-100,4,2,2,70,0,0
115946,-100,4,2,8,70,0,0
116030,-100,4,2,2,70,0,0
116279,-100,4,2,8,70,0,0
116363,-100,4,2,2,70,0,0
116613,-100,4,2,6,70,0,0
116697,-100,4,2,2,70,0,0
116946,-100,4,2,6,70,0,0
117030,-100,4,2,2,70,0,0
117279,-100,4,2,6,70,0,0
117363,-100,4,2,2,70,0,0
117613,-111.111111111111,4,2,2,70,0,0
117863,-111.111111111111,4,2,2,5,0,0
117946,-111.111111111111,4,2,3,70,0,0
118196,-111.111111111111,4,2,2,5,0,0
118279,-111.111111111111,4,2,3,70,0,0
120613,-111.111111111111,4,2,2,70,0,0
120863,-111.111111111111,4,2,2,5,0,0
120946,-111.111111111111,4,2,2,70,0,0
123279,-111.111111111111,4,2,3,70,0,0
123529,-111.111111111111,4,2,3,5,0,0
123613,-111.111111111111,4,2,3,70,0,0
124863,-111.111111111111,4,2,3,5,0,0
124946,-111.111111111111,4,2,3,70,0,0
125613,-100,4,2,2,70,0,0
125863,-100,4,2,2,5,0,0
125946,-100,4,2,6,70,0,0
126030,-100,4,2,2,70,0,0
126279,-100,4,2,6,70,0,0
126363,-100,4,2,2,70,0,0
126613,-100,4,2,6,70,0,0
126697,-100,4,2,2,70,0,0
126863,-100,4,2,2,5,0,0
126946,-100,4,2,7,70,0,0
127030,-100,4,2,2,70,0,0
127279,-100,4,2,6,70,0,0
127363,-100,4,2,2,70,0,0
127613,-100,4,2,6,70,0,0
127697,-100,4,2,2,70,0,0
127946,-100,4,2,6,70,0,0
128030,-100,4,2,2,70,0,0
128279,-100,4,2,6,70,0,0
128363,-100,4,2,2,70,0,0
128613,-100,4,2,6,70,0,0
128697,-100,4,2,2,70,0,0
128946,-100,4,2,6,70,0,0
129030,-100,4,2,2,70,0,0
129446,-100,4,2,6,70,0,0
129530,-100,4,2,2,70,0,0
130279,-100,4,2,1,70,0,0
130613,-100,4,2,3,70,0,0
130779,-90.9090909090909,4,2,1,80,0,1
131029,-90.9090909090909,4,2,1,5,0,1
131113,-90.9090909090909,4,2,1,80,0,1
131279,-90.9090909090909,4,2,6,80,0,1
131363,-90.9090909090909,4,2,2,80,0,1
131613,-90.9090909090909,4,2,6,80,0,1
131697,-90.9090909090909,4,2,2,80,0,1
131946,-90.9090909090909,4,2,6,80,0,1
132030,-90.9090909090909,4,2,2,80,0,1
132279,-90.9090909090909,4,2,6,80,0,1
132363,-90.9090909090909,4,2,2,80,0,1
132613,-90.9090909090909,4,2,6,80,0,1
132697,-90.9090909090909,4,2,2,80,0,1
132946,-90.9090909090909,4,2,6,80,0,1
133030,-90.9090909090909,4,2,2,80,0,1
133279,-90.9090909090909,4,2,6,80,0,1
133363,-90.9090909090909,4,2,2,80,0,1
133446,-90.9090909090909,4,2,3,80,0,1
133946,-90.9090909090909,4,2,6,80,0,1
134030,-90.9090909090909,4,2,2,80,0,1
134279,-90.9090909090909,4,2,6,80,0,1
134363,-90.9090909090909,4,2,2,80,0,1
134613,-90.9090909090909,4,2,6,80,0,1
134697,-90.9090909090909,4,2,2,80,0,1
134946,-90.9090909090909,4,2,6,80,0,1
135030,-90.9090909090909,4,2,2,80,0,1
135279,-90.9090909090909,4,2,6,80,0,1
135363,-90.9090909090909,4,2,2,80,0,1
135613,-90.9090909090909,4,2,6,80,0,1
135697,-90.9090909090909,4,2,2,80,0,1
135946,-90.9090909090909,4,2,6,80,0,1
136030,-90.9090909090909,4,2,2,80,0,1
136613,-90.9090909090909,4,2,6,80,0,1
136697,-90.9090909090909,4,2,2,80,0,1
136946,-90.9090909090909,4,2,6,80,0,1
137030,-90.9090909090909,4,2,2,80,0,1
137279,-90.9090909090909,4,2,6,80,0,1
137363,-90.9090909090909,4,2,2,80,0,1
137613,-90.9090909090909,4,2,6,80,0,1
137697,-90.9090909090909,4,2,2,80,0,1
137946,-90.9090909090909,4,2,6,80,0,1
138030,-90.9090909090909,4,2,2,80,0,1
138279,-90.9090909090909,4,2,6,80,0,1
138363,-90.9090909090909,4,2,2,80,0,1
138613,-90.9090909090909,4,2,6,80,0,1
138697,-90.9090909090909,4,2,2,80,0,1
138779,-90.9090909090909,4,2,3,80,0,1
139279,-90.9090909090909,4,2,6,80,0,1
139363,-90.9090909090909,4,2,2,80,0,1
139613,-90.9090909090909,4,2,6,80,0,1
139697,-90.9090909090909,4,2,2,80,0,1
139946,-90.9090909090909,4,2,6,80,0,1
140030,-90.9090909090909,4,2,2,80,0,1
140279,-90.9090909090909,4,2,6,80,0,1
140363,-90.9090909090909,4,2,2,80,0,1
140613,-90.9090909090909,4,2,6,80,0,1
140697,-90.9090909090909,4,2,2,80,0,1
140779,-90.9090909090909,4,2,1,80,0,1
140946,-90.9090909090909,4,2,6,80,0,1
141030,-90.9090909090909,4,2,2,80,0,1
141279,-90.9090909090909,4,2,6,80,0,1
141363,-90.9090909090909,4,2,2,80,0,1
141696,-90.9090909090909,4,2,2,5,0,1
141779,-90.9090909090909,4,2,2,80,0,1
141946,-90.9090909090909,4,2,5,80,0,1
142279,-90.9090909090909,4,2,6,80,0,1
142363,-90.9090909090909,4,2,2,80,0,1
142613,-90.9090909090909,4,2,6,80,0,1
142697,-90.9090909090909,4,2,2,80,0,1
142946,-90.9090909090909,4,2,6,80,0,1
143030,-90.9090909090909,4,2,2,80,0,1
143279,-90.9090909090909,4,2,6,80,0,1
143363,-90.9090909090909,4,2,2,80,0,1
143613,-90.9090909090909,4,2,6,80,0,1
143697,-90.9090909090909,4,2,2,80,0,1
143946,-90.9090909090909,4,2,6,80,0,1
144030,-90.9090909090909,4,2,2,80,0,1
144613,-90.9090909090909,4,2,6,80,0,1
144697,-90.9090909090909,4,2,2,80,0,1
144946,-90.9090909090909,4,2,6,80,0,1
145030,-90.9090909090909,4,2,2,80,0,1
145279,-90.9090909090909,4,2,6,80,0,1
145363,-90.9090909090909,4,2,2,80,0,1
145613,-90.9090909090909,4,2,6,80,0,1
145696,-90.9090909090909,4,2,2,80,0,1
145946,-90.9090909090909,4,2,6,80,0,1
146030,-90.9090909090909,4,2,2,80,0,1
146279,-90.9090909090909,4,2,6,80,0,1
146363,-90.9090909090909,4,2,2,80,0,1
146613,-90.9090909090909,4,2,6,80,0,1
146697,-90.9090909090909,4,2,2,80,0,1
146779,-90.9090909090909,4,2,3,80,0,1
147279,-90.9090909090909,4,2,6,80,0,1
147363,-90.9090909090909,4,2,2,80,0,1
147613,-90.9090909090909,4,2,6,80,0,1
147697,-90.9090909090909,4,2,2,80,0,1
147946,-90.9090909090909,4,2,6,80,0,1
148030,-90.9090909090909,4,2,2,80,0,1
148279,-90.9090909090909,4,2,6,80,0,1
148363,-90.9090909090909,4,2,2,80,0,1
148613,-90.9090909090909,4,2,5,80,0,1
148946,-90.9090909090909,4,2,6,80,0,1
149030,-90.9090909090909,4,2,2,80,0,1
149279,-90.9090909090909,4,2,6,80,0,1
149363,-90.9090909090909,4,2,2,80,0,1
149946,-90.9090909090909,4,2,6,80,0,1
150030,-90.9090909090909,4,2,2,80,0,1
150279,-90.9090909090909,4,2,6,80,0,1
150363,-90.9090909090909,4,2,2,80,0,1
150613,-90.9090909090909,4,2,6,80,0,1
150697,-90.9090909090909,4,2,2,80,0,1
150779,-90.9090909090909,4,2,3,80,0,1
151613,-90.9090909090909,4,2,2,80,0,1
151946,-90.9090909090909,4,2,5,80,0,1
152279,-111.111111111111,4,2,6,75,0,0
152363,-111.111111111111,4,2,2,75,0,0
152613,-111.111111111111,4,2,6,75,0,0
152697,-111.111111111111,4,2,2,75,0,0
152946,-111.111111111111,4,2,6,75,0,0
153030,-111.111111111111,4,2,2,75,0,0
153279,-111.111111111111,4,2,6,75,0,0
153363,-111.111111111111,4,2,2,75,0,0
153446,-111.111111111111,4,2,5,75,0,0
153613,-111.111111111111,4,2,3,75,0,0
153946,-111.111111111111,4,2,5,75,0,0
154279,-111.111111111111,4,2,2,75,0,0
154613,-111.111111111111,4,2,5,75,0,0
154946,-111.111111111111,4,2,5,70,0,0
155279,-111.111111111111,4,2,6,70,0,0
155363,-111.111111111111,4,2,2,70,0,0
155613,-111.111111111111,4,2,6,70,0,0
155697,-111.111111111111,4,2,2,70,0,0
155946,-111.111111111111,4,2,6,70,0,0
156030,-111.111111111111,4,2,2,70,0,0
156279,-111.111111111111,4,2,6,70,0,0
156363,-111.111111111111,4,2,2,70,0,0
156613,-111.111111111111,4,2,6,70,0,0
156697,-111.111111111111,4,2,2,70,0,0
156946,-111.111111111111,4,2,3,70,0,0
157613,-111.111111111111,4,2,2,70,0,0
157946,-111.111111111111,4,2,6,70,0,0
158030,-111.111111111111,4,2,2,70,0,0
158279,-111.111111111111,4,2,6,70,0,0
158363,-111.111111111111,4,2,2,70,0,0
159113,-111.111111111111,4,2,3,70,0,0
160279,-111.111111111111,4,2,2,70,0,0
160613,-111.111111111111,4,2,6,70,0,0
160697,-111.111111111111,4,2,2,70,0,0
160946,-111.111111111111,4,2,6,70,0,0
161030,-111.111111111111,4,2,2,70,0,0
161279,-111.111111111111,4,2,6,70,0,0
161363,-111.111111111111,4,2,2,70,0,0
161613,-111.111111111111,4,2,6,70,0,0
161697,-111.111111111111,4,2,2,70,0,0
161946,-111.111111111111,4,2,6,70,0,0
162030,-111.111111111111,4,2,2,70,0,0
162279,-111.111111111111,4,2,3,70,0,0
162946,-111.111111111111,4,2,2,70,0,0
163279,-111.111111111111,4,2,6,70,0,0
163363,-111.111111111111,4,2,2,70,0,0
163613,-111.111111111111,4,2,6,70,0,0
163697,-111.111111111111,4,2,2,70,0,0
164446,-111.111111111111,4,2,3,70,0,0
165613,-111.111111111111,4,2,2,70,0,0
165863,-111.111111111111,4,2,2,5,0,0
165946,-111.111111111111,4,2,6,70,0,0
166030,-111.111111111111,4,2,2,70,0,0
166279,-111.111111111111,4,2,6,70,0,0
166363,-111.111111111111,4,2,2,70,0,0
166613,-111.111111111111,4,2,6,70,0,0
166697,-111.111111111111,4,2,2,70,0,0
166946,-111.111111111111,4,2,6,70,0,0
167030,-111.111111111111,4,2,2,70,0,0
167279,-111.111111111111,4,2,6,70,0,0
167363,-111.111111111111,4,2,2,70,0,0
167613,-111.111111111111,4,2,4,70,0,0
167863,-111.111111111111,4,2,4,5,0,0
167946,-111.111111111111,4,2,4,70,0,0
168196,-111.111111111111,4,2,4,5,0,0
168279,-111.111111111111,4,2,2,70,0,0
168613,-111.111111111111,4,2,6,70,0,0
168697,-111.111111111111,4,2,2,70,0,0
168946,-111.111111111111,4,2,6,70,0,0
169030,-111.111111111111,4,2,2,70,0,0
169779,-111.111111111111,4,2,3,70,0,0
170946,-125,4,2,3,55,0,0
172946,-111.111111111111,4,2,4,70,0,0
173113,-111.111111111111,4,2,4,5,0,0
173196,-111.111111111111,4,2,4,5,0,0
173279,-111.111111111111,4,2,4,70,0,0
173613,-111.111111111111,4,2,2,70,0,0
173946,-111.111111111111,4,2,6,70,0,0
174030,-111.111111111111,4,2,2,70,0,0
174279,-111.111111111111,4,2,6,70,0,0
174363,-111.111111111111,4,2,2,70,0,0
175113,-111.111111111111,4,2,3,70,0,0
176279,-100,4,2,2,75,0,0
176529,-100,4,2,2,5,0,0
176613,-100,4,2,6,75,0,0
176696,-100,4,2,2,75,0,0
176946,-100,4,2,6,75,0,0
177029,-100,4,2,2,75,0,0
177279,-100,4,2,6,75,0,0
177362,-100,4,2,2,75,0,0
177613,-100,4,2,7,75,0,0
177696,-100,4,2,2,75,0,0
177946,-100,4,2,6,75,0,0
178029,-100,4,2,2,75,0,0
178279,-100,4,2,6,75,0,0
178362,-100,4,2,2,75,0,0
178613,-100,4,2,6,75,0,0
178696,-100,4,2,2,75,0,0
178779,-100,4,2,3,75,0,0
179279,-100,4,2,6,75,0,0
179362,-100,4,2,2,75,0,0
179613,-100,4,2,6,75,0,0
179696,-100,4,2,2,75,0,0
179946,-100,4,2,6,75,0,0
180029,-100,4,2,2,75,0,0
180279,-100,4,2,6,75,0,0
180362,-100,4,2,2,75,0,0
180613,-100,4,2,6,75,0,0
180696,-100,4,2,2,75,0,0
180946,-100,4,2,6,75,0,0
181029,-100,4,2,2,75,0,0
181279,-100,4,2,6,75,0,0
181362,-100,4,2,2,75,0,0
181946,-100,4,2,6,75,0,0
182029,-100,4,2,2,75,0,0
182279,-100,4,2,6,75,0,0
182362,-100,4,2,2,75,0,0
182613,-100,4,2,6,75,0,0
182696,-100,4,2,2,75,0,0
182946,-100,4,2,6,75,0,0
183029,-100,4,2,2,75,0,0
183279,-100,4,2,6,75,0,0
183362,-100,4,2,2,75,0,0
183613,-100,4,2,6,75,0,0
183696,-100,4,2,2,75,0,0
183946,-100,4,2,6,75,0,0
184029,-100,4,2,2,75,0,0
184113,-100,4,2,3,75,0,0
184613,-100,4,2,6,75,0,0
184696,-100,4,2,2,75,0,0
184946,-100,4,2,6,75,0,0
185029,-100,4,2,2,75,0,0
185279,-100,4,2,6,75,0,0
185362,-100,4,2,2,75,0,0
185613,-100,4,2,6,75,0,0
185696,-100,4,2,2,75,0,0
185946,-100,4,2,6,75,0,0
186029,-100,4,2,2,75,0,0
186113,-100,4,2,1,75,0,0
186279,-100,4,2,6,75,0,0
186362,-100,4,2,2,75,0,0
186613,-100,4,2,3,75,0,0
186946,-100,4,2,2,75,0,0
187196,-100,4,2,2,5,0,0
187279,-100,4,2,6,75,0,0
187362,-100,4,2,2,75,0,0
187613,-100,4,2,6,75,0,0
187696,-100,4,2,2,75,0,0
187946,-100,4,2,6,75,0,0
188029,-100,4,2,2,75,0,0
188279,-100,4,2,7,75,0,0
188362,-100,4,2,2,75,0,0
188613,-100,4,2,6,75,0,0
188696,-100,4,2,2,75,0,0
188946,-100,4,2,6,75,0,0
189029,-100,4,2,2,75,0,0
189279,-100,4,2,6,75,0,0
189362,-100,4,2,2,75,0,0
189946,-100,4,2,6,75,0,0
190029,-100,4,2,2,75,0,0
190279,-100,4,2,6,75,0,0
190362,-100,4,2,2,75,0,0
190613,-100,4,2,6,75,0,0
190696,-100,4,2,2,75,0,0
190946,-100,4,2,6,75,0,0
191029,-100,4,2,2,75,0,0
191279,-100,4,2,6,75,0,0
191362,-100,4,2,2,75,0,0
191613,-100,4,2,6,75,0,0
191696,-100,4,2,2,75,0,0
191946,-100,4,2,6,75,0,0
192029,-100,4,2,2,75,0,0
192113,-100,4,2,3,75,0,0
192613,-100,4,2,6,75,0,0
192696,-100,4,2,2,75,0,0
192946,-100,4,2,6,75,0,0
193029,-100,4,2,2,75,0,0
193279,-100,4,2,6,75,0,0
193362,-100,4,2,2,75,0,0
193613,-100,4,2,6,75,0,0
193696,-100,4,2,2,75,0,0
193946,-100,4,2,5,75,0,0
194279,-100,4,2,6,75,0,0
194362,-100,4,2,2,75,0,0
194613,-100,4,2,6,75,0,0
194696,-100,4,2,2,75,0,0
194779,-100,4,2,2,75,0,0
195279,-100,4,2,6,75,0,0
195362,-100,4,2,2,75,0,0
195613,-100,4,2,6,75,0,0
195696,-100,4,2,2,75,0,0
195946,-100,4,2,6,75,0,0
196029,-100,4,2,2,75,0,0
196113,-100,4,2,5,75,0,0
196613,-100,4,2,3,75,0,0
196946,-100,4,2,2,75,0,0
197279,-100,4,2,5,75,0,0
197613,-111.111111111111,4,2,2,70,0,0
197946,-111.111111111111,4,2,3,70,0,0
200279,-111.111111111111,4,2,2,70,0,0
200613,-111.111111111111,4,2,3,70,0,0
202446,-111.111111111111,4,2,5,70,0,0
202946,-111.111111111111,4,2,2,70,0,0
203279,-111.111111111111,4,2,3,70,0,0
205446,-125,4,2,3,50,0,0
207029,-125,4,2,3,5,0,0
207279,-125,4,2,3,50,0,0
207696,-125,4,2,3,5,0,0
207946,-125,4,2,3,65,0,0
208113,-90.9090909090909,4,2,3,80,0,1
208363,-90.9090909090909,4,2,3,5,0,1
208446,-90.9090909090909,4,2,3,80,0,1
208613,-90.9090909090909,4,2,6,80,0,1
208697,-90.9090909090909,4,2,2,80,0,1
208946,-90.9090909090909,4,2,6,80,0,1
209030,-90.9090909090909,4,2,2,80,0,1
209280,-90.9090909090909,4,2,6,80,0,1
209364,-90.9090909090909,4,2,2,80,0,1
209613,-90.9090909090909,4,2,6,80,0,1
209697,-90.9090909090909,4,2,2,80,0,1
209946,-90.9090909090909,4,2,6,80,0,1
210030,-90.9090909090909,4,2,2,80,0,1
210280,-90.9090909090909,4,2,6,80,0,1
210364,-90.9090909090909,4,2,2,80,0,1
210613,-90.9090909090909,4,2,6,80,0,1
210697,-90.9090909090909,4,2,2,80,0,1
211280,-90.9090909090909,4,2,6,80,0,1
211364,-90.9090909090909,4,2,2,80,0,1
211613,-90.9090909090909,4,2,6,80,0,1
211697,-90.9090909090909,4,2,2,80,0,1
211946,-90.9090909090909,4,2,6,80,0,1
212030,-90.9090909090909,4,2,2,80,0,1
212280,-90.9090909090909,4,2,6,80,0,1
212364,-90.9090909090909,4,2,2,80,0,1
212613,-90.9090909090909,4,2,6,80,0,1
212697,-90.9090909090909,4,2,2,80,0,1
212946,-90.9090909090909,4,2,6,80,0,1
213030,-90.9090909090909,4,2,2,80,0,1
213280,-90.9090909090909,4,2,6,80,0,1
213364,-90.9090909090909,4,2,2,80,0,1
213446,-90.9090909090909,4,2,3,80,0,1
213946,-90.9090909090909,4,2,6,80,0,1
214030,-90.9090909090909,4,2,2,80,0,1
214280,-90.9090909090909,4,2,6,80,0,1
214364,-90.9090909090909,4,2,2,80,0,1
214613,-90.9090909090909,4,2,6,80,0,1
214697,-90.9090909090909,4,2,2,80,0,1
214946,-90.9090909090909,4,2,6,80,0,1
215030,-90.9090909090909,4,2,2,80,0,1
215280,-90.9090909090909,4,2,6,80,0,1
215364,-90.9090909090909,4,2,2,80,0,1
215446,-90.9090909090909,4,2,1,80,0,1
215613,-90.9090909090909,4,2,6,80,0,1
215697,-90.9090909090909,4,2,2,80,0,1
215946,-90.9090909090909,4,2,6,80,0,1
216030,-90.9090909090909,4,2,2,80,0,1
216363,-90.9090909090909,4,2,2,5,0,1
216446,-90.9090909090909,4,2,2,80,0,1
216613,-90.9090909090909,4,2,5,80,0,1
216946,-90.9090909090909,4,2,6,80,0,1
217030,-90.9090909090909,4,2,2,80,0,1
217280,-90.9090909090909,4,2,6,80,0,1
217364,-90.9090909090909,4,2,2,80,0,1
217613,-90.9090909090909,4,2,6,80,0,1
217697,-90.9090909090909,4,2,2,80,0,1
217946,-90.9090909090909,4,2,6,80,0,1
218030,-90.9090909090909,4,2,2,80,0,1
218280,-90.9090909090909,4,2,6,80,0,1
218364,-90.9090909090909,4,2,2,80,0,1
218613,-90.9090909090909,4,2,6,80,0,1
218697,-90.9090909090909,4,2,2,80,0,1
219280,-90.9090909090909,4,2,6,80,0,1
219364,-90.9090909090909,4,2,2,80,0,1
219613,-90.9090909090909,4,2,6,80,0,1
219697,-90.9090909090909,4,2,2,80,0,1
219946,-90.9090909090909,4,2,6,80,0,1
220030,-90.9090909090909,4,2,2,80,0,1
220280,-90.9090909090909,4,2,6,80,0,1
220363,-90.9090909090909,4,2,2,80,0,1
220613,-90.9090909090909,4,2,6,80,0,1
220697,-90.9090909090909,4,2,2,80,0,1
220946,-90.9090909090909,4,2,6,80,0,1
221030,-90.9090909090909,4,2,2,80,0,1
221280,-90.9090909090909,4,2,6,80,0,1
221364,-90.9090909090909,4,2,2,80,0,1
221446,-90.9090909090909,4,2,3,80,0,1
221946,-90.9090909090909,4,2,6,80,0,1
222030,-90.9090909090909,4,2,2,80,0,1
222280,-90.9090909090909,4,2,6,80,0,1
222364,-90.9090909090909,4,2,2,80,0,1
222613,-90.9090909090909,4,2,6,80,0,1
222697,-90.9090909090909,4,2,2,80,0,1
222946,-90.9090909090909,4,2,6,80,0,1
223030,-90.9090909090909,4,2,2,80,0,1
223280,-90.9090909090909,4,2,5,80,0,1
223613,-90.9090909090909,4,2,6,80,0,1
223697,-90.9090909090909,4,2,2,80,0,1
223946,-90.9090909090909,4,2,6,80,0,1
224030,-90.9090909090909,4,2,2,80,0,1
224613,-90.9090909090909,4,2,6,80,0,1
224697,-90.9090909090909,4,2,2,80,0,1
224946,-90.9090909090909,4,2,6,80,0,1
225030,-90.9090909090909,4,2,2,80,0,1
225280,-90.9090909090909,4,2,6,80,0,1
225364,-90.9090909090909,4,2,2,80,0,1
225446,-90.9090909090909,4,2,3,80,0,1
226280,-90.9090909090909,4,2,2,80,0,1
226613,-90.9090909090909,4,2,5,80,0,1
226779,-90.9090909090909,4,2,2,75,0,1
226863,-90.9090909090909,4,2,2,75,0,0
226946,-90.9090909090909,4,2,6,75,0,1
227029,-90.9090909090909,4,2,2,75,0,1
227279,-90.9090909090909,4,2,6,75,0,1
227362,-90.9090909090909,4,2,2,75,0,1
227613,-90.9090909090909,4,2,6,75,0,1
227696,-90.9090909090909,4,2,2,75,0,1
227946,-90.9090909090909,4,2,6,75,0,1
228029,-90.9090909090909,4,2,2,75,0,1
228279,-90.9090909090909,4,2,6,75,0,1
228362,-90.9090909090909,4,2,2,75,0,1
228613,-90.9090909090909,4,2,6,75,0,1
228696,-90.9090909090909,4,2,2,75,0,1
228946,-90.9090909090909,4,2,6,75,0,1
229029,-90.9090909090909,4,2,2,75,0,1
229113,-90.9090909090909,4,2,5,75,0,1
229946,-90.9090909090909,4,2,6,75,0,1
230029,-90.9090909090909,4,2,2,75,0,1
230279,-90.9090909090909,4,2,6,75,0,1
230362,-90.9090909090909,4,2,2,75,0,1
230613,-90.9090909090909,4,2,6,75,0,1
230696,-90.9090909090909,4,2,2,75,0,1
230946,-90.9090909090909,4,2,6,75,0,1
231029,-90.9090909090909,4,2,2,75,0,1
231113,-90.9090909090909,4,2,3,75,0,1
231946,-90.9090909090909,4,2,5,75,0,1
232279,-90.9090909090909,4,2,6,75,0,1
232362,-90.9090909090909,4,2,2,75,0,1
232613,-90.9090909090909,4,2,6,75,0,1
232696,-90.9090909090909,4,2,2,75,0,1
232946,-90.9090909090909,4,2,6,75,0,1
233029,-90.9090909090909,4,2,2,75,0,1
233279,-90.9090909090909,4,2,6,75,0,1
233362,-90.9090909090909,4,2,2,75,0,1
233613,-90.9090909090909,4,2,6,75,0,1
233696,-90.9090909090909,4,2,2,75,0,1
233946,-90.9090909090909,4,2,6,75,0,1
234029,-90.9090909090909,4,2,2,75,0,1
234446,-90.9090909090909,4,2,5,75,0,1
234946,-90.9090909090909,4,2,3,75,0,1
235279,-90.9090909090909,4,2,6,75,0,1
235362,-90.9090909090909,4,2,2,75,0,1
235613,-90.9090909090909,4,2,6,75,0,1
235696,-90.9090909090909,4,2,2,75,0,1
235946,-90.9090909090909,4,2,6,75,0,1
236029,-90.9090909090909,4,2,2,75,0,1
236779,-90.9090909090909,4,2,5,75,0,1
237613,-125,4,2,2,60,0,0

[Colours]
Combo1 : 255,128,64
Combo2 : 255,64,64
SliderBorder : 200,200,200
SliderTrackOverride : 25,34,58

[HitObjects]
455,91,10279,5,14,0:0:0:0:
430,214,10613,1,10,0:0:0:0:
405,337,10946,6,0,P|324:322|254:310,1,140,14|10,0:0|0:2,0:0:0:0:
185,258,11446,1,8,0:1:0:0:
104,314,11613,2,0,P|109:351|113:386,1,70,10|10,0:2|0:1,0:0:0:0:
8,286,11946,2,0,P|13:249|17:214,1,70,10|10,0:2|0:1,0:0:0:0:
31,119,12279,5,8,0:2:0:0:
31,119,12446,1,8,0:1:0:0:
103,184,12613,2,0,P|140:179|175:175,1,70,10|10,0:2|0:1,0:0:0:0:
243,243,12946,2,0,P|280:248|315:252,1,70,10|12,0:2|0:1,0:0:0:0:
337,256,13196,1,8,0:1:0:0:
361,256,13279,2,0,P|398:251|433:247,1,70,10|12,0:2|0:1,0:0:0:0:
511,190,13613,5,10,0:2:0:0:
511,190,13779,1,8,0:1:0:0:
430,133,13946,2,0,P|439:80|445:47,1,70,10|8,0:2|0:1,0:0:0:0:
343,70,14279,2,0,P|334:17|328:-16,1,70,10|10,0:2|0:1,0:0:0:0:
252,110,14613,2,0,P|199:101|166:95,1,70,10|10,0:2|0:1,0:0:0:0:
111,30,14946,5,8,0:2:0:0:
41,98,15113,1,14,0:1:0:0:
41,98,15196,1,10,0:1:0:0:
41,98,15279,2,0,P|50:151|56:184,1,70,10|14,0:2|0:1,0:0:0:0:
13,257,15613,1,10,0:2:0:0:
13,257,15946,1,14,0:2:0:0:
111,257,16113,1,8,0:2:0:0:
208,257,16279,6,0,P|231:213|223:107,1,140,14|10,0:2|0:2,0:0:0:0:
189,35,16779,1,8,0:1:0:0:
284,13,16946,2,0,P|345:27|376:35,1,70,10|10,0:2|0:1,0:0:0:0:
422,96,17279,2,0,P|483:82|514:74,1,70,10|10,0:2|0:1,0:0:0:0:
372,184,17613,5,8,0:2:0:0:
372,184,17779,1,8,0:1:0:0:
443,250,17946,2,0,P|504:264|535:272,1,70,10|10,0:2|0:1,0:0:0:0:
400,336,18279,2,0,P|339:350|308:358,1,70,10|14,0:2|0:1,0:0:0:0:
246,301,18613,1,10,0:2:0:0:
246,301,18779,1,12,0:1:0:0:
289,213,18946,6,0,P|300:159|305:125,1,70,14|0,0:2|0:0,0:0:0:0:
225,83,19279,2,0,P|214:29|209:-5,1,70,10|8,0:2|0:1,0:0:0:0:
127,125,19613,1,10,0:2:0:0:
127,125,19779,1,10,0:1:0:0:
198,192,19946,2,0,P|252:203|286:208,1,70,10|14,0:2|0:1,0:0:0:0:
155,292,20279,5,8,0:2:0:0:
155,292,20446,1,10,0:2:0:0:
69,244,20613,2,0,P|26:232|-8:223,1,70,10|10,0:2|0:2,0:0:0:0:
133,170,20946,1,10,0:2:0:0:
133,170,21113,1,10,0:2:0:0:
50,99,21279,2,0,P|40:54|33:16,1,70,10|10,0:2|0:2,0:0:0:0:
159,1,21613,6,0,P|152:35|144:69,2,70,14|0|10,0:1|0:0|0:2,0:0:0:0:
236,100,22113,2,0,P|273:122|391:109,1,140,2|10,0:0|0:1,0:0:0:0:
438,53,22613,1,10,0:2:0:0:
500,128,22779,6,0,P|492:182|472:268,1,140,10|2,0:2|0:2,0:0:0:0:
448,360,23279,1,10,0:2:0:0:
379,301,23446,1,10,0:1:0:0:
379,301,23529,1,8,0:2:0:0:
379,301,23613,2,0,P|331:291|291:283,1,70,8|10,0:1|0:1,0:0:0:0:
234,349,23946,2,0,P|186:359|146:367,1,70,10|10,0:2|0:1,0:0:0:0:
93,282,24279,6,0,P|45:272|5:264,2,70,14|0|10,0:1|0:0|0:2,0:0:0:0:
190,268,24779,2,0,B|196:234|206:217|206:217|181:187|180:120,1,140,2|10,0:0|0:1,0:0:0:0:
119,59,25279,2,0,P|71:52|39:49,1,70,10|10,0:2|0:2,0:0:0:0:
225,16,25613,6,0,P|298:17|360:78,1,140,8|10,0:1|0:2,0:0:0:0:
397,153,26113,1,2,0:2:0:0:
397,153,26196,1,2,0:2:0:0:
397,153,26279,2,0,P|347:168|305:178,1,70,10|8,0:1|0:1,0:0:0:0:
231,158,26613,2,0,P|181:143|139:133,1,70,10|8,0:2|0:1,0:0:0:0:
76,93,26946,6,0,P|56:135|46:171,1,70,14|0,0:1|0:0,0:0:0:0:
2,243,27279,1,10,0:2:0:0:
89,287,27446,2,0,P|146:300|246:313,1,140,2|10,0:0|0:1,0:0:0:0:
315,265,27946,1,10,0:2:0:0:
315,265,28113,1,10,0:2:0:0:
381,336,28279,6,0,P|427:348|462:353,1,70,8|2,0:1|0:2,0:0:0:0:
506,271,28613,1,10,0:2:0:0:
443,195,28779,2,0,P|437:144|426:44,1,140,10|10,0:1|0:1,0:0:0:0:
348,5,29279,1,10,0:2:0:0:
348,5,29446,1,8,0:1:0:0:
274,70,29613,6,0,P|277:95|282:145,1,70,14|0,0:1|0:0,0:0:0:0:
327,226,29946,1,10,0:2:0:0:
255,291,30113,1,8,0:1:0:0:
255,291,30196,1,8,0:2:0:0:
255,291,30279,2,0,P|205:281|168:274,1,70,14|10,0:1|0:1,0:0:0:0:
119,350,30613,2,0,P|69:360|32:367,1,70,10|14,0:2|0:2,0:0:0:0:
4,276,30946,5,8,0:1:0:0:
4,276,31113,1,10,0:2:0:0:
69,203,31279,2,0,P|77:152|81:117,1,70,10|10,0:2|0:1,0:0:0:0:
11,62,31613,1,8,0:2:0:0:
94,11,31779,1,10,0:1:0:0:
94,11,31863,1,10,0:1:0:0:
94,11,31946,2,0,P|149:19|182:24,1,70,10|10,0:2|0:2,0:0:0:0:
235,87,32279,6,0,P|272:66|367:90,2,125.999996154785,14|8|10,0:1|0:2|0:1,0:0:0:0:
163,140,33113,1,10,0:1:0:0:
163,140,33279,1,10,0:2:0:0:
214,211,33446,6,0,P|269:198|355:179,1,125.999996154785,10|8,0:1|0:1,0:0:0:0:
421,208,33946,2,0,P|429:238|423:268,1,62.9999980773926,10|0,0:2|0:0,0:0:0:0:
381,346,34279,1,10,0:1:0:0:
304,301,34446,2,0,P|266:312|235:321,1,62.9999980773926,10|8,0:1|0:2,0:0:0:0:
178,378,34779,6,0,P|148:324|168:266,1,125.999996154785,10|10,0:1|0:1,0:0:0:0:
180,179,35279,2,0,B|112:174|123:213|61:214,1,125.999996154785,10|8,0:2|0:1,0:0:0:0:
0,151,35779,1,8,0:1:0:0:
25,66,35946,2,0,P|51:69|92:73,1,62.9999980773926,8|0,0:2|0:0,0:0:0:0:
173,94,36279,6,0,P|220:47|286:55,1,125.999996154785,8|8,0:1|0:2,0:0:0:0:
329,120,36779,1,8,0:1:0:0:
409,83,36946,2,0,P|399:56|387:23,1,62.9999980773926,8|8,0:1|0:1,0:0:0:0:
489,105,37279,1,8,0:2:0:0:
416,183,37446,6,0,P|353:173|291:164,1,125.999996154785,10|8,0:1|0:1,0:0:0:0:
208,195,37946,2,0,P|265:216|284:274,1,125.999996154785,10|10,0:2|0:1,0:0:0:0:
256,360,38446,1,10,0:1:0:0:
256,360,38613,1,10,0:2:0:0:
343,368,38779,6,0,P|393:362|483:353,1,125.999996154785,10|8,0:1|0:1,0:0:0:0:
509,276,39279,2,0,P|508:244|493:217,1,62.9999980773926,10|2,0:2|0:0,0:0:0:0:
416,172,39613,1,10,0:1:0:0:
349,228,39779,2,0,P|318:233|288:224,1,62.9999980773926,10|8,0:1|0:2,0:0:0:0:
233,153,40113,1,10,0:1:0:0:
253,57,40279,6,0,P|310:48|401:37,1,140,2|8,0:3|0:2,0:0:0:0:
487,15,40779,1,8,0:1:0:0:
510,110,40946,2,0,P|454:148|377:127,1,140,10|8,0:1|0:2,0:0:0:0:
324,58,41446,1,8,0:1:0:0:
238,106,41613,6,0,L|269:247,1,140,10|8,0:1|0:2,0:0:0:0:
346,302,42113,1,2,0:2:0:0:
271,365,42279,2,0,P|232:357|194:348,1,70,8|8,0:1|0:2,0:0:0:0:
107,376,42613,1,8,0:2:0:0:
107,376,42779,1,8,0:1:0:0:
46,311,42946,6,0,P|37:263|32:233,1,62.9999980773926,14|8,0:1|0:1,0:0:0:0:
34,160,43279,2,0,P|89:132|168:147,1,125.999996154785,8|10,0:2|0:1,0:0:0:0:
222,198,43779,1,8,0:1:0:0:
222,198,43946,1,10,0:2:0:0:
272,270,44113,6,0,P|331:288|416:303,1,125.999996154785,10|0,0:1|0:0,0:0:0:0:
471,258,44613,2,0,P|485:211|492:176,1,62.9999980773926,10|0,0:2|0:0,0:0:0:0:
508,111,44946,1,10,0:1:0:0:
420,96,45113,2,0,P|406:49|399:14,1,62.9999980773926,10|8,0:1|0:2,0:0:0:0:
320,4,45446,6,0,P|286:30|268:119,1,125.999996154785,10|10,0:1|0:1,0:0:0:0:
331,166,45946,2,0,P|287:160|188:145,1,125.999996154785,10|8,0:2|0:1,0:0:0:0:
136,202,46446,1,8,0:1:0:0:
82,131,46613,2,0,P|70:80|65:52,1,62.9999980773926,8|8,0:2|0:1,0:0:0:0:
13,193,46946,6,0,P|1:244|-4:272,1,62.9999980773926,8|0,0:1|0:0,0:0:0:0:
2,342,47279,1,8,0:2:0:0:
89,311,47446,1,10,0:1:0:0:
89,311,47529,1,8,0:2:0:0:
89,311,47613,2,0,P|135:302|170:299,1,62.9999980773926,8|10,0:1|0:1,0:0:0:0:
225,348,47946,1,8,0:2:0:0:
272,273,48113,6,0,P|280:224|294:130,1,125.999996154785,10|10,0:1|0:1,0:0:0:0:
228,86,48613,2,0,P|196:78|148:68,1,62.9999980773926,8|0,0:2|0:0,0:0:0:0:
298,19,48946,1,10,0:1:0:0:
365,75,49113,2,0,P|397:67|445:57,1,62.9999980773926,10|10,0:1|0:2,0:0:0:0:
488,123,49446,6,0,P|512:165|487:262,1,125.999996154785,10|0,0:1|0:0,0:0:0:0:
450,310,49946,2,0,P|413:301|379:294,1,62.9999980773926,10|0,0:2|0:0,0:0:0:0:
304,268,50279,1,10,0:1:0:0:
304,268,50446,1,10,0:1:0:0:
233,321,50613,2,0,P|242:358|249:392,1,62.9999980773926,8|2,0:2|0:2,0:0:0:0:
141,272,50946,6,0,P|104:263|70:256,1,70,10|8,0:1|0:1,0:0:0:0:
194,198,51279,1,8,0:2:0:0:
194,198,51613,2,0,P|231:189|265:182,2,70,10|0|8,0:1|0:0|0:2,0:0:0:0:
103,160,52113,1,2,0:2:0:0:
171,90,52279,5,10,0:1:0:0:
89,35,52446,2,0,P|42:26|7:21,1,70,10|8,0:1|0:2,0:0:0:0:
187,66,52779,2,0,P|234:57|269:52,1,70,10|8,0:1|0:2,0:0:0:0:
341,3,53113,2,0,P|387:31|401:134,1,140,10|8,0:1|0:1,0:0:0:0:
350,176,53613,6,0,P|311:163|276:150,1,62.9999980773926,14|0,0:1|0:0,0:0:0:0:
418,227,53946,2,0,P|457:214|492:201,1,62.9999980773926,12|0,0:1|0:0,0:0:0:0:
375,301,54279,2,0,P|319:327|262:305,1,125.999996154785,10|10,0:2|0:2,0:0:0:0:
191,253,54779,6,0,P|133:230|78:257,1,125.999996154785,10|0,0:1|0:0,0:0:0:0:
53,342,55279,2,0,P|79:350|128:362,1,62.9999980773926,10|0,0:1|0:0,0:0:0:0:
201,370,55613,1,10,0:1:0:0:
262,305,55779,2,0,P|280:259|233:177,1,125.999996154785,10|0,0:2|0:0,0:0:0:0:
180,140,56279,6,0,P|151:146|103:156,1,62.9999980773926,14|0,0:1|0:0,0:0:0:0:
246,81,56613,2,0,P|276:87|307:93,1,62.9999980773926,14|0,0:1|0:0,0:0:0:0:
189,15,56946,2,0,P|128:26|57:39,1,125.999996154785,10|10,0:2|0:2,0:0:0:0:
8,105,57446,6,0,P|39:142|23:229,1,125.999996154785,10|8,0:1|0:2,0:0:0:0:
0,302,57946,2,0,P|52:289|140:269,1,125.999996154785,10|8,0:1|0:1,0:0:0:0:
203,237,58446,2,0,P|233:246|263:255,1,62.9999980773926,10|10,0:2|0:2,0:0:0:0:
308,331,58779,1,10,0:2:0:0:
373,271,58946,6,0,P|409:282|441:292,1,62.9999980773926,14|0,0:1|0:0,0:0:0:0:
377,181,59279,2,0,P|341:192|309:202,1,62.9999980773926,14|0,0:1|0:0,0:0:0:0:
237,158,59613,2,0,B|200:119|200:119|235:40,1,125.999996154785,10|10,0:2|0:2,0:0:0:0:
317,43,60113,6,0,B|379:44|368:5|437:16,1,125.999996154785,10|2,0:1|0:0,0:0:0:0:
508,69,60613,2,0,P|501:99|495:130,1,62.9999980773926,10|0,0:1|0:0,0:0:0:0:
469,215,60946,1,10,0:1:0:0:
385,185,61113,2,0,P|353:197|317:212,1,62.9999980773926,14|8,0:2|0:1,0:0:0:0:
275,280,61446,1,10,0:1:0:0:
337,355,61613,6,0,P|384:373|432:354,1,105,14|0,0:1|0:0,0:0:0:0:
443,350,61946,2,0,P|435:302|429:273,1,70,8|0,0:2|0:0,0:0:0:0:
385,185,62279,1,10,0:1:0:0:
385,185,62446,1,8,0:1:0:0:
458,119,62613,2,0,P|411:79|360:82,1,105,8|0,0:2|0:0,0:0:0:0:
358,83,62946,6,0,P|319:77|276:70,1,70,2|8,0:3|0:1,0:0:0:0:
215,7,63279,2,0,P|178:16|137:26,1,70,8|0,0:2|0:0,0:0:0:0:
87,103,63613,1,10,0:1:0:0:
87,103,63779,1,8,0:1:0:0:
4,50,63946,2,0,P|-9:80|3:121,1,70,8|2,0:2|0:0,0:0:0:0:
59,192,64279,6,0,P|92:183|134:170,1,70,10|10,0:1|0:1,0:0:0:0:
218,208,64613,1,10,0:2:0:0:
166,290,64779,2,0,P|133:281|91:268,1,70,10|0,0:1|0:0,0:0:0:0:
5,301,65113,1,10,0:1:0:0:
5,301,65279,1,10,0:2:0:0:
75,369,65446,6,0,B|146:381|132:330|207:341,1,140,10|10,0:1|0:1,0:0:0:0:
299,377,65946,2,0,P|309:341|294:302,1,70,10|10,0:2|0:1,0:0:0:0:
243,230,66279,1,10,0:2:0:0:
243,230,66446,1,10,0:2:0:0:
298,148,66613,1,10,0:2:0:0:
218,91,66779,6,0,B|184:97|167:107|167:107|137:82|70:81,1,154.000004699707,14|10,0:1|0:1,0:0:0:0:
5,164,67279,2,0,P|17:215|23:249,1,77.0000023498536,10|2,0:2|0:2,0:0:0:0:
117,303,67613,1,10,0:1:0:0:
117,303,67779,2,0,P|129:252|135:218,1,77.0000023498536,10|10,0:1|0:2,0:0:0:0:
203,144,68113,6,0,P|260:166|300:268,1,154.000004699707,10|8,0:1|0:1,0:0:0:0:
245,337,68613,1,10,0:2:0:0:
245,337,68779,1,2,0:2:0:0:
349,363,68946,2,0,P|400:374|430:378,1,77.0000023498536,8|8,0:1|0:1,0:0:0:0:
505,306,69279,1,8,0:2:0:0:
414,246,69446,6,0,P|401:182|385:83,1,154.000004699707,14|10,0:1|0:1,0:0:0:0:
302,26,69946,2,0,P|295:57|287:107,1,77.0000023498536,10|2,0:2|0:2,0:0:0:0:
199,163,70279,1,10,0:1:0:0:
199,163,70446,2,0,P|215:189|245:230,1,77.0000023498536,10|10,0:1|0:2,0:0:0:0:
319,301,70779,6,0,P|287:329|176:331,1,154.000004699707,10|8,0:1|0:1,0:0:0:0:
77,298,71279,2,0,P|62:253|52:221,1,77.0000023498536,10|8,0:2|0:1,0:0:0:0:
40,200,71529,1,8,0:2:0:0:
20,180,71613,2,0,P|31:143|43:106,1,77.0000023498536,10|10,0:1|0:1,0:0:0:0:
24,0,71946,1,10,0:2:0:0:
121,47,72113,6,0,B|194:22|207:66|277:36,1,154.000004699707,14|8,0:1|0:1,0:0:0:0:
378,3,72613,2,0,P|391:60|396:102,1,77.0000023498536,8|2,0:2|0:0,0:0:0:0:
496,144,72946,2,0,P|502:106|511:68,1,77.0000023498536,10|8,0:1|0:1,0:0:0:0:
379,181,73279,1,10,0:2:0:0:
469,229,73446,6,0,B|465:255|472:283|472:283|439:312|436:383,1,154.000004699707,10|8,0:1|0:1,0:0:0:0:
333,295,73946,1,8,0:2:0:0:
246,359,74113,2,0,P|193:370|151:378,1,77.0000023498536,2|10,0:2|0:1,0:0:0:0:
86,314,74446,1,8,0:1:0:0:
86,314,74613,1,10,0:2:0:0:
155,233,74779,6,0,P|173:158|183:51,1,154.000004699707,14|10,0:1|0:1,0:0:0:0:
57,5,75279,2,0,P|61:43|70:80,1,77.0000023498536,10|2,0:2|0:2,0:0:0:0:
139,164,75613,1,10,0:1:0:0:
62,239,75779,2,0,P|6:233|-27:226,1,77.0000023498536,8|10,0:1|0:2,0:0:0:0:
100,333,76113,6,0,P|150:356|260:335,1,154.000004699707,10|10,0:1|0:1,0:0:0:0:
336,284,76613,2,0,P|344:235|350:196,1,77.0000023498536,10|8,0:2|0:3,0:0:0:0:
328,188,76863,1,4,0:3:0:0:
309,169,76946,2,0,P|301:120|295:81,1,77.0000023498536,10|10,0:1|0:2,0:0:0:0:
370,14,77279,1,10,0:2:0:0:
436,99,77446,6,0,P|486:107|519:113,1,77.0000023498536,14|0,0:1|0:0,0:0:0:0:
393,192,77779,1,10,0:1:0:0:
493,230,77946,2,0,P|524:297|490:364,1,154.000004699707,14|10,0:2|0:1,0:0:0:0:
410,292,78446,2,0,P|369:302|329:313,1,77.0000023498536,10|10,0:1|0:2,0:0:0:0:
239,361,78779,6,0,B|193:314|193:314|225:228,1,154.000004699707,10|8,0:1|0:1,0:0:0:0:
315,172,79279,1,10,0:2:0:0:
315,172,79445,1,2,0:2:0:0:
260,78,79612,2,0,P|210:87|179:93,1,77.0000023498536,8|8,0:1|0:1,0:0:0:0:
101,160,79945,1,8,0:2:0:0:
23,84,80113,6,0,P|-11:149|17:219,1,154.000004699707,14|10,0:1|0:1,0:0:0:0:
97,292,80613,1,10,0:2:0:0:
190,239,80779,2,0,P|184:200|178:162,1,77.0000023498536,2|10,0:2|0:1,0:0:0:0:
109,79,81113,1,10,0:1:0:0:
109,79,81279,1,10,0:2:0:0:
201,22,81446,6,0,B|278:-3|263:61|347:45,1,154.000004699707,10|8,0:1|0:1,0:0:0:0:
449,11,81946,2,0,P|456:61|427:99,1,77.0000023498536,10|8,0:2|0:1,0:0:0:0:
435,90,82196,1,8,0:2:0:0:
426,95,82279,1,10,0:1:0:0:
351,173,82446,1,10,0:1:0:0:
351,173,82613,1,10,0:2:0:0:
445,223,82779,6,0,P|386:207|322:277,1,154.000004699707,14|8,0:1|0:1,0:0:0:0:
300,371,83279,2,0,P|335:363|399:348,1,77.0000023498536,8|0,0:2|0:0,0:0:0:0:
486,368,83613,1,10,0:1:0:0:
486,368,83779,1,8,0:1:0:0:
511,263,83946,1,10,0:2:0:0:
447,175,84113,6,0,P|458:101|473:12,1,154.000004699707,10|8,0:1|0:1,0:0:0:0:
364,3,84613,2,0,P|335:29|298:32,1,77.0000023498536,12|2,0:2|0:2,0:0:0:0:
193,3,84946,1,10,0:1:0:0:
107,69,85113,2,0,P|118:101|136:163,1,77.0000023498536,8|10,0:1|0:2,0:0:0:0:
95,244,85446,6,0,P|139:183|213:181,1,154.000004699707,14|10,0:1|0:1,0:0:0:0:
321,182,85946,2,0,P|306:214|286:260,1,77.0000023498536,10|2,0:2|0:2,0:0:0:0:
340,347,86279,2,0,P|300:358|256:339,1,77.0000023498536,10|8,0:1|0:1,0:0:0:0:
182,279,86613,1,10,0:2:0:0:
110,358,86779,6,0,B|64:320|64:320|96:231,1,154.000004699707,14|8,0:1|0:1,0:0:0:0:
170,154,87279,2,0,P|183:118|172:82,1,77.0000023498536,14|8,0:2|0:1,0:0:0:0:
166,75,87529,1,8,0:2:0:0:
159,70,87613,1,14,0:1:0:0:
72,6,87779,1,8,0:1:0:0:
0,87,87946,2,0,P|6:121|15:170,1,77.0000023498536,14|10,0:2|0:1,0:0:0:0:
28,269,88279,5,14,0:2:0:0:
116,208,88446,1,14,0:2:0:0:
116,208,88779,5,10,0:2:0:0:
204,269,88946,1,10,0:2:0:0:
204,269,89279,5,10,0:2:0:0:
292,208,89446,1,10,0:2:0:0:
292,208,89779,5,10,0:2:0:0:
380,269,89946,1,10,0:2:0:0:
505,39,90446,5,8,0:1:0:0:
505,39,90529,1,8,0:1:0:0:
505,39,90613,1,14,0:2:0:0:
338,96,90946,5,14,0:1:0:0:
76,146,96279,6,0,P|86:99|100:15,2,125.999996154785,14|8|10,0:1|0:2|0:1,0:0:0:0:
36,227,97113,1,10,0:1:0:0:
36,227,97279,1,10,0:2:0:0:
108,277,97446,6,0,P|158:299|251:275,1,125.999996154785,10|8,0:1|0:1,0:0:0:0:
294,232,97946,2,0,P|306:184|312:155,1,62.9999980773926,10|0,0:2|0:0,0:0:0:0:
242,112,98279,1,10,0:1:0:0:
311,57,98446,2,0,P|359:45|388:39,1,62.9999980773926,10|8,0:1|0:2,0:0:0:0:
457,17,98779,6,0,P|497:40|506:138,1,125.999996154785,10|10,0:1|0:1,0:0:0:0:
483,195,99279,2,0,P|432:188|347:179,1,125.999996154785,10|8,0:2|0:1,0:0:0:0:
270,170,99779,1,8,0:1:0:0:
210,235,99946,2,0,P|217:284|221:314,1,62.9999980773926,8|0,0:2|0:0,0:0:0:0:
162,365,100279,6,0,P|104:358|30:351,1,125.999996154785,8|8,0:1|0:2,0:0:0:0:
119,252,100779,1,0,0:0:0:0:
50,195,100946,2,0,P|36:142|31:114,1,62.9999980773926,8|10,0:1|0:1,0:0:0:0:
68,52,101279,1,8,0:2:0:0:
148,89,101446,6,0,P|203:98|294:111,1,125.999996154785,10|8,0:1|0:1,0:0:0:0:
341,53,101946,2,0,P|363:93|350:184,1,125.999996154785,10|10,0:2|0:1,0:0:0:0:
303,242,102446,1,10,0:1:0:0:
303,242,102613,1,10,0:2:0:0:
219,215,102779,6,0,P|165:205|81:197,1,125.999996154785,10|8,0:1|0:1,0:0:0:0:
11,227,103279,2,0,P|-1:265|-11:299,1,62.9999980773926,10|0,0:2|0:0,0:0:0:0:
20,371,103613,1,10,0:1:0:0:
100,336,103779,2,0,P|146:330|184:327,1,62.9999980773926,10|8,0:1|0:2,0:0:0:0:
240,371,104113,1,10,0:1:0:0:
311,319,104279,6,0,B|339:317|361:308|361:308|393:327|461:336,1,140,10|8,0:1|0:2,0:0:0:0:
506,266,104779,1,8,0:1:0:0:
433,200,104946,2,0,L|419:49,1,140,10|8,0:1|0:2,0:0:0:0:
334,13,105446,1,8,0:1:0:0:
279,94,105613,6,0,L|265:245,1,140,10|8,0:1|0:2,0:0:0:0:
188,293,106113,1,2,0:2:0:0:
287,319,106279,2,0,P|336:333|374:341,1,70,8|8,0:1|0:2,0:0:0:0:
202,381,106613,1,8,0:2:0:0:
202,381,106779,1,8,0:1:0:0:
118,340,106946,6,0,P|104:280|137:228,1,125.999996154785,14|8,0:1|0:2,0:0:0:0:
186,154,107446,2,0,B|236:164|309:178,1,125.999996154785,2|10,0:2|0:1,0:0:0:0:
388,218,107946,1,10,0:2:0:0:
444,150,108113,6,0,P|444:96|384:50,1,125.999996154785,2|8,0:2|0:1,0:0:0:0:
311,14,108613,2,0,P|275:24|246:33,1,62.9999980773926,10|0,0:2|0:0,0:0:0:0:
188,94,108946,1,10,0:1:0:0:
123,34,109113,2,0,P|93:45|63:54,1,62.9999980773926,10|8,0:1|0:2,0:0:0:0:
0,113,109446,6,0,P|59:104|104:147,1,125.999996154785,2|10,0:2|0:1,0:0:0:0:
154,219,109946,2,0,P|197:261|257:251,1,125.999996154785,10|8,0:2|0:1,0:0:0:0:
309,180,110446,1,8,0:1:0:0:
390,214,110613,2,0,P|382:244|372:278,1,62.9999980773926,8|0,0:2|0:0,0:0:0:0:
302,326,110946,5,8,0:1:0:0:
302,326,111113,1,8,0:1:0:0:
372,377,111279,2,0,P|429:367|502:353,1,125.999996154785,8|8,0:2|0:1,0:0:0:0:
512,259,111779,1,8,0:1:0:0:
449,192,111946,2,0,L|375:219,1,62.9999980773926,8|8,0:2|0:1,0:0:0:0:
296,184,112279,6,0,P|269:130|295:75,1,125.999996154785,10|8,0:1|0:2,0:0:0:0:
354,9,112779,2,0,P|291:25|226:43,1,125.999996154785,2|10,0:2|0:1,0:0:0:0:
145,24,113279,1,10,0:2:0:0:
73,76,113446,6,0,B|52:124|52:124|94:184,1,125.999996154785,2|8,0:2|0:1,0:0:0:0:
164,237,113946,2,0,P|194:227|238:214,1,62.9999980773926,10|0,0:2|0:0,0:0:0:0:
155,330,114279,2,0,P|125:320|81:307,1,62.9999980773926,10|10,0:1|0:1,0:0:0:0:
23,362,114613,1,8,0:2:0:0:
23,362,114779,1,2,0:2:0:0:
0,266,114946,6,0,P|32:224|120:224,1,140,10|8,0:1|0:2,0:0:0:0:
207,250,115446,1,0,0:0:0:0:
290,198,115613,2,0,P|268:95|259:54,1,140,10|8,0:1|0:2,0:0:0:0:
179,5,116113,1,0,0:0:0:0:
179,5,116279,5,10,0:2:0:0:
96,58,116446,2,0,P|57:48|24:41,1,70,10|8,0:1|0:2,0:0:0:0:
125,143,116779,2,0,P|163:133|197:126,1,70,10|8,0:1|0:2,0:0:0:0:
279,79,117113,2,0,P|313:86|347:95,1,70,10|8,0:1|0:2,0:0:0:0:
450,123,117446,5,8,0:1:0:0:
450,123,117529,1,8,0:1:0:0:
450,123,117613,2,0,P|460:164|468:205,1,62.9999980773926,14|0,0:1|0:0,0:0:0:0:
402,276,117946,2,0,P|361:266|320:258,1,62.9999980773926,14|0,0:1|0:0,0:0:0:0:
438,362,118279,2,0,P|391:381|300:360,1,125.999996154785,10|10,0:2|0:2,0:0:0:0:
235,340,118779,6,0,P|188:321|97:342,1,125.999996154785,10|0,0:1|0:0,0:0:0:0:
32,362,119279,2,0,P|23:328|9:286,1,62.9999980773926,10|0,0:1|0:0,0:0:0:0:
67,230,119613,1,10,0:1:0:0:
14,159,119779,2,0,P|3:112|-1:27,1,125.999996154785,10|0,0:2|0:0,0:0:0:0:
82,5,120279,6,0,P|129:20|155:26,1,62.9999980773926,14|0,0:1|0:0,0:0:0:0:
187,137,120613,2,0,P|234:122|260:116,1,62.9999980773926,14|0,0:1|0:0,0:0:0:0:
359,48,120946,2,0,P|389:88|383:185,1,125.999996154785,10|10,0:2|0:2,0:0:0:0:
337,230,121446,6,0,P|285:223|202:214,1,125.999996154785,10|8,0:1|0:2,0:0:0:0:
134,256,121946,2,0,P|82:263|-1:272,1,125.999996154785,10|8,0:1|0:1,0:0:0:0:
75,359,122446,2,0,P|104:363|152:368,1,62.9999980773926,10|10,0:2|0:2,0:0:0:0:
207,313,122779,1,10,0:2:0:0:
291,371,122946,6,0,P|320:375|368:380,1,62.9999980773926,14|0,0:1|0:0,0:0:0:0:
450,296,123279,2,0,P|481:292|512:288,1,62.9999980773926,14|0,0:1|0:0,0:0:0:0:
368,234,123613,2,0,P|339:198|339:98,1,125.999996154785,10|10,0:2|0:2,0:0:0:0:
400,67,124113,6,0,P|334:75|249:86,1,125.999996154785,10|0,0:1|0:0,0:0:0:0:
197,40,124613,2,0,P|190:70|184:101,1,62.9999980773926,10|0,0:1|0:0,0:0:0:0:
136,175,124946,1,10,0:1:0:0:
212,218,125113,2,0,P|242:211|273:205,1,62.9999980773926,14|8,0:2|0:1,0:0:0:0:
239,324,125446,1,10,0:1:0:0:
146,292,125613,6,0,P|106:282|43:272,1,105,14|0,0:1|0:0,0:0:0:0:
18,254,125946,2,0,P|4:210|1:165,1,70,8|0,0:2|0:0,0:0:0:0:
16,92,126279,1,10,0:1:0:0:
16,92,126446,1,8,0:1:0:0:
84,21,126613,2,0,P|145:27|191:35,1,105,8|0,0:2|0:0,0:0:0:0:
221,38,126946,6,0,P|235:81|241:115,1,70,2|8,0:3|0:1,0:0:0:0:
332,136,127279,2,0,P|311:176|291:204,1,70,8|0,0:2|0:0,0:0:0:0:
242,280,127613,1,10,0:1:0:0:
242,280,127779,1,8,0:1:0:0:
163,220,127946,2,0,P|124:211|89:204,1,70,8|0,0:2|0:0,0:0:0:0:
67,299,128279,6,0,P|28:308|-7:315,1,70,10|8,0:1|0:1,0:0:0:0:
122,377,128613,1,10,0:2:0:0:
200,319,128779,2,0,P|239:328|274:335,1,70,10|0,0:1|0:0,0:0:0:0:
363,374,129113,1,10,0:1:0:0:
363,374,129279,1,10,0:2:0:0:
445,321,129446,6,0,P|474:260|454:181,1,140,10|10,0:1|0:2,0:0:0:0:
444,172,129863,1,10,0:2:0:0:
423,159,129946,2,0,P|366:149|341:146,1,70,10|10,0:2|0:2,0:0:0:0:
288,80,130279,1,6,0:3:0:0:
288,80,130446,1,6,0:3:0:0:
214,144,130613,1,6,0:3:0:0:
138,82,130779,6,0,B|97:126|97:126|145:214,1,154.000004699707,14|10,0:1|0:1,0:0:0:0:
193,300,131279,2,0,P|164:326|126:330,1,77.0000023498536,10|2,0:2|0:2,0:0:0:0:
28,288,131613,1,10,0:1:0:0:
28,288,131779,2,0,P|40:237|46:203,1,77.0000023498536,10|10,0:1|0:2,0:0:0:0:
0,113,132113,6,0,P|45:65|139:69,1,154.000004699707,10|8,0:1|0:1,0:0:0:0:
222,126,132613,1,10,0:2:0:0:
222,126,132779,1,2,0:2:0:0:
322,86,132946,2,0,P|311:35|307:5,1,77.0000023498536,8|8,0:1|0:1,0:0:0:0:
419,94,133279,1,8,0:2:0:0:
512,23,133446,6,0,P|499:99|484:174,1,154.000004699707,14|10,0:1|0:1,0:0:0:0:
510,279,133946,2,0,P|472:282|437:266,1,77.0000023498536,10|2,0:2|0:2,0:0:0:0:
347,216,134279,1,10,0:1:0:0:
347,216,134446,2,0,P|336:187|314:141,1,77.0000023498536,10|10,0:1|0:2,0:0:0:0:
311,306,134779,6,0,B|227:318|244:259|165:274,1,154.000004699707,10|8,0:1|0:1,0:0:0:0:
64,236,135279,2,0,P|75:272|87:309,1,77.0000023498536,10|8,0:2|0:1,0:0:0:0:
91,324,135529,1,8,0:2:0:0:
93,339,135613,2,0,P|129:372|169:368,1,77.0000023498536,10|10,0:1|0:1,0:0:0:0:
263,375,135946,1,10,0:2:0:0:
345,305,136113,6,0,P|322:206|307:142,1,154.000004699707,14|8,0:1|0:1,0:0:0:0:
244,69,136613,2,0,P|187:82|145:87,1,77.0000023498536,8|2,0:2|0:0,0:0:0:0:
311,10,136946,2,0,P|348:18|386:24,1,77.0000023498536,10|8,0:1|0:1,0:0:0:0:
487,62,137279,1,10,0:2:0:0:
415,142,137446,6,0,B|383:183|383:183|438:281,1,154.000004699707,10|8,0:1|0:1,0:0:0:0:
506,350,137946,1,8,0:2:0:0:
402,379,138113,2,0,P|364:371|326:363,1,77.0000023498536,2|10,0:2|0:1,0:0:0:0:
225,342,138446,1,8,0:1:0:0:
225,342,138613,1,10,0:2:0:0:
296,261,138779,6,0,P|325:228|286:120,1,154.000004699707,14|10,0:1|0:1,0:0:0:0:
222,55,139279,2,0,P|215:92|208:130,1,77.0000023498536,10|2,0:2|0:2,0:0:0:0:
125,200,139613,2,0,P|118:162|111:124,1,77.0000023498536,10|8,0:1|0:1,0:0:0:0:
205,215,139945,1,10,0:2:0:0:
160,320,140113,6,0,P|85:352|14:309,1,154.000004699707,10|10,0:1|0:1,0:0:0:0:
0,213,140613,2,0,P|8:164|14:125,1,77.0000023498536,10|8,0:2|0:3,0:0:0:0:
17,124,140863,1,4,0:3:0:0:
25,109,140946,2,0,P|17:60|11:21,1,77.0000023498536,10|10,0:1|0:2,0:0:0:0:
103,101,141279,1,10,0:2:0:0:
177,22,141446,6,0,P|227:30|260:36,1,77.0000023498536,14|0,0:1|0:0,0:0:0:0:
353,74,141779,1,10,0:1:0:0:
446,19,141946,2,0,P|471:62|451:175,1,154.000004699707,14|10,0:2|0:1,0:0:0:0:
393,247,142446,2,0,P|345:237|306:228,1,77.0000023498536,10|10,0:1|0:2,0:0:0:0:
210,244,142779,6,0,P|178:199|189:103,1,154.000004699707,10|8,0:1|0:1,0:0:0:0:
277,43,143279,1,10,0:2:0:0:
277,43,143446,1,2,0:2:0:0:
173,11,143613,2,0,P|112:0|73:-4,1,77.0000023498536,8|8,0:1|0:1,0:0:0:0:
14,68,143946,1,8,0:2:0:0:
67,161,144113,6,0,B|73:195|83:212|83:212|58:242|57:309,1,154.000004699707,14|10,0:1|0:1,0:0:0:0:
139,376,144613,1,10,0:2:0:0:
224,310,144779,2,0,P|276:300|320:293,1,77.0000023498536,2|8,0:2|0:1,0:0:0:0:
175,221,145113,1,10,0:1:0:0:
175,221,145279,1,10,0:2:0:0:
263,154,145446,6,0,P|277:98|291:-10,1,154.000004699707,10|8,0:1|0:1,0:0:0:0:
374,95,145946,2,0,P|422:104|467:109,1,77.0000023498536,10|8,0:2|0:1,0:0:0:0:
469,106,146196,1,8,0:2:0:0:
488,104,146279,1,10,0:1:0:0:
402,208,146446,1,10,0:1:0:0:
402,208,146613,1,10,0:2:0:0:
487,273,146779,6,0,P|478:335|389:370,1,154.000004699707,14|8,0:1|0:1,0:0:0:0:
301,332,147279,2,0,P|246:324|210:320,1,77.0000023498536,8|2,0:2|0:0,0:0:0:0:
133,377,147613,1,10,0:1:0:0:
133,377,147779,1,8,0:1:0:0:
36,328,147946,1,10,0:2:0:0:
107,247,148113,6,0,P|117:188|130:88,1,154.000004699707,10|8,0:1|0:1,0:0:0:0:
9,33,148613,2,0,P|13:71|20:109,1,77.0000023498536,12|2,0:2|0:2,0:0:0:0:
68,205,148946,1,10,0:1:0:0:
168,164,149113,2,0,P|219:154|261:147,1,77.0000023498536,8|10,0:1|0:2,0:0:0:0:
327,82,149446,6,0,P|356:121|355:230,1,154.000004699707,14|10,0:1|0:1,0:0:0:0:
262,272,149946,2,0,P|216:263|174:255,1,77.0000023498536,10|2,0:2|0:2,0:0:0:0:
300,367,150279,2,0,P|346:358|388:350,1,77.0000023498536,10|8,0:1|0:1,0:0:0:0:
483,341,150613,1,10,0:2:0:0:
446,240,150779,6,0,P|457:176|476:72,1,154.000004699707,14|8,0:1|0:1,0:0:0:0:
392,16,151279,2,0,P|344:25|299:30,1,77.0000023498536,14|8,0:2|0:2,0:0:0:0:
297,27,151529,1,8,0:2:0:0:
278,25,151612,1,14,0:1:0:0:
171,6,151779,1,8,0:1:0:0:
106,92,151946,2,0,P|116:140|124:182,1,77.0000023498536,14|10,0:2|0:1,0:0:0:0:
120,182,152196,1,10,0:1:0:0:
115,192,152279,1,10,0:1:0:0:
256,192,152363,12,12,154613,0:2:0:0:
512,342,154946,6,0,P|482:363|400:324,1,125.999996154785,14|0,0:1|0:0,0:0:0:0:
328,290,155446,1,2,0:2:0:0:
363,209,155613,2,0,P|393:216|424:223,1,62.9999980773926,10|0,0:2|0:0,0:0:0:0:
502,183,155946,1,10,0:1:0:0:
463,103,156113,6,0,P|432:110|401:117,1,62.9999980773926,10|0,0:1|0:0,0:0:0:0:
316,139,156446,1,10,0:1:0:0:
243,89,156613,2,0,P|252:55|263:15,1,62.9999980773926,10|0,0:1|0:0,0:0:0:0:
164,115,156946,2,0,P|171:142|180:175,1,62.9999980773926,14|8,0:2|0:1,0:0:0:0:
240,238,157279,2,0,P|215:258|184:265,1,62.9999980773926,14|8,0:2|0:1,0:0:0:0:
107,222,157613,5,14,0:1:0:0:
30,264,157779,2,0,P|36:291|45:332,1,62.9999980773926,2|0,0:2|0:0,0:0:0:0:
113,381,158113,1,2,0:2:0:0:
191,341,158279,2,0,P|228:335|265:350,1,62.9999980773926,10|8,0:2|0:1,0:0:0:0:
334,374,158613,1,10,0:3:0:0:
376,297,158779,6,0,P|366:255|358:217,1,62.9999980773926,10|8,0:3|0:2,0:0:0:0:
295,176,159113,1,10,0:3:0:0:
351,109,159279,2,0,P|382:114|419:121,1,62.9999980773926,10|8,0:3|0:2,0:0:0:0:
491,161,159613,1,10,0:1:0:0:
491,161,159779,1,10,0:2:0:0:
441,233,159946,2,0,P|447:263|455:294,1,62.9999980773926,10|10,0:2|0:2,0:0:0:0:
498,371,160279,6,0,P|459:329|387:334,1,125.999996154785,14|0,0:1|0:0,0:0:0:0:
312,365,160779,1,10,0:1:0:0:
246,305,160946,2,0,P|212:316|182:326,1,62.9999980773926,10|8,0:2|0:2,0:0:0:0:
111,372,161279,1,10,0:1:0:0:
38,321,161446,6,0,P|28:291|37:261,1,62.9999980773926,10|0,0:1|0:0,0:0:0:0:
105,205,161779,1,10,0:1:0:0:
60,128,161946,2,0,P|23:137|-12:145,1,62.9999980773926,10|0,0:1|0:0,0:0:0:0:
117,64,162279,2,0,P|108:27|100:-8,1,62.9999980773926,14|8,0:2|0:1,0:0:0:0:
208,88,162613,2,0,P|200:118|193:149,1,62.9999980773926,14|8,0:2|0:1,0:0:0:0:
171,234,162946,5,14,0:1:0:0:
228,301,163113,2,0,P|258:309|289:316,1,62.9999980773926,2|0,0:2|0:0,0:0:0:0:
365,272,163446,1,2,0:2:0:0:
436,323,163613,2,0,P|444:353|451:384,1,62.9999980773926,10|8,0:2|0:1,0:0:0:0:
508,254,163946,1,10,0:3:0:0:
441,195,164113,6,0,P|447:164|456:133,1,62.9999980773926,10|8,0:3|0:2,0:0:0:0:
428,49,164446,1,10,0:3:0:0:
341,66,164613,2,0,P|334:35|325:4,1,62.9999980773926,10|8,0:3|0:2,0:0:0:0:
254,124,164946,2,0,P|223:117|192:108,1,62.9999980773926,10|10,0:2|0:2,0:0:0:0:
290,212,165279,2,0,P|320:205|351:196,1,62.9999980773926,10|10,0:2|0:2,0:0:0:0:
246,315,165613,5,14,0:1:0:0:
246,315,165946,2,0,P|256:356|262:387,2,62.9999980773926,10|2|10,0:1|0:2|0:2,0:0:0:0:
191,245,166446,1,0,0:0:0:0:
111,283,166613,2,0,P|101:324|95:355,2,62.9999980773926,10|10|2,0:1|0:1|0:3,0:0:0:0:
166,213,167113,5,10,0:1:0:0:
246,251,167279,2,0,P|256:292|262:323,1,62.9999980773926,10|0,0:1|0:0,0:0:0:0:
330,188,167613,1,14,0:2:0:0:
190,80,167946,1,14,0:2:0:0:
347,1,168279,5,14,0:1:0:0:
347,1,168446,1,2,0:2:0:0:
417,54,168613,2,0,P|453:61|492:65,2,62.9999980773926,10|2|10,0:1|0:2|0:2,0:0:0:0:
337,92,169113,1,8,0:1:0:0:
407,144,169279,2,0,P|419:185|426:215,2,62.9999980773926,10|10|8,0:3|0:3|0:2,0:0:0:0:
325,215,169779,5,10,0:3:0:0:
396,286,169946,2,0,P|441:300|476:308,1,62.9999980773926,10|8,0:3|0:2,0:0:0:0:
344,367,170279,1,10,0:1:0:0:
251,320,170446,1,10,0:2:0:0:
158,273,170613,1,10,0:2:0:0:
65,226,170779,1,10,0:2:0:0:
11,298,170946,5,2,0:2:0:0:
11,298,172946,6,0,P|20:340|27:373,1,62.9999980773926,14|0,0:2|0:0,0:0:0:0:
93,242,173279,1,14,0:2:0:0:
93,242,173446,1,8,0:1:0:0:
167,288,173613,6,0,P|221:260|231:200,1,125.999996154785,14|8,0:1|0:1,0:0:0:0:
179,129,174113,1,2,0:2:0:0:
95,159,174279,2,0,P|64:152|33:144,1,62.9999980773926,10|8,0:2|0:1,0:0:0:0:
2,62,174613,1,10,0:3:0:0:
73,10,174779,6,0,P|103:17|134:24,1,62.9999980773926,10|8,0:3|0:1,0:0:0:0:
218,53,175113,1,10,0:3:0:0:
299,20,175279,2,0,P|330:8|372:20,1,62.9999980773926,10|8,0:3|0:1,0:0:0:0:
435,56,175613,1,10,0:2:0:0:
367,112,175779,1,10,0:2:0:0:
435,167,175946,1,10,0:2:0:0:
372,229,176113,1,10,0:2:0:0:
454,281,176279,6,0,P|380:264|332:300,1,140,14|8,0:1|0:2,0:0:0:0:
258,364,176779,1,0,0:0:0:0:
182,300,176946,2,0,P|190:263|200:222,1,70,8|8,0:1|0:1,0:0:0:0:
276,172,177279,1,10,0:2:0:0:
276,172,177446,1,10,0:1:0:0:
233,83,177613,6,0,P|192:52|102:77,1,140,2|10,0:3|0:2,0:0:0:0:
14,45,178113,2,0,P|21:73|33:119,1,70,2|8,0:2|0:1,0:0:0:0:
94,188,178446,1,10,0:1:0:0:
94,188,178613,1,10,0:2:0:0:
10,238,178779,6,0,P|5:284|75:349,1,140,14|10,0:1|0:1,0:0:0:0:
161,368,179279,2,0,B|229:372|213:323|294:339,1,140,10|8,0:2|0:1,0:0:0:0:
385,372,179779,1,8,0:1:0:0:
476,337,179946,6,0,P|496:289|440:213,1,140,8|2,0:2|0:3,0:0:0:0:
363,179,180446,1,8,0:1:0:0:
440,118,180613,2,0,P|459:86|460:31,1,70,8|8,0:2|0:1,0:0:0:0:
460,45,180863,1,8,0:2:0:0:
453,38,180946,2,0,P|415:49|373:60,1,70,10|8,0:1|0:1,0:0:0:0:
301,107,181279,1,10,0:2:0:0:
224,45,181446,6,0,P|164:125|195:175,1,140,14|10,0:1|0:1,0:0:0:0:
235,228,181946,2,0,P|268:216|312:199,1,70,10|2,0:2|0:2,0:0:0:0:
380,261,182279,1,10,0:1:0:0:
332,347,182446,2,0,P|298:335|266:322,1,70,8|10,0:1|0:2,0:0:0:0:
171,295,182779,6,0,P|122:304|54:386,1,140,10|8,0:1|0:1,0:0:0:0:
0,288,183279,2,0,P|9:253|20:212,1,70,8|2,0:2|0:2,0:0:0:0:
107,168,183613,2,0,P|111:133|96:102,1,70,10|8,0:1|0:1,0:0:0:0:
22,38,183946,1,10,0:2:0:0:
115,7,184113,6,0,P|183:10|283:30,1,140,14|10,0:1|0:1,0:0:0:0:
351,12,184613,2,0,P|361:56|368:98,1,70,10|2,0:2|0:2,0:0:0:0:
295,149,184946,1,10,0:1:0:0:
380,197,185113,2,0,P|431:209|472:217,1,70,8|10,0:1|0:2,0:0:0:0:
336,298,185446,6,0,P|271:323|187:325,1,140,2|0,0:2|0:0,0:0:0:0:
126,263,185946,2,0,P|135:218|144:179,1,70,10|4,0:2|0:3,0:0:0:0:
215,131,186279,1,10,0:1:0:0:
131,78,186446,2,0,P|122:33|113:-6,1,70,10|12,0:2|0:2,0:0:0:0:
15,134,186779,1,8,0:2:0:0:
104,173,186946,6,0,P|167:195|261:172,1,140,14|8,0:1|0:2,0:0:0:0:
314,122,187446,1,0,0:0:0:0:
366,205,187613,2,0,P|376:261|382:298,1,70,8|8,0:1|0:1,0:0:0:0:
400,374,187946,1,10,0:2:0:0:
400,374,188113,1,8,0:1:0:0:
302,375,188279,6,0,P|256:367|160:351,1,140,2|10,0:3|0:2,0:0:0:0:
66,366,188779,2,0,P|54:323|58:284,1,70,2|8,0:2|0:1,0:0:0:0:
121,225,189113,1,10,0:1:0:0:
121,225,189279,1,10,0:2:0:0:
23,210,189446,6,0,B|15:187|-1:169|-1:169|17:133|31:64,1,140,14|10,0:1|0:1,0:0:0:0:
99,15,189946,2,0,P|153:7|236:69,1,140,10|8,0:2|0:1,0:0:0:0:
187,139,190446,1,8,0:1:0:0:
275,181,190613,2,0,P|281:230|285:263,1,70,8|8,0:2|0:1,0:0:0:0:
243,340,190946,6,0,P|196:331|155:323,1,70,2|8,0:3|0:1,0:0:0:0:
322,382,191279,2,0,P|369:373|410:365,1,70,8|8,0:2|0:1,0:0:0:0:
414,361,191529,1,8,0:2:0:0:
438,353,191613,2,0,P|485:362|526:370,1,70,10|8,0:1|0:1,0:0:0:0:
374,273,191946,1,10,0:2:0:0:
460,226,192113,6,0,P|483:167|461:74,1,140,14|10,0:1|0:1,0:0:0:0:
403,22,192613,1,10,0:2:0:0:
403,22,192779,1,2,0:2:0:0:
324,79,192946,2,0,P|280:90|234:100,1,70,10|8,0:1|0:1,0:0:0:0:
184,28,193279,1,10,0:2:0:0:
110,93,193446,6,0,P|121:145|150:241,1,140,10|8,0:1|0:1,0:0:0:0:
233,270,193946,2,0,P|280:285|319:295,1,70,12|0,0:2|0:0,0:0:0:0:
194,358,194279,2,0,P|147:373|108:383,1,70,10|8,0:1|0:1,0:0:0:0:
30,359,194613,1,10,0:2:0:0:
43,262,194779,6,0,P|63:223|156:205,1,140,14|10,0:1|0:1,0:0:0:0:
248,188,195279,2,0,P|238:217|223:266,1,70,10|2,0:2|0:2,0:0:0:0:
252,348,195613,2,0,P|312:337|395:323,1,140,10|10,0:1|0:2,0:0:0:0:
482,356,196113,6,0,P|490:307|427:239,1,140,6|0,0:2|0:0,0:0:0:0:
358,179,196613,2,0,P|331:202|297:209,1,70,14|8,0:2|0:1,0:0:0:0:
287,207,196863,1,8,0:2:0:0:
278,204,196946,1,14,0:1:0:0:
205,137,197113,2,0,P|215:103|230:59,1,70,10|14,0:1|0:2,0:0:0:0:
307,15,197446,1,8,0:1:0:0:
392,35,197613,6,0,P|422:25|466:9,1,62.9999980773926,14|0,0:1|0:0,0:0:0:0:
364,108,197946,2,0,P|325:95|290:82,1,62.9999980773926,14|0,0:1|0:0,0:0:0:0:
424,175,198279,2,0,P|424:237|389:289,1,125.999996154785,10|10,0:2|0:2,0:0:0:0:
307,305,198779,6,0,P|241:293|177:281,1,125.999996154785,10|8,0:1|0:2,0:0:0:0:
114,337,199279,2,0,P|91:309|98:260,1,62.9999980773926,10|0,0:1|0:0,0:0:0:0:
133,206,199613,1,10,0:1:0:0:
54,167,199779,2,0,P|69:94|81:40,1,125.999996154785,14|10,0:2|0:2,0:0:0:0:
161,9,200279,6,0,P|179:40|173:74,1,62.9999980773926,14|0,0:1|0:0,0:0:0:0:
252,112,200613,2,0,P|282:106|313:99,1,62.9999980773926,12|0,0:1|0:0,0:0:0:0:
377,39,200946,2,0,P|404:94|385:152,1,125.999996154785,10|0,0:2|0:0,0:0:0:0:
308,195,201446,1,8,0:1:0:0:
368,259,201613,6,0,B|426:259|415:216|485:221,1,125.999996154785,10|8,0:2|0:1,0:0:0:0:
512,307,202113,1,8,0:2:0:0:
445,364,202279,2,0,P|415:355|385:346,1,62.9999980773926,10|12,0:1|0:1,0:0:0:0:
298,322,202613,1,12,0:1:0:0:
224,370,202779,1,8,0:2:0:0:
164,305,202946,6,0,P|172:269|179:236,1,62.9999980773926,14|10,0:1|0:1,0:0:0:0:
131,168,203279,1,14,0:2:0:0:
206,121,203446,2,0,P|268:131|330:142,1,125.999996154785,10|10,0:1|0:2,0:0:0:0:
408,101,203946,1,2,0:2:0:0:
384,15,204113,6,0,P|321:25|259:36,1,125.999996154785,10|8,0:2|0:1,0:0:0:0:
165,15,204613,2,0,P|160:46|172:75,1,62.9999980773926,8|8,0:2|0:1,0:0:0:0:
266,129,204946,1,8,0:2:0:0:
192,194,205113,2,0,P|162:182|133:171,1,62.9999980773926,8|8,0:2|0:2,0:0:0:0:
45,112,205446,5,10,0:2:0:0:
0,374,207946,5,8,0:2:0:0:
93,319,208113,6,0,B|166:294|179:338|249:308,1,154.000004699707,14|10,0:1|0:1,0:0:0:0:
341,263,208613,2,0,P|355:310|364:350,1,77.0000023498536,10|2,0:2|0:0,0:0:0:0:
466,372,208946,1,10,0:1:0:0:
466,372,209113,2,0,P|480:325|489:285,1,77.0000023498536,10|10,0:1|0:2,0:0:0:0:
503,191,209446,6,0,P|511:127|472:49,1,154.000004699707,10|8,0:1|0:1,0:0:0:0:
372,7,209946,2,0,P|350:53|336:97,1,77.0000023498536,10|8,0:2|0:1,0:0:0:0:
331,98,210196,1,8,0:2:0:0:
318,117,210279,2,0,P|334:165|356:206,1,77.0000023498536,10|10,0:1|0:1,0:0:0:0:
410,276,210613,1,8,0:2:0:0:
313,324,210779,6,0,P|258:342|154:300,1,154.000004699707,14|8,0:1|0:1,0:0:0:0:
112,222,211279,2,0,P|162:208|199:199,1,77.0000023498536,8|2,0:2|0:0,0:0:0:0:
256,119,211613,2,0,P|206:105|169:96,1,77.0000023498536,10|8,0:1|0:1,0:0:0:0:
110,17,211946,1,10,0:2:0:0:
20,77,212113,6,0,P|-2:147|5:245,1,154.000004699707,10|8,0:1|0:1,0:0:0:0:
18,333,212613,1,8,0:2:0:0:
105,270,212779,2,0,P|156:285|187:295,1,77.0000023498536,2|10,0:2|0:1,0:0:0:0:
265,226,213113,1,8,0:1:0:0:
265,226,213279,1,10,0:2:0:0:
169,176,213446,6,0,B|170:141|152:110|152:110|173:78|184:11,1,154.000004699707,14|10,0:1|0:1,0:0:0:0:
287,13,213946,2,0,P|336:25|371:31,1,77.0000023498536,10|2,0:2|0:2,0:0:0:0:
468,10,214279,1,10,0:1:0:0:
478,117,214446,2,0,P|466:166|460:201,1,77.0000023498536,8|10,0:1|0:2,0:0:0:0:
369,248,214779,6,0,P|428:290|522:284,1,154.000004699707,10|10,0:1|0:1,0:0:0:0:
392,161,215279,2,0,P|346:151|300:141,1,77.0000023498536,10|8,0:2|0:3,0:0:0:0:
295,135,215529,1,4,0:3:0:0:
273,127,215613,2,0,P|263:173|253:219,1,77.0000023498536,10|10,0:1|0:2,0:0:0:0:
308,296,215946,1,10,0:2:0:0:
210,343,216113,6,0,P|164:354|125:358,1,77.0000023498536,14|0,0:1|0:0,0:0:0:0:
26,364,216446,1,10,0:1:0:0:
6,257,216613,2,0,P|-5:186|35:99,1,154.000004699707,14|10,0:2|0:1,0:0:0:0:
87,23,217113,2,0,P|143:33|176:40,1,77.0000023498536,10|10,0:1|0:2,0:0:0:0:
265,3,217446,6,0,B|290:47|290:47|247:170,1,154.000004699707,10|8,0:1|0:1,0:0:0:0:
156,180,217946,1,10,0:2:0:0:
156,180,218113,1,2,0:2:0:0:
226,261,218279,2,0,P|214:313|208:343,1,77.0000023498536,8|8,0:1|0:1,0:0:0:0:
320,223,218613,1,8,0:2:0:0:
389,304,218779,6,0,P|445:333|548:299,1,154.000004699707,14|10,0:1|0:1,0:0:0:0:
462,226,219279,1,10,0:2:0:0:
511,129,219446,2,0,P|516:80|516:37,1,77.0000023498536,2|8,0:2|0:1,0:0:0:0:
417,8,219779,1,10,0:1:0:0:
417,8,219946,1,10,0:2:0:0:
341,85,220113,6,0,B|307:91|290:101|290:101|260:76|193:75,1,154.000004699707,10|8,0:1|0:1,0:0:0:0:
89,49,220613,2,0,P|82:99|111:137,1,77.0000023498536,10|8,0:2|0:1,0:0:0:0:
103,128,220863,1,8,0:2:0:0:
112,133,220946,1,10,0:1:0:0:
201,202,221113,1,10,0:1:0:0:
201,202,221279,1,10,0:2:0:0:
287,139,221446,6,0,P|356:106|428:126,1,154.000004699707,14|8,0:1|0:1,0:0:0:0:
510,194,221946,2,0,P|502:229|487:293,1,77.0000023498536,8|2,0:2|0:0,0:0:0:0:
431,359,222280,1,10,0:1:0:0:
431,359,222446,1,8,0:1:0:0:
356,280,222613,1,10,0:2:0:0:
272,347,222779,6,0,B|193:304|193:304|136:334,1,154.000004699707,10|8,0:1|0:1,0:0:0:0:
35,371,223279,2,0,P|29:332|48:294,1,77.0000023498536,12|2,0:2|0:2,0:0:0:0:
134,238,223613,1,10,0:1:0:0:
72,149,223780,2,0,P|40:160|-22:178,1,77.0000023498536,8|10,0:1|0:2,0:0:0:0:
98,57,224113,6,0,B|176:61|161:9|243:19,1,154.000004699707,14|10,0:1|0:1,0:0:0:0:
318,96,224613,2,0,P|333:64|353:18,1,77.0000023498536,10|2,0:2|0:2,0:0:0:0:
233,126,224946,2,0,P|248:161|264:196,1,77.0000023498536,10|8,0:1|0:1,0:0:0:0:
352,260,225280,1,10,0:2:0:0:
272,331,225446,6,0,P|326:363|426:330,1,154.000004699707,14|8,0:1|0:1,0:0:0:0:
509,299,225946,2,0,P|498:258|485:207,1,77.0000023498536,14|8,0:2|0:2,0:0:0:0:
486,210,226196,1,8,0:2:0:0:
482,195,226279,1,14,0:1:0:0:
400,141,226446,1,8,0:1:0:0:
495,90,226613,2,0,P|496:51|466:20,1,77.0000023498536,10|14,0:2|0:1,0:0:0:0:
364,13,226946,6,0,P|327:26|288:39,1,77.0000023498536,10|10,0:2|0:1,0:0:0:0:
209,108,227279,2,0,P|172:95|136:83,1,77.0000023498536,10|8,0:2|0:1,0:0:0:0:
252,193,227613,2,0,P|288:180|324:168,1,77.0000023498536,10|10,0:2|0:1,0:0:0:0:
415,227,227946,2,0,P|417:267|390:301,1,77.0000023498536,10|10,0:2|0:1,0:0:0:0:
318,371,228279,6,0,P|275:359|225:346,1,77.0000023498536,10|10,0:2|0:1,0:0:0:0:
135,365,228613,2,0,P|132:323|155:290,1,77.0000023498536,8|10,0:2|0:1,0:0:0:0:
213,207,228946,2,0,P|203:159|195:120,1,77.0000023498536,8|14,0:2|0:1,0:0:0:0:
193,116,229196,1,10,0:1:0:0:
189,101,229279,2,0,P|153:48|123:40,1,77.0000023498536,10|14,0:2|0:1,0:0:0:0:
41,24,229613,6,0,P|48:57|58:103,1,77.0000023498536,10|10,0:2|0:1,0:0:0:0:
88,202,229946,2,0,P|81:235|71:281,1,77.0000023498536,10|8,0:2|0:1,0:0:0:0:
4,361,230279,2,0,P|58:381|88:372,1,77.0000023498536,10|10,0:2|0:1,0:0:0:0:
157,306,230613,2,0,P|190:287|228:289,1,77.0000023498536,10|10,0:2|0:1,0:0:0:0:
308,360,230946,6,0,P|343:350|392:337,1,77.0000023498536,10|14,0:2|0:1,0:0:0:0:
397,338,231196,1,8,0:1:0:0:
410,337,231279,2,0,P|425:299|410:259,1,77.0000023498536,8|14,0:2|0:1,0:0:0:0:
336,189,231613,2,0,P|299:200|257:214,1,77.0000023498536,8|10,0:2|0:1,0:0:0:0:
156,188,231946,1,14,0:2:0:0:
147,80,232113,1,10,0:2:0:0:
238,23,232279,6,0,P|275:34|317:48,1,77.0000023498536,14|10,0:2|0:1,0:0:0:0:
412,86,232613,2,0,P|448:73|485:62,1,77.0000023498536,10|8,0:2|0:1,0:0:0:0:
351,158,232946,2,0,P|314:145|277:134,1,77.0000023498536,10|10,0:2|0:1,0:0:0:0:
185,192,233279,2,0,P|175:228|187:264,1,77.0000023498536,10|10,0:2|0:1,0:0:0:0:
263,341,233613,6,0,P|300:329|352:313,1,77.0000023498536,10|10,0:2|0:1,0:0:0:0:
485,379,233946,2,0,P|456:352|416:315,1,77.0000023498536,8|14,0:2|0:1,0:0:0:0:
407,174,234279,2,0,P|398:212|386:265,1,77.0000023498536,8|14,0:2|0:1,0:0:0:0:
492,150,234613,2,0,P|483:112|475:74,1,77.0000023498536,10|14,0:2|0:1,0:0:0:0:
381,22,234946,6,0,P|353:52|311:61,1,77.0000023498536,14|10,0:2|0:1,0:0:0:0:
219,20,235279,2,0,P|178:30|136:39,1,77.0000023498536,10|8,0:2|0:1,0:0:0:0:
64,111,235613,2,0,P|105:121|147:130,1,77.0000023498536,10|10,0:2|0:1,0:0:0:0:
232,182,235946,2,0,P|238:219|223:254,1,77.0000023498536,10|14,0:2|0:1,0:0:0:0:
134,315,236279,5,10,0:2:0:0:
134,315,236446,1,14,0:2:0:0:
37,266,236613,2,0,P|47:228|62:184,1,77.0000023498536,8|14,0:2|0:2,0:0:0:0:
131,112,236946,1,8,0:2:0:0:
131,112,237113,1,14,0:2:0:0:
29,76,237279,2,0,P|46:34|78:12,1,77.0000023498536,10|10,0:2|0:2,0:0:0:0:
151,27,237613,6,0,P|180:20|218:13,1,56,10|10,0:2|0:1,0:0:0:0:
352,70,238113,1,10,0:1:0:0:
256,192,238446,1,10,0:1:0:0:
