osu file format v14

[General]
AudioFilename: audio.mp3
AudioLeadIn: 0
PreviewTime: 66696
Countdown: 0
SampleSet: Soft
StackLeniency: 0.3
Mode: 0
LetterboxInBreaks: 0
WidescreenStoryboard: 0

[Editor]
Bookmarks: 10279,96279,154946,208113
DistanceSpacing: 1.2
BeatDivisor: 4
GridSize: 4
TimelineZoom: 1

[Metadata]
Title:JOINT
TitleUnicode:JOINT
Artist:Mami Kawada
ArtistUnicode:川田まみ
Creator:Andrea
Version:Burning Flame
Source:灼眼のシャナⅡ
Tags:osuplayer111 Sekai Sekaii Sekai-nyan Kowari Gaia Akitoshi Corinn -Laura- midorijeon - Ex - -_Ex_- AsuKow GrazuKo Erisu Lanzhu Mayuzumi Fuyuko Full Version Female Vocals Shakugan no Shana Second Opening OP 2nd Season Two Anime Japanese Pop J-Pop JPop Rock J-Rock JRock
BeatmapID:3612055
BeatmapSetID:1764643

[Difficulty]
HPDrainRate:6
CircleSize:4
OverallDifficulty:9
ApproachRate:9.3
SliderMultiplier:1.8
SliderTickRate:1

[Events]
//Background and Video events
0,0,"BG.jpg",0,0
//Break Periods
2,205646,207392
//Storyboard Layer 0 (Background)
//Storyboard Layer 1 (Fail)
//Storyboard Layer 2 (Pass)
//Storyboard Layer 3 (Foreground)
//Storyboard Layer 4 (Overlay)
//Storyboard Sound Samples

[TimingPoints]
280,333.333333333333,4,2,2,60,1,0
280,-125,4,2,2,60,0,0
10279,-111.111111111111,4,2,2,60,0,0
10946,-100,4,2,2,75,0,0
11279,-100,4,2,6,75,0,0
11363,-100,4,2,2,75,0,0
11613,-100,4,2,6,75,0,0
11697,-100,4,2,2,75,0,0
11946,-100,4,2,6,75,0,0
12030,-100,4,2,2,75,0,0
12279,-100,4,2,6,75,0,0
12363,-100,4,2,2,75,0,0
12529,-100,4,2,2,5,0,0
12613,-100,4,2,6,75,0,0
12697,-100,4,2,2,75,0,0
12946,-100,4,2,6,75,0,0
13030,-100,4,2,2,75,0,0
13113,-100,4,2,5,75,0,0
13613,-100,4,2,2,75,0,0
13863,-100,4,2,2,5,0,0
13946,-100,4,2,6,75,0,0
14030,-100,4,2,2,75,0,0
14279,-100,4,2,6,75,0,0
14363,-100,4,2,2,75,0,0
14613,-100,4,2,6,75,0,0
14697,-100,4,2,2,75,0,0
14946,-100,4,2,6,75,0,0
15030,-100,4,2,2,75,0,0
15113,-100,4,2,3,75,0,0
15613,-100,4,2,6,75,0,0
15697,-100,4,2,2,75,0,0
15946,-100,4,2,5,75,0,0
16279,-100,4,2,2,75,0,0
16529,-100,4,2,2,5,0,0
16613,-100,4,2,6,75,0,0
16697,-100,4,2,2,75,0,0
16946,-100,4,2,6,75,0,0
17030,-100,4,2,2,75,0,0
17279,-100,4,2,6,75,0,0
17363,-100,4,2,2,75,0,0
17613,-100,4,2,6,75,0,0
17697,-100,4,2,2,75,0,0
17863,-100,4,2,2,5,0,0
17946,-100,4,2,6,75,0,0
18030,-100,4,2,2,75,0,0
18279,-100,4,2,6,75,0,0
18363,-100,4,2,2,75,0,0
18613,-100,4,2,6,75,0,0
18697,-100,4,2,2,75,0,0
18946,-100,4,2,3,75,0,0
19196,-100,4,2,3,5,0,0
19279,-100,4,2,6,75,0,0
19363,-100,4,2,2,75,0,0
19613,-100,4,2,6,75,0,0
19697,-100,4,2,2,75,0,0
19946,-100,4,2,6,75,0,0
20030,-100,4,2,2,75,0,0
20279,-100,4,2,6,75,0,0
20363,-100,4,2,2,75,0,0
21613,-100,4,2,3,75,0,0
21946,-100,4,2,6,75,0,0
22030,-100,4,2,2,75,0,0
22279,-100,4,2,6,75,0,0
22363,-100,4,2,2,75,0,0
22613,-100,4,2,6,75,0,0
22697,-100,4,2,2,75,0,0
22946,-100,4,2,6,75,0,0
23030,-100,4,2,2,75,0,0
23279,-100,4,2,6,75,0,0
23363,-100,4,2,2,75,0,0
23613,-100,4,2,6,75,0,0
23697,-100,4,2,2,75,0,0
23946,-100,4,2,6,75,0,0
24030,-100,4,2,2,75,0,0
24279,-100,4,2,3,75,0,0
24613,-100,4,2,6,75,0,0
24697,-100,4,2,2,75,0,0
24946,-100,4,2,6,75,0,0
25030,-100,4,2,2,75,0,0
25279,-100,4,2,6,75,0,0
25363,-100,4,2,2,75,0,0
25613,-100,4,2,6,75,0,0
25697,-100,4,2,2,75,0,0
25946,-100,4,2,6,75,0,0
26030,-100,4,2,2,75,0,0
26279,-100,4,2,6,75,0,0
26363,-100,4,2,2,75,0,0
26613,-100,4,2,6,75,0,0
26697,-100,4,2,2,75,0,0
27279,-100,4,2,6,75,0,0
27363,-100,4,2,2,75,0,0
27613,-100,4,2,6,75,0,0
27697,-100,4,2,2,75,0,0
27946,-100,4,2,6,75,0,0
28030,-100,4,2,2,75,0,0
28279,-100,4,2,6,75,0,0
28363,-100,4,2,2,75,0,0
28613,-100,4,2,6,75,0,0
28697,-100,4,2,2,75,0,0
28946,-100,4,2,6,75,0,0
29030,-100,4,2,2,75,0,0
29279,-100,4,2,6,75,0,0
29363,-100,4,2,2,75,0,0
29613,-100,4,2,3,75,0,0
29946,-100,4,2,6,75,0,0
30030,-100,4,2,2,75,0,0
32279,-111.111111111111,4,2,3,70,0,0
32613,-111.111111111111,4,2,8,70,0,0
32697,-111.111111111111,4,2,2,70,0,0
32946,-111.111111111111,4,2,8,70,0,0
33030,-111.111111111111,4,2,2,70,0,0
33279,-111.111111111111,4,2,8,70,0,0
33363,-111.111111111111,4,2,2,70,0,0
33613,-111.111111111111,4,2,8,70,0,0
33697,-111.111111111111,4,2,2,70,0,0
33946,-111.111111111111,4,2,8,70,0,0
34030,-111.111111111111,4,2,2,70,0,0
34196,-111.111111111111,4,2,2,5,0,0
34279,-111.111111111111,4,2,8,70,0,0
34363,-111.111111111111,4,2,2,70,0,0
34613,-111.111111111111,4,2,8,70,0,0
34697,-111.111111111111,4,2,2,70,0,0
34779,-111.111111111111,4,2,12,70,0,0
34863,-111.111111111111,4,2,2,70,0,0
35279,-111.111111111111,4,2,8,70,0,0
35363,-111.111111111111,4,2,2,70,0,0
35613,-111.111111111111,4,2,8,70,0,0
35697,-111.111111111111,4,2,2,70,0,0
35946,-111.111111111111,4,2,8,70,0,0
36030,-111.111111111111,4,2,2,70,0,0
36279,-111.111111111111,4,2,8,70,0,0
36363,-111.111111111111,4,2,2,70,0,0
36613,-111.111111111111,4,2,8,70,0,0
36697,-111.111111111111,4,2,2,70,0,0
36946,-111.111111111111,4,2,8,70,0,0
37030,-111.111111111111,4,2,2,70,0,0
37113,-111.111111111111,4,2,12,70,0,0
37197,-111.111111111111,4,2,2,70,0,0
37446,-111.111111111111,4,2,8,70,0,0
37530,-111.111111111111,4,2,2,70,0,0
37946,-111.111111111111,4,2,8,70,0,0
38030,-111.111111111111,4,2,2,70,0,0
38279,-111.111111111111,4,2,8,70,0,0
38363,-111.111111111111,4,2,2,70,0,0
38613,-111.111111111111,4,2,8,70,0,0
38697,-111.111111111111,4,2,2,70,0,0
38946,-111.111111111111,4,2,8,70,0,0
39030,-111.111111111111,4,2,2,70,0,0
39279,-111.111111111111,4,2,8,70,0,0
39363,-111.111111111111,4,2,2,70,0,0
39613,-111.111111111111,4,2,8,70,0,0
39697,-111.111111111111,4,2,2,70,0,0
39946,-111.111111111111,4,2,8,70,0,0
40030,-111.111111111111,4,2,2,70,0,0
40113,-111.111111111111,4,2,12,70,0,0
40197,-111.111111111111,4,2,2,70,0,0
40279,-100,4,2,9,70,0,0
40363,-100,4,2,2,70,0,0
40613,-100,4,2,8,70,0,0
40697,-100,4,2,2,70,0,0
40946,-100,4,2,8,70,0,0
41030,-100,4,2,2,70,0,0
41279,-100,4,2,8,70,0,0
41363,-100,4,2,2,70,0,0
41613,-100,4,2,8,70,0,0
41697,-100,4,2,2,70,0,0
41946,-100,4,2,12,70,0,0
42030,-100,4,2,2,70,0,0
42279,-100,4,2,12,70,0,0
42363,-100,4,2,2,70,0,0
42613,-100,4,2,12,70,0,0
42697,-100,4,2,2,70,0,0
42779,-100,4,2,3,70,0,0
42946,-111.111111111111,4,2,2,70,0,0
43279,-111.111111111111,4,2,8,70,0,0
43363,-111.111111111111,4,2,2,70,0,0
43529,-111.111111111111,4,2,2,5,0,0
43613,-111.111111111111,4,2,8,70,0,0
43697,-111.111111111111,4,2,2,70,0,0
43946,-111.111111111111,4,2,8,70,0,0
44030,-111.111111111111,4,2,2,70,0,0
44279,-111.111111111111,4,2,8,70,0,0
44363,-111.111111111111,4,2,2,70,0,0
44613,-111.111111111111,4,2,8,70,0,0
44697,-111.111111111111,4,2,2,70,0,0
44946,-111.111111111111,4,2,8,70,0,0
45030,-111.111111111111,4,2,2,70,0,0
45279,-111.111111111111,4,2,8,70,0,0
45363,-111.111111111111,4,2,2,70,0,0
45446,-111.111111111111,4,2,12,70,0,0
45530,-111.111111111111,4,2,2,70,0,0
45946,-111.111111111111,4,2,8,70,0,0
46030,-111.111111111111,4,2,2,70,0,0
46279,-111.111111111111,4,2,8,70,0,0
46363,-111.111111111111,4,2,2,70,0,0
46613,-111.111111111111,4,2,8,70,0,0
46697,-111.111111111111,4,2,2,70,0,0
46946,-111.111111111111,4,2,8,70,0,0
47030,-111.111111111111,4,2,2,70,0,0
47279,-111.111111111111,4,2,8,70,0,0
47363,-111.111111111111,4,2,2,70,0,0
47613,-111.111111111111,4,2,8,70,0,0
47697,-111.111111111111,4,2,2,70,0,0
47946,-111.111111111111,4,2,8,70,0,0
48030,-111.111111111111,4,2,2,70,0,0
48113,-111.111111111111,4,2,12,70,0,0
48197,-111.111111111111,4,2,2,70,0,0
48613,-111.111111111111,4,2,8,70,0,0
48697,-111.111111111111,4,2,2,70,0,0
48863,-111.111111111111,4,2,2,5,0,0
48946,-111.111111111111,4,2,8,70,0,0
49030,-111.111111111111,4,2,2,70,0,0
49279,-111.111111111111,4,2,8,70,0,0
49363,-111.111111111111,4,2,2,70,0,0
49613,-111.111111111111,4,2,8,70,0,0
49697,-111.111111111111,4,2,2,70,0,0
49946,-111.111111111111,4,2,8,70,0,0
50030,-111.111111111111,4,2,2,70,0,0
50279,-111.111111111111,4,2,8,70,0,0
50363,-111.111111111111,4,2,2,70,0,0
50613,-111.111111111111,4,2,8,70,0,0
50697,-111.111111111111,4,2,2,70,0,0
50946,-100,4,2,8,70,0,0
51030,-100,4,2,2,70,0,0
51279,-100,4,2,8,70,0,0
51363,-100,4,2,2,70,0,0
51613,-100,4,2,8,70,0,0
51697,-100,4,2,2,70,0,0
51863,-100,4,2,2,5,0,0
51946,-100,4,2,8,70,0,0
52030,-100,4,2,2,70,0,0
52279,-100,4,2,6,70,0,0
52363,-100,4,2,2,70,0,0
52613,-100,4,2,6,70,0,0
52697,-100,4,2,2,70,0,0
52946,-100,4,2,6,70,0,0
53030,-100,4,2,2,70,0,0
53279,-100,4,2,6,70,0,0
53363,-100,4,2,2,70,0,0
53613,-111.111111111111,4,2,2,70,0,0
53863,-111.111111111111,4,2,2,5,0,0
53946,-111.111111111111,4,2,3,70,0,0
54196,-111.111111111111,4,2,2,5,0,0
54279,-111.111111111111,4,2,3,70,0,0
55529,-111.111111111111,4,2,2,5,0,0
55613,-111.111111111111,4,2,3,70,0,0
56613,-111.111111111111,4,2,2,70,0,0
56863,-111.111111111111,4,2,2,5,0,0
56946,-111.111111111111,4,2,2,70,0,0
59279,-111.111111111111,4,2,3,70,0,0
59529,-111.111111111111,4,2,2,5,0,0
59613,-111.111111111111,4,2,3,70,0,0
60863,-111.111111111111,4,2,2,5,0,0
60946,-111.111111111111,4,2,3,70,0,0
61613,-100,4,2,2,70,0,0
61946,-100,4,2,6,70,0,0
62030,-100,4,2,2,70,0,0
62279,-100,4,2,6,70,0,0
62363,-100,4,2,2,70,0,0
62613,-100,4,2,6,70,0,0
62697,-100,4,2,2,70,0,0
62946,-100,4,2,7,70,0,0
63030,-100,4,2,2,70,0,0
63279,-100,4,2,6,70,0,0
63363,-100,4,2,2,70,0,0
63613,-100,4,2,6,70,0,0
63697,-100,4,2,2,70,0,0
63946,-100,4,2,6,70,0,0
64030,-100,4,2,2,70,0,0
64279,-100,4,2,6,70,0,0
64363,-100,4,2,2,70,0,0
64613,-100,4,2,6,70,0,0
64697,-100,4,2,2,70,0,0
64946,-100,4,2,6,70,0,0
65030,-100,4,2,2,70,0,0
65446,-100,4,2,6,70,0,0
65530,-100,4,2,2,70,0,0
66779,-90.9090909090909,4,2,1,80,0,1
67029,-90.9090909090909,4,2,1,5,0,1
67113,-90.9090909090909,4,2,1,80,0,1
67279,-90.9090909090909,4,2,6,80,0,1
67363,-90.9090909090909,4,2,2,80,0,1
67613,-90.9090909090909,4,2,6,80,0,1
67697,-90.9090909090909,4,2,2,80,0,1
67946,-90.9090909090909,4,2,6,80,0,1
68030,-90.9090909090909,4,2,2,80,0,1
68279,-90.9090909090909,4,2,6,80,0,1
68363,-90.9090909090909,4,2,2,80,0,1
68613,-90.9090909090909,4,2,6,80,0,1
68697,-90.9090909090909,4,2,2,80,0,1
68946,-90.9090909090909,4,2,6,80,0,1
69030,-90.9090909090909,4,2,2,80,0,1
69279,-90.9090909090909,4,2,6,80,0,1
69363,-90.9090909090909,4,2,2,80,0,1
69446,-90.9090909090909,4,2,3,80,0,1
69946,-90.9090909090909,4,2,6,80,0,1
70030,-90.9090909090909,4,2,2,80,0,1
70279,-90.9090909090909,4,2,6,80,0,1
70363,-90.9090909090909,4,2,2,80,0,1
70613,-90.9090909090909,4,2,6,80,0,1
70697,-90.9090909090909,4,2,2,80,0,1
70946,-90.9090909090909,4,2,6,80,0,1
71030,-90.9090909090909,4,2,2,80,0,1
71279,-90.9090909090909,4,2,6,80,0,1
71363,-90.9090909090909,4,2,2,80,0,1
71613,-90.9090909090909,4,2,6,80,0,1
71697,-90.9090909090909,4,2,2,80,0,1
71946,-90.9090909090909,4,2,6,80,0,1
72030,-90.9090909090909,4,2,2,80,0,1
72613,-90.9090909090909,4,2,6,80,0,1
72697,-90.9090909090909,4,2,2,80,0,1
72946,-90.9090909090909,4,2,6,80,0,1
73030,-90.9090909090909,4,2,2,80,0,1
73279,-90.9090909090909,4,2,6,80,0,1
73363,-90.9090909090909,4,2,2,80,0,1
73613,-90.9090909090909,4,2,6,80,0,1
73697,-90.9090909090909,4,2,2,80,0,1
73946,-90.9090909090909,4,2,6,80,0,1
74030,-90.9090909090909,4,2,2,80,0,1
74279,-90.9090909090909,4,2,6,80,0,1
74363,-90.9090909090909,4,2,2,80,0,1
74613,-90.9090909090909,4,2,6,80,0,1
74697,-90.9090909090909,4,2,2,80,0,1
74779,-90.9090909090909,4,2,3,80,0,1
75029,-90.9090909090909,4,2,3,5,0,1
75113,-90.9090909090909,4,2,3,80,0,1
75279,-90.9090909090909,4,2,6,80,0,1
75363,-90.9090909090909,4,2,2,80,0,1
75613,-90.9090909090909,4,2,6,80,0,1
75697,-90.9090909090909,4,2,2,80,0,1
75946,-90.9090909090909,4,2,6,80,0,1
76030,-90.9090909090909,4,2,2,80,0,1
76279,-90.9090909090909,4,2,6,80,0,1
76363,-90.9090909090909,4,2,2,80,0,1
76613,-90.9090909090909,4,2,6,80,0,1
76697,-90.9090909090909,4,2,2,80,0,1
76779,-90.9090909090909,4,2,1,80,0,1
76946,-90.9090909090909,4,2,6,80,0,1
77030,-90.9090909090909,4,2,2,80,0,1
77279,-90.9090909090909,4,2,6,80,0,1
77363,-90.9090909090909,4,2,2,80,0,1
77446,-111.111111111111,4,2,2,80,0,1
77696,-111.111111111111,4,2,2,5,0,1
77779,-111.111111111111,4,2,2,80,0,1
77946,-90.9090909090909,4,2,5,80,0,1
78279,-90.9090909090909,4,2,6,80,0,1
78363,-90.9090909090909,4,2,2,80,0,1
78613,-90.9090909090909,4,2,6,80,0,1
78697,-90.9090909090909,4,2,2,80,0,1
78946,-90.9090909090909,4,2,6,80,0,1
79030,-90.9090909090909,4,2,2,80,0,1
79279,-90.9090909090909,4,2,6,80,0,1
79363,-90.9090909090909,4,2,2,80,0,1
79613,-90.9090909090909,4,2,6,80,0,1
79697,-90.9090909090909,4,2,2,80,0,1
79946,-90.9090909090909,4,2,6,80,0,1
80030,-90.9090909090909,4,2,2,80,0,1
80613,-90.9090909090909,4,2,6,80,0,1
80697,-90.9090909090909,4,2,2,80,0,1
80946,-90.9090909090909,4,2,6,80,0,1
81030,-90.9090909090909,4,2,2,80,0,1
81279,-90.9090909090909,4,2,6,80,0,1
81363,-90.9090909090909,4,2,2,80,0,1
81613,-90.9090909090909,4,2,6,80,0,1
81696,-90.9090909090909,4,2,2,80,0,1
81946,-90.9090909090909,4,2,6,80,0,1
82030,-90.9090909090909,4,2,2,80,0,1
82279,-90.9090909090909,4,2,6,80,0,1
82363,-90.9090909090909,4,2,2,80,0,1
82613,-90.9090909090909,4,2,6,80,0,1
82697,-90.9090909090909,4,2,2,80,0,1
82779,-90.9090909090909,4,2,3,80,0,1
83279,-90.9090909090909,4,2,6,80,0,1
83363,-90.9090909090909,4,2,2,80,0,1
83613,-90.9090909090909,4,2,6,80,0,1
83697,-90.9090909090909,4,2,2,80,0,1
83946,-90.9090909090909,4,2,6,80,0,1
84030,-90.9090909090909,4,2,2,80,0,1
84279,-90.9090909090909,4,2,6,80,0,1
84363,-90.9090909090909,4,2,2,80,0,1
84613,-90.9090909090909,4,2,5,80,0,1
84946,-90.9090909090909,4,2,6,80,0,1
85030,-90.9090909090909,4,2,2,80,0,1
85279,-90.9090909090909,4,2,6,80,0,1
85363,-90.9090909090909,4,2,2,80,0,1
85696,-90.9090909090909,4,2,2,5,0,1
85779,-90.9090909090909,4,2,2,80,0,1
85946,-90.9090909090909,4,2,6,80,0,1
86030,-90.9090909090909,4,2,2,80,0,1
86279,-90.9090909090909,4,2,6,80,0,1
86363,-90.9090909090909,4,2,2,80,0,1
86613,-90.9090909090909,4,2,6,80,0,1
86697,-90.9090909090909,4,2,2,80,0,1
86779,-90.9090909090909,4,2,3,80,0,1
87613,-90.9090909090909,4,2,2,80,0,1
87946,-90.9090909090909,4,2,5,80,0,1
88279,-111.111111111111,4,2,4,80,0,0
89946,-111.111111111111,4,2,6,80,0,0
90030,-111.111111111111,4,2,2,80,0,0
90279,-111.111111111111,4,2,6,80,0,0
90363,-111.111111111111,4,2,2,80,0,0
90863,-111.111111111111,4,2,2,5,0,0
90946,-111.111111111111,4,2,2,75,0,0
91279,-111.111111111111,4,2,3,75,0,0
93946,-111.111111111111,4,2,2,75,0,0
96279,-111.111111111111,4,2,3,70,0,0
96613,-111.111111111111,4,2,8,70,0,0
96697,-111.111111111111,4,2,2,70,0,0
96863,-111.111111111111,4,2,2,5,0,0
96946,-111.111111111111,4,2,8,70,0,0
97030,-111.111111111111,4,2,2,70,0,0
97279,-111.111111111111,4,2,8,70,0,0
97363,-111.111111111111,4,2,2,70,0,0
97613,-111.111111111111,4,2,8,70,0,0
97697,-111.111111111111,4,2,2,70,0,0
97946,-111.111111111111,4,2,8,70,0,0
98030,-111.111111111111,4,2,2,70,0,0
98279,-111.111111111111,4,2,8,70,0,0
98363,-111.111111111111,4,2,2,70,0,0
98613,-111.111111111111,4,2,8,70,0,0
98697,-111.111111111111,4,2,2,70,0,0
98779,-111.111111111111,4,2,12,70,0,0
98863,-111.111111111111,4,2,2,70,0,0
99279,-111.111111111111,4,2,8,70,0,0
99363,-111.111111111111,4,2,2,70,0,0
99613,-111.111111111111,4,2,8,70,0,0
99697,-111.111111111111,4,2,2,70,0,0
99946,-111.111111111111,4,2,8,70,0,0
100030,-111.111111111111,4,2,2,70,0,0
100279,-111.111111111111,4,2,8,70,0,0
100363,-111.111111111111,4,2,2,70,0,0
100613,-111.111111111111,4,2,8,70,0,0
100697,-111.111111111111,4,2,2,70,0,0
100946,-111.111111111111,4,2,8,70,0,0
101030,-111.111111111111,4,2,2,70,0,0
101113,-111.111111111111,4,2,12,70,0,0
101197,-111.111111111111,4,2,2,70,0,0
101613,-111.111111111111,4,2,8,70,0,0
101697,-111.111111111111,4,2,2,70,0,0
101946,-111.111111111111,4,2,8,70,0,0
102030,-111.111111111111,4,2,2,70,0,0
102196,-111.111111111111,4,2,2,5,0,0
102279,-111.111111111111,4,2,8,70,0,0
102363,-111.111111111111,4,2,2,70,0,0
102613,-111.111111111111,4,2,8,70,0,0
102697,-111.111111111111,4,2,2,70,0,0
102946,-111.111111111111,4,2,8,70,0,0
103030,-111.111111111111,4,2,2,70,0,0
103279,-111.111111111111,4,2,8,70,0,0
103363,-111.111111111111,4,2,2,70,0,0
103613,-111.111111111111,4,2,8,70,0,0
103697,-111.111111111111,4,2,2,70,0,0
103946,-111.111111111111,4,2,8,70,0,0
104030,-111.111111111111,4,2,2,70,0,0
104280,-100,4,2,8,70,0,0
104363,-100,4,2,2,70,0,0
104613,-100,4,2,8,70,0,0
104697,-100,4,2,2,70,0,0
104946,-100,4,2,8,70,0,0
105030,-100,4,2,2,70,0,0
105279,-100,4,2,8,70,0,0
105363,-100,4,2,2,70,0,0
105613,-100,4,2,8,70,0,0
105697,-100,4,2,2,70,0,0
105946,-100,4,2,8,70,0,0
106030,-100,4,2,2,70,0,0
106279,-100,4,2,8,70,0,0
106363,-100,4,2,2,70,0,0
106613,-100,4,2,8,70,0,0
106697,-100,4,2,2,70,0,0
106946,-111.111111111111,4,2,2,70,0,0
107279,-111.111111111111,4,2,8,70,0,0
107363,-111.111111111111,4,2,2,70,0,0
107613,-111.111111111111,4,2,8,70,0,0
107697,-111.111111111111,4,2,2,70,0,0
107946,-111.111111111111,4,2,8,70,0,0
108030,-111.111111111111,4,2,2,70,0,0
108279,-111.111111111111,4,2,8,70,0,0
108363,-111.111111111111,4,2,2,70,0,0
108613,-111.111111111111,4,2,8,70,0,0
108697,-111.111111111111,4,2,2,70,0,0
108946,-111.111111111111,4,2,8,70,0,0
109030,-111.111111111111,4,2,2,70,0,0
109279,-111.111111111111,4,2,8,70,0,0
109363,-111.111111111111,4,2,2,70,0,0
109613,-111.111111111111,4,2,8,70,0,0
109697,-111.111111111111,4,2,2,70,0,0
109946,-111.111111111111,4,2,8,70,0,0
110030,-111.111111111111,4,2,2,70,0,0
110279,-111.111111111111,4,2,8,70,0,0
110363,-111.111111111111,4,2,2,70,0,0
110613,-111.111111111111,4,2,8,70,0,0
110697,-111.111111111111,4,2,2,70,0,0
110946,-111.111111111111,4,2,8,70,0,0
111030,-111.111111111111,4,2,2,70,0,0
111279,-111.111111111111,4,2,8,70,0,0
111363,-111.111111111111,4,2,2,70,0,0
111613,-111.111111111111,4,2,8,70,0,0
111697,-111.111111111111,4,2,2,70,0,0
111779,-111.111111111111,4,2,12,70,0,0
111863,-111.111111111111,4,2,2,70,0,0
112279,-111.111111111111,4,2,8,70,0,0
112363,-111.111111111111,4,2,2,70,0,0
112613,-111.111111111111,4,2,8,70,0,0
112697,-111.111111111111,4,2,2,70,0,0
112946,-111.111111111111,4,2,8,70,0,0
113030,-111.111111111111,4,2,2,70,0,0
113279,-111.111111111111,4,2,8,70,0,0
113363,-111.111111111111,4,2,2,70,0,0
113613,-111.111111111111,4,2,8,70,0,0
113697,-111.111111111111,4,2,2,70,0,0
113946,-111.111111111111,4,2,8,70,0,0
114030,-111.111111111111,4,2,2,70,0,0
114279,-111.111111111111,4,2,8,70,0,0
114363,-111.111111111111,4,2,2,70,0,0
114613,-111.111111111111,4,2,8,70,0,0
114697,-111.111111111111,4,2,2,70,0,0
114946,-100,4,2,8,70,0,0
115030,-100,4,2,2,70,0,0
115279,-100,4,2,8,70,0,0
115363,-100,4,2,2,70,0,0
115613,-100,4,2,8,70,0,0
115697,-100,4,2,2,70,0,0
115946,-100,4,2,8,70,0,0
116030,-100,4,2,2,70,0,0
116279,-100,4,2,8,70,0,0
116363,-100,4,2,2,70,0,0
116613,-100,4,2,6,70,0,0
116697,-100,4,2,2,70,0,0
116946,-100,4,2,6,70,0,0
117030,-100,4,2,2,70,0,0
117279,-100,4,2,6,70,0,0
117363,-100,4,2,2,70,0,0
117613,-111.111111111111,4,2,2,70,0,0
117863,-111.111111111111,4,2,2,5,0,0
117946,-111.111111111111,4,2,3,70,0,0
118196,-111.111111111111,4,2,2,5,0,0
118279,-111.111111111111,4,2,3,70,0,0
120613,-111.111111111111,4,2,2,70,0,0
120863,-111.111111111111,4,2,2,5,0,0
120946,-111.111111111111,4,2,2,70,0,0
123279,-111.111111111111,4,2,3,70,0,0
123529,-111.111111111111,4,2,3,5,0,0
123613,-111.111111111111,4,2,3,70,0,0
124863,-111.111111111111,4,2,3,5,0,0
124946,-111.111111111111,4,2,3,70,0,0
125613,-100,4,2,2,70,0,0
125946,-100,4,2,6,70,0,0
126030,-100,4,2,2,70,0,0
126279,-100,4,2,6,70,0,0
126363,-100,4,2,2,70,0,0
126613,-100,4,2,6,70,0,0
126697,-100,4,2,2,70,0,0
126946,-100,4,2,7,70,0,0
127030,-100,4,2,2,70,0,0
127279,-100,4,2,6,70,0,0
127363,-100,4,2,2,70,0,0
127613,-100,4,2,6,70,0,0
127697,-100,4,2,2,70,0,0
127946,-100,4,2,6,70,0,0
128030,-100,4,2,2,70,0,0
128279,-100,4,2,6,70,0,0
128363,-100,4,2,2,70,0,0
128613,-100,4,2,6,70,0,0
128697,-100,4,2,2,70,0,0
128946,-100,4,2,6,70,0,0
129030,-100,4,2,2,70,0,0
129446,-100,4,2,6,70,0,0
129530,-100,4,2,2,70,0,0
130279,-100,4,2,1,70,0,0
130613,-100,4,2,3,70,0,0
130779,-90.9090909090909,4,2,1,80,0,1
131029,-90.9090909090909,4,2,1,5,0,1
131113,-90.9090909090909,4,2,1,80,0,1
131279,-90.9090909090909,4,2,6,80,0,1
131363,-90.9090909090909,4,2,2,80,0,1
131613,-90.9090909090909,4,2,6,80,0,1
131697,-90.9090909090909,4,2,2,80,0,1
131946,-90.9090909090909,4,2,6,80,0,1
132030,-90.9090909090909,4,2,2,80,0,1
132279,-90.9090909090909,4,2,6,80,0,1
132363,-90.9090909090909,4,2,2,80,0,1
132613,-90.9090909090909,4,2,6,80,0,1
132697,-90.9090909090909,4,2,2,80,0,1
132946,-90.9090909090909,4,2,6,80,0,1
133030,-90.9090909090909,4,2,2,80,0,1
133279,-90.9090909090909,4,2,6,80,0,1
133363,-90.9090909090909,4,2,2,80,0,1
133446,-90.9090909090909,4,2,3,80,0,1
133946,-90.9090909090909,4,2,6,80,0,1
134030,-90.9090909090909,4,2,2,80,0,1
134279,-90.9090909090909,4,2,6,80,0,1
134363,-90.9090909090909,4,2,2,80,0,1
134613,-90.9090909090909,4,2,6,80,0,1
134697,-90.9090909090909,4,2,2,80,0,1
134946,-90.9090909090909,4,2,6,80,0,1
135030,-90.9090909090909,4,2,2,80,0,1
135279,-90.9090909090909,4,2,6,80,0,1
135363,-90.9090909090909,4,2,2,80,0,1
135613,-90.9090909090909,4,2,6,80,0,1
135697,-90.9090909090909,4,2,2,80,0,1
135946,-90.9090909090909,4,2,6,80,0,1
136030,-90.9090909090909,4,2,2,80,0,1
136613,-90.9090909090909,4,2,6,80,0,1
136697,-90.9090909090909,4,2,2,80,0,1
136946,-90.9090909090909,4,2,6,80,0,1
137030,-90.9090909090909,4,2,2,80,0,1
137279,-90.9090909090909,4,2,6,80,0,1
137363,-90.9090909090909,4,2,2,80,0,1
137613,-90.9090909090909,4,2,6,80,0,1
137697,-90.9090909090909,4,2,2,80,0,1
137946,-90.9090909090909,4,2,6,80,0,1
138030,-90.9090909090909,4,2,2,80,0,1
138279,-90.9090909090909,4,2,6,80,0,1
138363,-90.9090909090909,4,2,2,80,0,1
138613,-90.9090909090909,4,2,6,80,0,1
138697,-90.9090909090909,4,2,2,80,0,1
138779,-90.9090909090909,4,2,3,80,0,1
139279,-90.9090909090909,4,2,6,80,0,1
139363,-90.9090909090909,4,2,2,80,0,1
139613,-90.9090909090909,4,2,6,80,0,1
139697,-90.9090909090909,4,2,2,80,0,1
139946,-90.9090909090909,4,2,6,80,0,1
140030,-90.9090909090909,4,2,2,80,0,1
140279,-90.9090909090909,4,2,6,80,0,1
140363,-90.9090909090909,4,2,2,80,0,1
140613,-90.9090909090909,4,2,6,80,0,1
140697,-90.9090909090909,4,2,2,80,0,1
140779,-90.9090909090909,4,2,1,80,0,1
140946,-90.9090909090909,4,2,6,80,0,1
141030,-90.9090909090909,4,2,2,80,0,1
141279,-90.9090909090909,4,2,6,80,0,1
141363,-90.9090909090909,4,2,2,80,0,1
141446,-111.111111111111,4,2,2,80,0,1
141696,-111.111111111111,4,2,2,5,0,1
141779,-111.111111111111,4,2,2,80,0,1
141946,-90.9090909090909,4,2,5,80,0,1
142279,-90.9090909090909,4,2,6,80,0,1
142363,-90.9090909090909,4,2,2,80,0,1
142613,-90.9090909090909,4,2,6,80,0,1
142697,-90.9090909090909,4,2,2,80,0,1
142946,-90.9090909090909,4,2,6,80,0,1
143030,-90.9090909090909,4,2,2,80,0,1
143279,-90.9090909090909,4,2,6,80,0,1
143363,-90.9090909090909,4,2,2,80,0,1
143613,-90.9090909090909,4,2,6,80,0,1
143697,-90.9090909090909,4,2,2,80,0,1
143946,-90.9090909090909,4,2,6,80,0,1
144030,-90.9090909090909,4,2,2,80,0,1
144613,-90.9090909090909,4,2,6,80,0,1
144697,-90.9090909090909,4,2,2,80,0,1
144946,-90.9090909090909,4,2,6,80,0,1
145030,-90.9090909090909,4,2,2,80,0,1
145279,-90.9090909090909,4,2,6,80,0,1
145363,-90.9090909090909,4,2,2,80,0,1
145613,-90.9090909090909,4,2,6,80,0,1
145696,-90.9090909090909,4,2,2,80,0,1
145946,-90.9090909090909,4,2,6,80,0,1
146030,-90.9090909090909,4,2,2,80,0,1
146279,-90.9090909090909,4,2,6,80,0,1
146363,-90.9090909090909,4,2,2,80,0,1
146613,-90.9090909090909,4,2,6,80,0,1
146697,-90.9090909090909,4,2,2,80,0,1
146779,-90.9090909090909,4,2,3,80,0,1
147279,-90.9090909090909,4,2,6,80,0,1
147363,-90.9090909090909,4,2,2,80,0,1
147613,-90.9090909090909,4,2,6,80,0,1
147697,-90.9090909090909,4,2,2,80,0,1
147946,-90.9090909090909,4,2,6,80,0,1
148030,-90.9090909090909,4,2,2,80,0,1
148279,-90.9090909090909,4,2,6,80,0,1
148363,-90.9090909090909,4,2,2,80,0,1
148613,-90.9090909090909,4,2,5,80,0,1
148946,-90.9090909090909,4,2,6,80,0,1
149030,-90.9090909090909,4,2,2,80,0,1
149279,-90.9090909090909,4,2,6,80,0,1
149363,-90.9090909090909,4,2,2,80,0,1
149946,-90.9090909090909,4,2,6,80,0,1
150030,-90.9090909090909,4,2,2,80,0,1
150279,-90.9090909090909,4,2,6,80,0,1
150363,-90.9090909090909,4,2,2,80,0,1
150613,-90.9090909090909,4,2,6,80,0,1
150697,-90.9090909090909,4,2,2,80,0,1
150779,-90.9090909090909,4,2,3,80,0,1
151613,-90.9090909090909,4,2,2,80,0,1
151946,-90.9090909090909,4,2,5,80,0,1
152279,-111.111111111111,4,2,6,75,0,0
152363,-111.111111111111,4,2,2,75,0,0
152613,-111.111111111111,4,2,6,75,0,0
152697,-111.111111111111,4,2,2,75,0,0
152946,-111.111111111111,4,2,6,75,0,0
153030,-111.111111111111,4,2,2,75,0,0
153279,-111.111111111111,4,2,6,75,0,0
153363,-111.111111111111,4,2,2,75,0,0
153446,-111.111111111111,4,2,5,75,0,0
153613,-111.111111111111,4,2,3,75,0,0
153946,-111.111111111111,4,2,5,75,0,0
154279,-111.111111111111,4,2,2,75,0,0
154613,-111.111111111111,4,2,5,75,0,0
154946,-111.111111111111,4,2,5,70,0,0
155279,-111.111111111111,4,2,6,70,0,0
155363,-111.111111111111,4,2,2,70,0,0
155613,-111.111111111111,4,2,6,70,0,0
155697,-111.111111111111,4,2,2,70,0,0
155946,-111.111111111111,4,2,6,70,0,0
156030,-111.111111111111,4,2,2,70,0,0
156279,-111.111111111111,4,2,6,70,0,0
156363,-111.111111111111,4,2,2,70,0,0
156613,-111.111111111111,4,2,6,70,0,0
156697,-111.111111111111,4,2,2,70,0,0
156946,-111.111111111111,4,2,3,70,0,0
157613,-111.111111111111,4,2,2,70,0,0
157946,-111.111111111111,4,2,6,70,0,0
158030,-111.111111111111,4,2,2,70,0,0
158279,-111.111111111111,4,2,6,70,0,0
158363,-111.111111111111,4,2,2,70,0,0
159113,-111.111111111111,4,2,3,70,0,0
160279,-111.111111111111,4,2,2,70,0,0
160613,-111.111111111111,4,2,6,70,0,0
160697,-111.111111111111,4,2,2,70,0,0
160946,-111.111111111111,4,2,6,70,0,0
161030,-111.111111111111,4,2,2,70,0,0
161279,-111.111111111111,4,2,6,70,0,0
161363,-111.111111111111,4,2,2,70,0,0
161613,-111.111111111111,4,2,6,70,0,0
161697,-111.111111111111,4,2,2,70,0,0
161946,-111.111111111111,4,2,6,70,0,0
162030,-111.111111111111,4,2,2,70,0,0
162279,-111.111111111111,4,2,3,70,0,0
162946,-111.111111111111,4,2,2,70,0,0
163279,-111.111111111111,4,2,6,70,0,0
163363,-111.111111111111,4,2,2,70,0,0
163613,-111.111111111111,4,2,6,70,0,0
163697,-111.111111111111,4,2,2,70,0,0
164446,-111.111111111111,4,2,3,70,0,0
165613,-111.111111111111,4,2,2,70,0,0
165863,-111.111111111111,4,2,2,5,0,0
165946,-111.111111111111,4,2,6,70,0,0
166030,-111.111111111111,4,2,2,70,0,0
166279,-111.111111111111,4,2,6,70,0,0
166363,-111.111111111111,4,2,2,70,0,0
166613,-111.111111111111,4,2,6,70,0,0
166697,-111.111111111111,4,2,2,70,0,0
166946,-111.111111111111,4,2,6,70,0,0
167030,-111.111111111111,4,2,2,70,0,0
167279,-111.111111111111,4,2,6,70,0,0
167363,-111.111111111111,4,2,2,70,0,0
167613,-111.111111111111,4,2,4,70,0,0
167863,-111.111111111111,4,2,4,5,0,0
167946,-111.111111111111,4,2,4,70,0,0
168196,-111.111111111111,4,2,4,5,0,0
168279,-111.111111111111,4,2,2,70,0,0
168613,-111.111111111111,4,2,6,70,0,0
168697,-111.111111111111,4,2,2,70,0,0
168946,-111.111111111111,4,2,6,70,0,0
169030,-111.111111111111,4,2,2,70,0,0
169779,-111.111111111111,4,2,3,70,0,0
170946,-125,4,2,3,55,0,0
172946,-111.111111111111,4,2,4,70,0,0
173196,-111.111111111111,4,2,4,5,0,0
173279,-111.111111111111,4,2,4,70,0,0
173613,-111.111111111111,4,2,2,70,0,0
173946,-111.111111111111,4,2,6,70,0,0
174030,-111.111111111111,4,2,2,70,0,0
174279,-111.111111111111,4,2,6,70,0,0
174363,-111.111111111111,4,2,2,70,0,0
175113,-111.111111111111,4,2,3,70,0,0
176279,-100,4,2,2,75,0,0
176529,-100,4,2,2,5,0,0
176613,-100,4,2,6,75,0,0
176696,-100,4,2,2,75,0,0
176946,-100,4,2,6,75,0,0
177029,-100,4,2,2,75,0,0
177279,-100,4,2,6,75,0,0
177362,-100,4,2,2,75,0,0
177613,-100,4,2,7,75,0,0
177696,-100,4,2,2,75,0,0
177946,-100,4,2,6,75,0,0
178029,-100,4,2,2,75,0,0
178279,-100,4,2,6,75,0,0
178362,-100,4,2,2,75,0,0
178613,-100,4,2,6,75,0,0
178696,-100,4,2,2,75,0,0
178779,-100,4,2,3,75,0,0
179279,-100,4,2,6,75,0,0
179362,-100,4,2,2,75,0,0
179613,-100,4,2,6,75,0,0
179696,-100,4,2,2,75,0,0
179946,-100,4,2,6,75,0,0
180029,-100,4,2,2,75,0,0
180279,-100,4,2,6,75,0,0
180362,-100,4,2,2,75,0,0
180613,-100,4,2,6,75,0,0
180696,-100,4,2,2,75,0,0
180946,-100,4,2,6,75,0,0
181029,-100,4,2,2,75,0,0
181279,-100,4,2,6,75,0,0
181362,-100,4,2,2,75,0,0
181946,-100,4,2,6,75,0,0
182029,-100,4,2,2,75,0,0
182279,-100,4,2,6,75,0,0
182362,-100,4,2,2,75,0,0
182613,-100,4,2,6,75,0,0
182696,-100,4,2,2,75,0,0
182946,-100,4,2,6,75,0,0
183029,-100,4,2,2,75,0,0
183279,-100,4,2,6,75,0,0
183362,-100,4,2,2,75,0,0
183613,-100,4,2,6,75,0,0
183696,-100,4,2,2,75,0,0
183946,-100,4,2,6,75,0,0
184029,-100,4,2,2,75,0,0
184113,-100,4,2,3,75,0,0
184613,-100,4,2,6,75,0,0
184696,-100,4,2,2,75,0,0
184946,-100,4,2,6,75,0,0
185029,-100,4,2,2,75,0,0
185279,-100,4,2,6,75,0,0
185362,-100,4,2,2,75,0,0
185613,-100,4,2,6,75,0,0
185696,-100,4,2,2,75,0,0
185946,-100,4,2,6,75,0,0
186029,-100,4,2,2,75,0,0
186113,-100,4,2,1,75,0,0
186279,-100,4,2,6,75,0,0
186362,-100,4,2,2,75,0,0
186613,-100,4,2,3,75,0,0
186946,-100,4,2,2,75,0,0
187196,-100,4,2,2,5,0,0
187279,-100,4,2,6,75,0,0
187362,-100,4,2,2,75,0,0
187613,-100,4,2,6,75,0,0
187696,-100,4,2,2,75,0,0
187946,-100,4,2,6,75,0,0
188029,-100,4,2,2,75,0,0
188279,-100,4,2,7,75,0,0
188362,-100,4,2,2,75,0,0
188613,-100,4,2,6,75,0,0
188696,-100,4,2,2,75,0,0
188946,-100,4,2,6,75,0,0
189029,-100,4,2,2,75,0,0
189279,-100,4,2,6,75,0,0
189362,-100,4,2,2,75,0,0
189946,-100,4,2,6,75,0,0
190029,-100,4,2,2,75,0,0
190279,-100,4,2,6,75,0,0
190362,-100,4,2,2,75,0,0
190613,-100,4,2,6,75,0,0
190696,-100,4,2,2,75,0,0
190946,-100,4,2,6,75,0,0
191029,-100,4,2,2,75,0,0
191279,-100,4,2,6,75,0,0
191362,-100,4,2,2,75,0,0
191613,-100,4,2,6,75,0,0
191696,-100,4,2,2,75,0,0
191946,-100,4,2,6,75,0,0
192029,-100,4,2,2,75,0,0
192113,-100,4,2,3,75,0,0
192613,-100,4,2,6,75,0,0
192696,-100,4,2,2,75,0,0
192946,-100,4,2,6,75,0,0
193029,-100,4,2,2,75,0,0
193279,-100,4,2,6,75,0,0
193362,-100,4,2,2,75,0,0
193613,-100,4,2,6,75,0,0
193696,-100,4,2,2,75,0,0
193946,-100,4,2,5,75,0,0
194279,-100,4,2,6,75,0,0
194362,-100,4,2,2,75,0,0
194613,-100,4,2,6,75,0,0
194696,-100,4,2,2,75,0,0
195279,-100,4,2,6,75,0,0
195362,-100,4,2,2,75,0,0
195613,-100,4,2,6,75,0,0
195696,-100,4,2,2,75,0,0
195946,-100,4,2,6,75,0,0
196029,-100,4,2,2,75,0,0
196113,-100,4,2,5,75,0,0
196613,-100,4,2,3,75,0,0
196946,-100,4,2,2,75,0,0
197279,-100,4,2,5,75,0,0
197613,-111.111111111111,4,2,2,70,0,0
197946,-111.111111111111,4,2,3,70,0,0
200279,-111.111111111111,4,2,2,70,0,0
200613,-111.111111111111,4,2,3,70,0,0
202446,-111.111111111111,4,2,5,70,0,0
202946,-111.111111111111,4,2,2,70,0,0
203279,-111.111111111111,4,2,3,70,0,0
205446,-142.857142857143,4,2,3,50,0,0
207029,-125,4,2,3,5,0,0
207279,-125,4,2,3,50,0,0
207696,-125,4,2,3,5,0,0
207946,-125,4,2,3,65,0,0
208113,-76.9230769230769,4,2,3,80,0,1
208363,-90.9090909090909,4,2,3,5,0,1
208446,-90.9090909090909,4,2,3,80,0,1
208613,-90.9090909090909,4,2,6,80,0,1
208697,-90.9090909090909,4,2,2,80,0,1
208946,-90.9090909090909,4,2,6,80,0,1
209030,-90.9090909090909,4,2,2,80,0,1
209280,-90.9090909090909,4,2,6,80,0,1
209364,-90.9090909090909,4,2,2,80,0,1
209613,-90.9090909090909,4,2,6,80,0,1
209697,-90.9090909090909,4,2,2,80,0,1
209946,-90.9090909090909,4,2,6,80,0,1
210030,-90.9090909090909,4,2,2,80,0,1
210280,-90.9090909090909,4,2,6,80,0,1
210364,-90.9090909090909,4,2,2,80,0,1
210613,-90.9090909090909,4,2,6,80,0,1
210697,-90.9090909090909,4,2,2,80,0,1
211280,-90.9090909090909,4,2,6,80,0,1
211364,-90.9090909090909,4,2,2,80,0,1
211613,-90.9090909090909,4,2,6,80,0,1
211697,-90.9090909090909,4,2,2,80,0,1
211946,-90.9090909090909,4,2,6,80,0,1
212030,-90.9090909090909,4,2,2,80,0,1
212280,-90.9090909090909,4,2,6,80,0,1
212364,-90.9090909090909,4,2,2,80,0,1
212613,-90.9090909090909,4,2,6,80,0,1
212697,-90.9090909090909,4,2,2,80,0,1
212946,-90.9090909090909,4,2,6,80,0,1
213030,-90.9090909090909,4,2,2,80,0,1
213280,-90.9090909090909,4,2,6,80,0,1
213364,-90.9090909090909,4,2,2,80,0,1
213446,-90.9090909090909,4,2,3,80,0,1
213946,-90.9090909090909,4,2,6,80,0,1
214030,-90.9090909090909,4,2,2,80,0,1
214280,-90.9090909090909,4,2,6,80,0,1
214364,-90.9090909090909,4,2,2,80,0,1
214613,-90.9090909090909,4,2,6,80,0,1
214697,-90.9090909090909,4,2,2,80,0,1
214946,-90.9090909090909,4,2,6,80,0,1
215030,-90.9090909090909,4,2,2,80,0,1
215280,-90.9090909090909,4,2,6,80,0,1
215364,-90.9090909090909,4,2,2,80,0,1
215446,-90.9090909090909,4,2,1,80,0,1
215613,-90.9090909090909,4,2,6,80,0,1
215697,-90.9090909090909,4,2,2,80,0,1
215946,-90.9090909090909,4,2,6,80,0,1
216030,-90.9090909090909,4,2,2,80,0,1
216113,-111.111111111111,4,2,2,80,0,1
216363,-111.111111111111,4,2,2,5,0,1
216446,-111.111111111111,4,2,2,80,0,1
216613,-90.9090909090909,4,2,5,80,0,1
216946,-90.9090909090909,4,2,6,80,0,1
217030,-90.9090909090909,4,2,2,80,0,1
217280,-90.9090909090909,4,2,6,80,0,1
217364,-90.9090909090909,4,2,2,80,0,1
217613,-90.9090909090909,4,2,6,80,0,1
217697,-90.9090909090909,4,2,2,80,0,1
217946,-90.9090909090909,4,2,6,80,0,1
218030,-90.9090909090909,4,2,2,80,0,1
218280,-90.9090909090909,4,2,6,80,0,1
218364,-90.9090909090909,4,2,2,80,0,1
218613,-90.9090909090909,4,2,6,80,0,1
218697,-90.9090909090909,4,2,2,80,0,1
219280,-90.9090909090909,4,2,6,80,0,1
219364,-90.9090909090909,4,2,2,80,0,1
219613,-90.9090909090909,4,2,6,80,0,1
219697,-90.9090909090909,4,2,2,80,0,1
219946,-90.9090909090909,4,2,6,80,0,1
220030,-90.9090909090909,4,2,2,80,0,1
220280,-90.9090909090909,4,2,6,80,0,1
220363,-90.9090909090909,4,2,2,80,0,1
220613,-90.9090909090909,4,2,6,80,0,1
220697,-90.9090909090909,4,2,2,80,0,1
220946,-90.9090909090909,4,2,6,80,0,1
221030,-90.9090909090909,4,2,2,80,0,1
221280,-90.9090909090909,4,2,6,80,0,1
221364,-90.9090909090909,4,2,2,80,0,1
221446,-90.9090909090909,4,2,3,80,0,1
221946,-90.9090909090909,4,2,6,80,0,1
222030,-90.9090909090909,4,2,2,80,0,1
222280,-90.9090909090909,4,2,6,80,0,1
222364,-90.9090909090909,4,2,2,80,0,1
222613,-90.9090909090909,4,2,6,80,0,1
222697,-90.9090909090909,4,2,2,80,0,1
222946,-90.9090909090909,4,2,6,80,0,1
223030,-90.9090909090909,4,2,2,80,0,1
223280,-90.9090909090909,4,2,5,80,0,1
223613,-90.9090909090909,4,2,6,80,0,1
223697,-90.9090909090909,4,2,2,80,0,1
223946,-90.9090909090909,4,2,6,80,0,1
224030,-90.9090909090909,4,2,2,80,0,1
224613,-90.9090909090909,4,2,6,80,0,1
224697,-90.9090909090909,4,2,2,80,0,1
224946,-90.9090909090909,4,2,6,80,0,1
225030,-90.9090909090909,4,2,2,80,0,1
225280,-90.9090909090909,4,2,6,80,0,1
225364,-90.9090909090909,4,2,2,80,0,1
225446,-90.9090909090909,4,2,3,80,0,1
226280,-90.9090909090909,4,2,2,80,0,1
226613,-90.9090909090909,4,2,5,80,0,1
226779,-90.9090909090909,4,2,2,75,0,1
226863,-90.9090909090909,4,2,2,75,0,0
226946,-90.9090909090909,4,2,6,75,0,1
227029,-90.9090909090909,4,2,2,75,0,1
227279,-90.9090909090909,4,2,6,75,0,1
227362,-90.9090909090909,4,2,2,75,0,1
227613,-90.9090909090909,4,2,6,75,0,1
227696,-90.9090909090909,4,2,2,75,0,1
227946,-90.9090909090909,4,2,6,75,0,1
228029,-90.9090909090909,4,2,2,75,0,1
228279,-90.9090909090909,4,2,6,75,0,1
228362,-90.9090909090909,4,2,2,75,0,1
228613,-90.9090909090909,4,2,6,75,0,1
228696,-90.9090909090909,4,2,2,75,0,1
228946,-90.9090909090909,4,2,6,75,0,1
229029,-90.9090909090909,4,2,2,75,0,1
229113,-90.9090909090909,4,2,5,75,0,1
229946,-90.9090909090909,4,2,6,75,0,1
230029,-90.9090909090909,4,2,2,75,0,1
230279,-90.9090909090909,4,2,6,75,0,1
230362,-90.9090909090909,4,2,2,75,0,1
230613,-90.9090909090909,4,2,6,75,0,1
230696,-90.9090909090909,4,2,2,75,0,1
230946,-90.9090909090909,4,2,6,75,0,1
231029,-90.9090909090909,4,2,2,75,0,1
231113,-90.9090909090909,4,2,3,75,0,1
231946,-90.9090909090909,4,2,5,75,0,1
232279,-90.9090909090909,4,2,6,75,0,1
232362,-90.9090909090909,4,2,2,75,0,1
232613,-90.9090909090909,4,2,6,75,0,1
232696,-90.9090909090909,4,2,2,75,0,1
232946,-90.9090909090909,4,2,6,75,0,1
233029,-90.9090909090909,4,2,2,75,0,1
233279,-90.9090909090909,4,2,6,75,0,1
233362,-90.9090909090909,4,2,2,75,0,1
233613,-90.9090909090909,4,2,6,75,0,1
233696,-90.9090909090909,4,2,2,75,0,1
233946,-90.9090909090909,4,2,6,75,0,1
234029,-90.9090909090909,4,2,2,75,0,1
234446,-90.9090909090909,4,2,5,75,0,1
234946,-90.9090909090909,4,2,3,75,0,1
235279,-90.9090909090909,4,2,6,75,0,1
235362,-90.9090909090909,4,2,2,75,0,1
235613,-90.9090909090909,4,2,6,75,0,1
235696,-90.9090909090909,4,2,2,75,0,1
235946,-90.9090909090909,4,2,6,75,0,1
236029,-90.9090909090909,4,2,2,75,0,1
236779,-90.9090909090909,4,2,5,75,0,1
237613,-125,4,2,2,60,0,0

[Colours]
Combo1 : 255,128,64
Combo2 : 255,64,64
SliderBorder : 200,200,200
SliderTrackOverride : 25,34,58

[HitObjects]
100,276,10279,5,14,0:0:0:0:
116,252,10613,1,10,0:0:0:0:
136,228,10946,5,14,0:0:0:0:
256,104,11113,1,10,0:1:0:0:
308,264,11279,2,0,P|352:284|392:276,1,90,10|8,0:2|0:1,0:0:0:0:
308,44,11613,2,0,P|264:24|224:32,1,90,10|10,0:2|0:1,0:0:0:0:
88,144,11946,1,10,0:2:0:0:
256,104,12113,1,10,0:1:0:0:
44,72,12279,6,0,P|8:116|20:196,1,135,8|0,0:2|0:0,0:0:0:0:
36,228,12613,1,10,0:2:0:0:
124,376,12779,1,10,0:1:0:0:
252,256,12946,1,10,0:2:0:0:
72,304,13113,1,12,0:1:0:0:
72,304,13196,1,8,0:1:0:0:
72,304,13279,2,0,P|108:272|120:232,1,90,10|12,0:2|0:1,0:0:0:0:
200,68,13613,6,0,B|256:56|256:56|276:68|276:68|332:56,1,135,10|0,0:2|0:0,0:0:0:0:
372,48,13946,1,10,0:2:0:0:
480,184,14113,1,8,0:1:0:0:
332,268,14279,2,0,P|340:312|320:356,1,90,10|10,0:2|0:1,0:0:0:0:
300,168,14613,2,0,P|344:160|388:180,1,90,10|10,0:2|0:1,0:0:0:0:
322,352,14946,1,8,0:2:0:0:
216,200,15113,5,14,0:1:0:0:
216,200,15196,1,10,0:1:0:0:
216,200,15279,2,0,P|208:156|228:112,1,90,10|14,0:2|0:1,0:0:0:0:
84,12,15613,1,10,0:2:0:0:
52,184,15779,1,10,0:1:0:0:
176,60,15946,1,14,0:2:0:0:
0,104,16113,1,8,0:2:0:0:
216,200,16279,6,0,P|268:172|336:196,1,135,14|0,0:2|0:0,0:0:0:0:
368,220,16613,1,10,0:2:0:0:
248,344,16779,1,8,0:1:0:0:
416,292,16946,2,0,P|448:256|456:216,1,90,10|10,0:2|0:1,0:0:0:0:
380,40,17279,2,0,P|348:76|340:116,1,90,10|10,0:2|0:1,0:0:0:0:
320,292,17613,6,0,B|276:284|248:244|248:244|200:256,1,135,8|0,0:2|0:0,0:0:0:0:
164,268,17946,1,10,0:2:0:0:
8,188,18113,1,10,0:1:0:0:
148,88,18279,1,10,0:2:0:0:
60,248,18446,1,14,0:1:0:0:
28,56,18613,1,10,0:2:0:0:
184,168,18779,1,12,0:1:0:0:
16,324,18946,6,0,P|80:332|136:288,1,135,14|0,0:2|0:0,0:0:0:0:
164,260,19279,1,10,0:2:0:0:
264,116,19446,1,8,0:1:0:0:
300,288,19613,2,0,P|336:308|384:300,1,90,10|10,0:2|0:1,0:0:0:0:
488,136,19946,2,0,P|452:116|404:124,1,90,10|14,0:2|0:1,0:0:0:0:
500,288,20279,1,8,0:2:0:0:
408,204,20446,5,10,0:2:0:0:
432,376,20613,1,10,0:2:0:0:
320,168,20779,1,10,0:2:0:0:
344,384,20946,1,10,0:2:0:0:
236,136,21113,1,10,0:2:0:0:
236,136,21196,1,10,0:1:0:0:
236,136,21279,1,10,0:2:0:0:
164,360,21446,1,10,0:2:0:0:
44,136,21613,6,0,P|100:68|192:64,1,180,14|10,0:1|0:2,0:0:0:0:
160,236,22113,2,0,P|164:188|144:152,1,90,0|10,0:0|0:1,0:0:0:0:
264,44,22446,1,10,0:1:0:0:
288,224,22613,1,10,0:2:0:0:
432,112,22779,2,0,P|476:152|480:268,1,180,10|2,0:2|0:2,0:0:0:0:
360,356,23279,1,10,0:2:0:0:
320,144,23446,5,10,0:1:0:0:
320,144,23529,1,8,0:2:0:0:
320,144,23613,1,8,0:1:0:0:
200,276,23779,1,10,0:1:0:0:
136,100,23946,2,0,P|180:116|204:152,1,90,10|10,0:2|0:1,0:0:0:0:
449,56,24279,6,0,B|411:80|413:128|413:128|315:144,1,180,14|10,0:1|0:2,0:0:0:0:
480,212,24779,2,0,P|500:172|492:128,1,90,2|10,0:0|0:1,0:0:0:0:
344,44,25113,1,10,0:1:0:0:
280,224,25279,1,10,0:2:0:0:
172,72,25446,2,0,B|92:84|92:84|72:112|72:112|0:124,1,180,10|2,0:2|0:2,0:0:0:0:
24,12,25946,1,10,0:2:0:0:
164,196,26113,5,2,0:2:0:0:
164,196,26196,1,2,0:2:0:0:
164,196,26279,2,0,P|148:240|160:288,1,90,10|8,0:1|0:1,0:0:0:0:
256,348,26613,1,10,0:2:0:0:
64,280,26779,1,8,0:1:0:0:
228,136,26946,6,0,P|296:112|380:168,1,180,14|10,0:1|0:2,0:0:0:0:
244,280,27446,2,0,P|284:244|292:204,1,90,2|10,0:0|0:1,0:0:0:0:
336,36,27779,1,10,0:1:0:0:
448,224,27946,1,10,0:2:0:0:
424,32,28113,2,0,P|408:80|292:120,1,180,10|2,0:2|0:2,0:0:0:0:
168,20,28613,1,10,0:2:0:0:
112,200,28779,5,10,0:1:0:0:
112,200,28863,1,8,0:2:0:0:
112,200,28946,1,8,0:1:0:0:
244,60,29113,1,10,0:1:0:0:
52,140,29279,2,0,P|24:180|24:220,1,90,10|8,0:2|0:1,0:0:0:0:
188,340,29613,6,0,B|240:292|288:324|344:252,1,180,14|10,0:1|0:2,0:0:0:0:
472,100,30113,1,8,0:1:0:0:
472,100,30196,1,8,0:2:0:0:
472,100,30279,1,14,0:1:0:0:
460,300,30446,1,10,0:1:0:0:
308,172,30613,1,10,0:2:0:0:
488,188,30779,2,0,P|416:164|392:64,1,180,14|10,0:2|0:2,0:0:0:0:
248,16,31279,1,10,0:2:0:0:
204,232,31446,5,10,0:1:0:0:
204,232,31529,1,10,0:1:0:0:
204,232,31613,2,0,P|232:268|240:312,1,90,8|10,0:2|0:1,0:0:0:0:
160,140,31946,1,10,0:2:0:0:
136,356,32113,1,10,0:2:0:0:
284,180,32279,6,0,P|355:217|451:193,1,161.999995056153,14|8,0:1|0:2,0:0:0:0:
433,204,32946,1,10,0:1:0:0:
376,72,33113,1,10,0:1:0:0:
284,180,33279,1,10,0:2:0:0:
212,52,33446,2,0,P|156:12|60:16,1,161.999995056153,10|8,0:1|0:1,0:0:0:0:
64,196,33946,6,0,P|108:156|120:96,1,121.499996292114,10|0,0:2|0:0,0:0:0:0:
36,116,34279,1,10,0:1:0:0:
8,264,34446,1,10,0:1:0:0:
156,228,34613,1,8,0:2:0:0:
196,368,34779,6,0,P|256:344|352:376,1,161.999995056153,10|10,0:1|0:1,0:0:0:0:
456,152,35279,2,0,P|440:224|428:316,1,161.999995056153,10|8,0:2|0:1,0:0:0:0:
320,180,35779,1,8,0:1:0:0:
320,180,35946,2,0,P|336:108|348:16,1,161.999995056153,8|8,0:2|0:1,0:0:0:0:
347,20,36446,1,0,0:0:0:0:
148,64,36613,6,0,P|196:56|228:68,1,80.9999975280763,8|8,0:2|0:1,0:0:0:0:
240,108,36863,1,8,0:1:0:0:
240,108,36946,2,0,P|248:156|236:188,1,80.9999975280763,8|8,0:1|0:1,0:0:0:0:
136,268,37279,1,8,0:2:0:0:
272,352,37446,6,0,P|336:344|400:272,1,161.999995056153,10|8,0:1|0:1,0:0:0:0:
364,108,37946,2,0,P|300:116|236:188,1,161.999995056153,10|10,0:2|0:1,0:0:0:0:
412,184,38446,1,10,0:1:0:0:
412,184,38529,1,10,0:1:0:0:
412,184,38613,1,10,0:2:0:0:
344,20,38779,6,0,B|288:12|256:44|256:44|188:32,1,161.999995056153,10|8,0:1|0:1,0:0:0:0:
72,104,39279,1,10,0:2:0:0:
152,212,39446,1,2,0:0:0:0:
152,212,39529,1,2,0:0:0:0:
152,212,39613,2,0,P|176:176|176:136,1,80.9999975280763,10|10,0:1|0:1,0:0:0:0:
40,200,39946,1,8,0:2:0:0:
96,328,40113,1,10,0:1:0:0:
248,192,40279,5,2,0:3:0:0:
116,52,40446,2,0,L|160:36,1,45,8|8,0:1|0:1,0:0:0:0:
232,8,40613,1,8,0:2:0:0:
116,180,40779,1,8,0:1:0:0:
324,100,40946,5,10,0:1:0:0:
324,100,41029,1,10,0:1:0:0:
324,100,41113,1,8,0:1:0:0:
264,308,41279,1,8,0:2:0:0:
300,300,41363,1,8,0:1:0:0:
336,292,41446,1,8,0:1:0:0:
372,284,41529,1,8,0:1:0:0:
408,276,41613,5,10,0:1:0:0:
260,148,41779,1,8,0:1:0:0:
224,156,41863,1,8,0:1:0:0:
188,164,41946,1,8,0:2:0:0:
152,172,42029,1,8,0:1:0:0:
116,180,42113,6,0,P|140:216|140:268,1,90,2|8,0:2|0:1,0:0:0:0:
16,336,42446,1,8,0:2:0:0:
16,336,42529,1,8,0:2:0:0:
16,336,42613,1,8,0:2:0:0:
36,160,42779,1,8,0:1:0:0:
36,160,42863,1,8,0:1:0:0:
36,160,42946,5,14,0:1:0:0:
141,261,43113,1,8,0:1:0:0:
172,120,43279,2,0,P|208:88|288:88,1,121.499996292114,8|0,0:2|0:0,0:0:0:0:
320,96,43613,2,0,P|348:64|352:16,1,80.9999975280763,10|8,0:1|0:1,0:0:0:0:
484,0,43946,1,10,0:2:0:0:
512,132,44113,2,0,P|484:164|480:212,1,80.9999975280763,10|8,0:1|0:1,0:0:0:0:
408,312,44446,1,0,0:0:0:0:
280,204,44613,2,0,P|324:192|360:208,1,80.9999975280763,10|0,0:2|0:0,0:0:0:0:
488,280,44946,5,10,0:1:0:0:
416,144,45113,1,10,0:1:0:0:
416,144,45196,1,10,0:1:0:0:
416,144,45279,1,8,0:2:0:0:
316,280,45446,2,0,P|272:312|168:296,1,161.999995056153,10|10,0:1|0:1,0:0:0:0:
68,328,45946,2,0,P|124:300|148:188,1,161.999995056153,10|8,0:2|0:1,0:0:0:0:
96,80,46446,1,8,0:1:0:0:
272,44,46613,6,0,P|232:28|192:36,1,80.9999975280763,8|8,0:2|0:1,0:0:0:0:
264,160,46946,2,0,P|304:176|344:168,1,80.9999975280763,8|0,0:1|0:0,0:0:0:0:
448,64,47279,1,8,0:2:0:0:
484,220,47446,1,10,0:1:0:0:
484,220,47529,1,8,0:2:0:0:
484,220,47613,1,8,0:1:0:0:
364,92,47779,1,10,0:1:0:0:
368,260,47946,1,8,0:2:0:0:
448,64,48113,6,0,P|392:16|292:36,1,161.999995056153,10|10,0:1|0:1,0:0:0:0:
236,160,48613,2,0,B|180:148|180:148|160:160|160:160|108:152,1,121.499996292114,8|0,0:2|0:0,0:0:0:0:
76,144,48946,1,10,0:1:0:0:
204,232,49113,1,10,0:1:0:0:
160,4,49279,2,0,P|136:40|136:76,1,80.9999975280763,10|10,0:2|0:1,0:0:0:0:
280,32,49613,1,8,0:1:0:0:
312,176,49779,1,0,0:0:0:0:
440,84,49946,6,0,P|400:76|356:92,1,80.9999975280763,10|0,0:2|0:0,0:0:0:0:
248,224,50279,1,10,0:1:0:0:
408,156,50446,1,10,0:1:0:0:
408,156,50529,1,10,0:1:0:0:
408,156,50613,1,8,0:2:0:0:
280,32,50779,1,2,0:2:0:0:
128,160,50946,6,0,P|152:120|152:76,1,90,10|8,0:1|0:1,0:0:0:0:
224,232,51279,2,0,P|200:272|200:316,1,90,8|0,0:2|0:0,0:0:0:0:
392,356,51613,2,0,P|356:316|276:296,1,135,10|0,0:1|0:0,0:0:0:0:
304,384,51946,1,8,0:2:0:0:
360,220,52113,1,2,0:2:0:0:
480,344,52279,5,10,0:1:0:0:
424,160,52446,1,10,0:1:0:0:
424,160,52529,1,10,0:1:0:0:
424,160,52613,2,0,P|380:136|336:136,1,90,8|10,0:2|0:1,0:0:0:0:
212,272,52946,1,8,0:2:0:0:
124,104,53113,6,0,L|132:56,1,45,10|8,0:1|0:1,0:0:0:0:
48,16,53279,1,8,0:2:0:0:
21,51,53362,1,8,0:1:0:0:
9,94,53445,1,8,0:1:0:0:
15,139,53529,1,8,0:1:0:0:
38,177,53613,6,0,P|88:196|124:264,1,121.499996292114,14|0,0:1|0:0,0:0:0:0:
132,296,53946,2,0,P|196:288|256:316,1,121.499996292114,12|0,0:1|0:0,0:0:0:0:
280,332,54279,1,10,0:2:0:0:
360,240,54446,1,8,0:1:0:0:
412,352,54613,1,10,0:2:0:0:
500,264,54779,2,0,P|468:220|472:112,1,161.999995056153,10|0,0:1|0:0,0:0:0:0:
392,12,55279,6,0,P|340:24|284:64,1,121.499996292114,10|0,0:1|0:0,0:0:0:0:
256,92,55613,1,10,0:1:0:0:
244,216,55779,1,10,0:2:0:0:
104,144,55946,2,0,P|148:136|184:152,1,80.9999975280763,8|0,0:1|0:0,0:0:0:0:
344,180,56279,5,14,0:1:0:0:
344,180,56613,2,0,P|360:240|340:296,1,121.499996292114,14|0,0:1|0:0,0:0:0:0:
316,328,56946,1,10,0:2:0:0:
244,216,57113,1,8,0:1:0:0:
160,316,57279,1,10,0:2:0:0:
100,200,57446,6,0,B|80:156|100:120|100:120|64:32,1,161.999995056153,10|8,0:1|0:2,0:0:0:0:
175,161,57946,2,0,B|248:132|248:132|284:152|328:132,1,161.999995056153,10|8,0:1|0:1,0:0:0:0:
420,0,58446,1,10,0:2:0:0:
504,140,58613,1,10,0:2:0:0:
336,40,58779,1,10,0:2:0:0:
432,220,58946,5,14,0:1:0:0:
432,220,59279,2,0,P|392:220|328:284,1,121.499996292114,14|0,0:1|0:0,0:0:0:0:
320,312,59613,1,10,0:2:0:0:
280,176,59779,1,8,0:1:0:0:
412,300,59946,1,10,0:2:0:0:
240,252,60113,6,0,B|168:240|168:240|144:252|144:252|76:240,1,161.999995056153,10|2,0:1|0:0,0:0:0:0:
116,48,60613,2,0,P|136:88|128:164,1,121.499996292114,10|0,0:1|0:0,0:0:0:0:
60,112,60946,1,10,0:1:0:0:
196,20,61113,1,14,0:2:0:0:
240,164,61279,1,8,0:1:0:0:
356,60,61446,1,10,0:1:0:0:
408,200,61613,6,0,P|424:244|416:288,1,90,14|8,0:1|0:1,0:0:0:0:
316,384,61946,1,8,0:2:0:0:
236,272,62113,1,0,0:0:0:0:
356,136,62279,6,0,P|400:120|444:128,1,90,10|8,0:1|0:1,0:0:0:0:
512,220,62613,1,8,0:2:0:0:
384,308,62779,1,8,0:1:0:0:
288,184,62946,6,0,P|272:140|280:96,1,90,2|8,0:3|0:1,0:0:0:0:
144,0,63279,1,8,0:2:0:0:
88,156,63446,1,0,0:0:0:0:
328,32,63613,6,0,P|284:16|240:24,1,90,10|8,0:1|0:1,0:0:0:0:
52,64,63946,1,8,0:2:0:0:
168,236,64113,5,2,0:0:0:0:
168,236,64196,1,2,0:0:0:0:
168,236,64279,1,10,0:1:0:0:
0,124,64446,1,10,0:1:0:0:
144,0,64613,1,10,0:2:0:0:
72,264,64779,2,0,P|108:308|228:320,1,180,10|10,0:1|0:1,0:0:0:0:
388,280,65279,1,10,0:2:0:0:
272,104,65446,6,0,P|224:128|176:248,1,180,10|10,0:1|0:1,0:0:0:0:
324,184,65946,1,10,0:2:0:0:
208,20,66113,1,10,0:1:0:0:
208,20,66196,1,10,0:1:0:0:
208,20,66279,1,10,0:2:0:0:
372,48,66446,1,10,0:2:0:0:
212,136,66613,1,10,0:2:0:0:
436,0,66779,6,0,P|452:44|400:125,1,148.50000453186,14|0,0:1|0:0,0:0:0:0:
367,138,67113,1,10,0:1:0:0:
216,255,67279,1,10,0:2:0:0:
136,80,67446,1,2,0:2:0:0:
136,80,67529,1,2,0:0:0:0:
136,80,67613,2,0,P|84:72|44:96,1,99.0000030212403,10|10,0:1|0:1,0:0:0:0:
0,284,67946,1,10,0:2:0:0:
180,164,68113,6,0,P|244:168|332:272,1,198.000006042481,10|8,0:1|0:1,0:0:0:0:
496,160,68613,1,10,0:2:0:0:
360,344,68779,2,0,P|311:347|268:323,1,99.0000030212403,2|8,0:2|0:1,0:0:0:0:
180,164,69113,1,8,0:1:0:0:
268,323,69279,1,8,0:2:0:0:
236,88,69446,6,0,B|180:60|136:84|136:84|44:64,1,198.000006042481,14|10,0:1|0:1,0:0:0:0:
112,248,69946,1,10,0:2:0:0:
304,36,70113,1,2,0:2:0:0:
304,36,70196,1,2,0:0:0:0:
304,36,70279,2,0,P|320:84|308:136,1,99.0000030212403,10|10,0:1|0:1,0:0:0:0:
220,304,70613,1,10,0:2:0:0:
420,232,70779,6,0,B|356:212|356:212|308:224|308:224|224:192,1,198.000006042481,10|8,0:1|0:1,0:0:0:0:
368,332,71279,1,10,0:2:0:0:
440,132,71446,1,8,0:1:0:0:
440,132,71529,1,8,0:2:0:0:
440,132,71613,2,0,P|468:88|464:40,1,99.0000030212403,10|10,0:1|0:1,0:0:0:0:
288,12,71946,1,10,0:2:0:0:
412,248,72113,6,0,P|419:151|356:77,1,198.000006042481,14|8,0:1|0:1,0:0:0:0:
184,16,72613,1,8,0:2:0:0:
96,188,72779,1,2,0:0:0:0:
96,188,72863,1,2,0:0:0:0:
96,188,72946,2,0,P|136:152|136:96,1,99.0000030212403,10|8,0:1|0:1,0:0:0:0:
288,12,73279,1,10,0:2:0:0:
340,200,73446,6,0,P|408:228|456:340,1,198.000006042481,10|8,0:1|0:1,0:0:0:0:
308,296,73946,1,8,0:2:0:0:
360,96,74113,1,2,0:2:0:0:
360,96,74196,1,2,0:0:0:0:
360,96,74279,2,0,P|408:104|448:132,1,99.0000030212403,10|8,0:1|0:1,0:0:0:0:
512,236,74613,1,10,0:2:0:0:
308,296,74779,6,0,P|252:296|176:232,1,148.50000453186,14|0,0:1|0:0,0:0:0:0:
168,204,75113,1,10,0:1:0:0:
104,360,75279,1,10,0:2:0:0:
0,228,75446,1,2,0:2:0:0:
0,228,75529,1,2,0:0:0:0:
0,228,75613,2,0,P|-12:180|4:132,1,99.0000030212403,10|8,0:1|0:1,0:0:0:0:
140,16,75946,1,10,0:2:0:0:
200,184,76113,6,0,B|252:168|272:112|272:112|364:80,1,198.000006042481,10|10,0:1|0:1,0:0:0:0:
176,104,76613,1,10,0:2:0:0:
348,180,76779,1,8,0:3:0:0:
348,180,76863,1,4,0:3:0:0:
348,180,76946,1,10,0:1:0:0:
276,4,77113,1,10,0:2:0:0:
252,240,77279,1,10,0:2:0:0:
412,12,77446,6,0,P|436:56|428:128,1,121.499996292114,14|0,0:1|0:0,0:0:0:0:
358,81,77779,1,10,0:1:0:0:
284,312,77946,6,0,P|232:320|192:296,1,99.0000030212403,14|2,0:2|0:2,0:0:0:0:
160,272,78196,1,2,0:0:0:0:
160,272,78279,1,10,0:1:0:0:
200,92,78446,1,10,0:1:0:0:
24,140,78613,1,10,0:2:0:0:
232,0,78779,6,0,P|272:44|264:176,1,198.000006042481,10|8,0:1|0:1,0:0:0:0:
184,360,79279,1,10,0:2:0:0:
156,164,79446,1,2,0:2:0:0:
156,164,79529,1,2,0:0:0:0:
156,164,79613,1,8,0:1:0:0:
348,272,79779,1,8,0:1:0:0:
148,288,79946,1,8,0:2:0:0:
348,364,80113,6,0,P|400:340|408:204,1,198.000006042481,14|10,0:1|0:1,0:0:0:0:
304,48,80613,1,10,0:2:0:0:
456,144,80779,1,2,0:2:0:0:
456,144,80863,1,2,0:0:0:0:
456,144,80946,2,0,P|408:132|360:144,1,99.0000030212403,10|10,0:1|0:1,0:0:0:0:
232,292,81279,1,10,0:2:0:0:
152,112,81446,6,0,P|68:64|-24:96,1,198.000006042481,10|8,0:1|0:1,0:0:0:0:
64,240,81946,1,10,0:2:0:0:
224,56,82113,1,8,0:1:0:0:
224,56,82196,1,8,0:2:0:0:
224,56,82279,1,10,0:1:0:0:
16,168,82446,1,10,0:1:0:0:
208,264,82613,1,10,0:2:0:0:
148,0,82779,6,0,P|136:56|228:152,1,198.000006042481,14|8,0:1|0:1,0:0:0:0:
384,72,83279,1,8,0:2:0:0:
388,244,83446,1,0,0:0:0:0:
420,0,83613,2,0,P|360:-4|312:24,1,99.0000030212403,10|8,0:1|0:1,0:0:0:0:
288,40,83863,1,8,0:1:0:0:
288,40,83946,1,10,0:2:0:0:
388,244,84113,6,0,P|436:200|460:68,1,198.000006042481,10|8,0:1|0:1,0:0:0:0:
300,148,84613,1,12,0:2:0:0:
444,324,84779,1,2,0:2:0:0:
444,324,84863,1,2,0:0:0:0:
444,324,84946,2,0,P|484:296|516:252,1,99.0000030212403,10|8,0:1|0:1,0:0:0:0:
461,74,85279,1,10,0:2:0:0:
276,224,85446,6,0,B|220:200|220:200|196:204|196:204|140:176,1,148.50000453186,14|0,0:1|0:0,0:0:0:0:
100,156,85779,1,10,0:1:0:0:
212,296,85946,1,10,0:2:0:0:
192,104,86113,1,2,0:2:0:0:
192,104,86196,1,2,0:0:0:0:
192,104,86279,2,0,P|200:52|232:20,1,99.0000030212403,10|8,0:1|0:1,0:0:0:0:
392,44,86613,1,10,0:2:0:0:
240,184,86779,6,0,B|140:216|140:148|44:192,1,198.000006042481,14|8,0:1|0:1,0:0:0:0:
104,308,87279,1,14,0:2:0:0:
192,104,87446,1,8,0:1:0:0:
192,104,87529,1,8,0:2:0:0:
192,104,87613,1,14,0:1:0:0:
47,190,87779,1,8,0:1:0:0:
208,268,87946,1,14,0:2:0:0:
108,120,88113,1,10,0:1:0:0:
32,272,88279,5,14,0:2:0:0:
272,140,88446,1,14,0:2:0:0:
456,164,88779,5,10,0:2:0:0:
216,32,88946,1,10,0:2:0:0:
68,172,89279,5,10,0:2:0:0:
308,40,89446,1,10,0:2:0:0:
324,152,89779,5,10,0:2:0:0:
84,20,89946,1,10,0:2:0:0:
156,236,90279,5,2,0:3:0:0:
324,152,90446,1,8,0:1:0:0:
324,152,90529,1,8,0:1:0:0:
324,152,90613,2,0,P|372:160|416:216,1,121.499996292114,14|0,0:2|0:0,0:0:0:0:
428,256,90946,5,14,0:1:0:0:
428,256,91279,2,0,P|384:264|296:340,1,161.999995056153,14|10,0:1|0:2,0:0:0:0:
184,280,91779,1,10,0:2:0:0:
296,338,91946,1,10,0:2:0:0:
132,356,92113,2,0,P|104:316|120:208,1,161.999995056153,10|10,0:1|0:2,0:0:0:0:
208,72,92613,1,10,0:1:0:0:
196,180,92779,5,2,0:2:0:0:
196,180,92863,1,2,0:0:0:0:
196,180,92946,2,0,P|168:148|132:132,1,80.9999975280763,8|10,0:1|0:2,0:0:0:0:
0,132,93279,2,0,P|28:164|64:180,1,80.9999975280763,10|0,0:1|0:0,0:0:0:0:
208,72,93613,5,14,0:1:0:0:
208,72,93946,2,0,B|276:64|276:64|300:76|300:76|368:68,1,161.999995056153,14|10,0:1|0:2,0:0:0:0:
476,136,94446,1,10,0:2:0:0:
432,199,94613,2,0,P|464:171|476:135,1,80.9999975280763,10|10,0:2|0:1,0:0:0:0:
410,4,94946,2,0,P|378:32|366:68,1,80.9999975280763,2|10,0:0|0:2,0:0:0:0:
332,216,95279,1,10,0:1:0:0:
332,216,95613,1,8,0:1:0:0:
224,100,95779,5,10,0:2:0:0:
104,204,95946,1,10,0:2:0:0:
212,320,96112,1,10,0:2:0:0:
224,100,96279,6,0,P|256:80|300:84,1,80.9999975280763,14|0,0:1|0:0,0:0:0:0:
432,128,96613,2,0,P|440:184|412:252,1,121.499996292114,8|0,0:2|0:0,0:0:0:0:
392,276,96946,1,10,0:1:0:0:
272,352,97113,1,10,0:1:0:0:
232,216,97279,1,10,0:2:0:0:
348,132,97446,6,0,B|288:112|288:112|260:120|260:120|192:96,1,161.999995056153,10|8,0:1|0:1,0:0:0:0:
44,172,97946,2,0,P|76:144|88:100,1,80.9999975280763,10|0,0:2|0:0,0:0:0:0:
200,16,98279,1,10,0:1:0:0:
200,16,98363,1,10,0:1:0:0:
200,16,98446,1,10,0:1:0:0:
176,180,98613,1,8,0:2:0:0:
292,68,98779,6,0,P|332:84|380:196,1,161.999995056153,10|10,0:1|0:1,0:0:0:0:
252,272,99279,2,0,B|336:240|336:296|412:272,1,161.999995056153,10|8,0:2|0:1,0:0:0:0:
300,348,99779,1,8,0:1:0:0:
204,200,99946,2,0,B|120:232|120:176|44:200,1,161.999995056153,8|8,0:2|0:1,0:0:0:0:
156,120,100446,1,0,0:0:0:0:
80,280,100613,6,0,P|76:320|100:360,1,80.9999975280763,8|0,0:2|0:0,0:0:0:0:
236,332,100946,1,8,0:1:0:0:
212,184,101113,1,10,0:1:0:0:
212,184,101196,1,8,0:1:0:0:
212,184,101279,1,8,0:2:0:0:
340,272,101446,6,0,B|412:232|412:232|448:256|488:248,1,161.999995056153,10|8,0:1|0:1,0:0:0:0:
448,24,101946,2,0,P|476:68|472:136,1,121.499996292114,10|0,0:2|0:0,0:0:0:0:
464,172,102279,1,10,0:1:0:0:
352,76,102446,1,10,0:1:0:0:
352,76,102529,1,10,0:1:0:0:
352,76,102613,1,10,0:2:0:0:
276,196,102779,6,0,P|208:220|132:172,1,161.999995056153,10|8,0:1|0:1,0:0:0:0:
76,48,103279,1,10,0:2:0:0:
212,136,103446,1,0,0:0:0:0:
52,164,103613,2,0,P|28:204|28:244,1,80.9999975280763,10|10,0:1|0:1,0:0:0:0:
212,136,103946,2,0,P|236:96|236:56,1,80.9999975280763,8|10,0:2|0:1,0:0:0:0:
404,12,104279,5,10,0:1:0:0:
444,200,104446,2,0,L|456:248,1,45,8|8,0:1|0:1,0:0:0:0:
476,328,104613,1,8,0:2:0:0:
336,228,104779,1,8,0:1:0:0:
244,368,104946,5,10,0:1:0:0:
244,368,105029,1,10,0:1:0:0:
244,368,105113,1,8,0:1:0:0:
104,260,105279,1,8,0:2:0:0:
83,230,105362,1,8,0:1:0:0:
71,196,105445,1,8,0:1:0:0:
68,161,105528,1,8,0:1:0:0:
75,125,105612,5,10,0:1:0:0:
240,20,105779,1,8,0:1:0:0:
260,49,105862,1,8,0:1:0:0:
272,83,105945,1,8,0:2:0:0:
275,118,106028,1,8,0:1:0:0:
268,154,106112,5,2,0:2:0:0:
216,304,106279,1,8,0:1:0:0:
384,276,106446,1,8,0:2:0:0:
384,276,106529,1,8,0:1:0:0:
384,276,106613,1,8,0:2:0:0:
208,216,106779,1,8,0:1:0:0:
208,216,106863,1,8,0:1:0:0:
208,216,106946,6,0,P|168:208|128:220,1,80.9999975280763,14|8,0:1|0:1,0:0:0:0:
44,336,107279,1,8,0:2:0:0:
4,200,107446,1,2,0:2:0:0:
172,292,107613,2,0,P|161:330|169:369,1,80.9999975280763,10|10,0:1|0:1,0:0:0:0:
312,308,107946,1,10,0:2:0:0:
240,180,108113,6,0,P|276:152|300:40,1,161.999995056153,2|8,0:2|0:1,0:0:0:0:
444,20,108613,1,10,0:2:0:0:
300,43,108779,1,0,0:0:0:0:
424,104,108946,2,0,P|468:112|496:136,1,80.9999975280763,10|10,0:1|0:1,0:0:0:0:
504,180,109196,1,2,0:0:0:0:
504,180,109279,1,8,0:2:0:0:
332,328,109446,6,0,P|388:296|428:200,1,161.999995056153,2|10,0:2|0:1,0:0:0:0:
320,112,109946,2,0,B|256:128|256:128|244:152|244:152|176:172,1,161.999995056153,10|8,0:2|0:1,0:0:0:0:
48,204,110446,1,8,0:1:0:0:
20,16,110613,2,0,P|68:40|96:144,1,161.999995056153,8|8,0:2|0:1,0:0:0:0:
56,292,111113,1,8,0:1:0:0:
177,171,111279,6,0,P|208:200|216:240,1,80.9999975280763,8|0,0:2|0:0,0:0:0:0:
156,360,111613,1,8,0:1:0:0:
216,236,111779,1,8,0:1:0:0:
320,328,111946,1,8,0:2:0:0:
320,328,112029,1,8,0:1:0:0:
320,328,112113,1,8,0:1:0:0:
392,192,112279,6,0,B|368:140|388:96|388:96|364:32,1,161.999995056153,10|8,0:1|0:2,0:0:0:0:
292,92,112779,1,2,0:2:0:0:
468,140,112946,2,0,P|496:172|500:212,1,80.9999975280763,10|10,0:1|0:1,0:0:0:0:
388,316,113279,1,10,0:2:0:0:
304,192,113446,1,2,0:2:0:0:
468,140,113613,6,0,P|496:108|500:68,1,80.9999975280763,8|8,0:1|0:1,0:0:0:0:
368,0,113946,1,10,0:2:0:0:
268,112,114113,1,0,0:0:0:0:
124,8,114279,2,0,P|164:0|204:16,1,80.9999975280763,10|10,0:1|0:1,0:0:0:0:
344,76,114613,1,8,0:2:0:0:
192,140,114779,1,2,0:2:0:0:
324,200,114946,6,0,B|316:248|344:288|344:288|328:376,1,180,10|8,0:1|0:2,0:0:0:0:
220,288,115446,1,0,0:0:0:0:
408,224,115613,2,0,P|460:180|456:68,1,180,10|8,0:1|0:2,0:0:0:0:
320,16,116113,1,0,0:0:0:0:
176,140,116279,5,10,0:2:0:0:
388,136,116446,1,10,0:1:0:0:
204,8,116613,1,8,0:2:0:0:
252,252,116779,1,10,0:1:0:0:
252,252,116863,1,10,0:1:0:0:
252,252,116946,1,8,0:2:0:0:
32,64,117113,6,0,L|56:112,1,45,10|8,0:1|0:1,0:0:0:0:
52,196,117279,1,8,0:2:0:0:
52,241,117363,1,8,0:1:0:0:
63,285,117446,1,8,0:1:0:0:
85,324,117529,1,8,0:1:0:0:
116,357,117613,6,0,P|148:312|212:300,1,121.499996292114,14|0,0:1|0:0,0:0:0:0:
248,304,117946,2,0,P|284:280|312:200,1,121.499996292114,14|0,0:1|0:0,0:0:0:0:
316,168,118279,1,10,0:2:0:0:
212,96,118446,1,8,0:1:0:0:
332,56,118613,1,10,0:2:0:0:
204,180,118779,6,0,P|152:160|128:60,1,161.999995056153,10|0,0:1|0:0,0:0:0:0:
0,140,119279,2,0,P|52:160|76:260,1,161.999995056153,10|10,0:1|0:1,0:0:0:0:
24,368,119779,1,10,0:2:0:0:
77,255,119946,1,8,0:1:0:0:
184,324,120113,1,0,0:0:0:0:
224,204,120279,1,14,0:1:0:0:
224,204,120613,6,0,B|264:212|292:184|292:184|320:224,1,121.499996292114,14|0,0:1|0:0,0:0:0:0:
344,256,120946,1,10,0:2:0:0:
416,140,121113,1,8,0:1:0:0:
480,256,121279,1,10,0:2:0:0:
496,92,121446,2,0,P|456:64|344:76,1,161.999995056153,10|8,0:1|0:2,0:0:0:0:
228,184,121946,2,0,P|256:144|244:32,1,161.999995056153,10|8,0:1|0:1,0:0:0:0:
92,96,122446,5,10,0:2:0:0:
228,184,122613,1,10,0:2:0:0:
164,28,122779,1,10,0:2:0:0:
52,168,122946,1,14,0:1:0:0:
52,168,123279,6,0,P|24:216|32:280,1,121.499996292114,14|0,0:1|0:0,0:0:0:0:
56,320,123613,1,10,0:2:0:0:
160,232,123779,1,8,0:1:0:0:
224,352,123946,1,10,0:2:0:0:
328,256,124113,2,0,P|396:280|472:232,1,161.999995056153,10|0,0:1|0:0,0:0:0:0:
356,44,124613,6,0,L|384:172,1,121.499996292114,10|0,0:1|0:0,0:0:0:0:
392,200,124946,1,10,0:1:0:0:
280,108,125113,1,14,0:2:0:0:
460,84,125279,1,8,0:1:0:0:
396,220,125446,1,10,0:1:0:0:
280,108,125613,6,0,P|232:124|208:160,1,90,14|8,0:1|0:1,0:0:0:0:
168,296,125946,1,8,0:2:0:0:
56,196,126113,1,0,0:0:0:0:
288,196,126279,6,0,P|322:223|334:266,1,90,10|8,0:1|0:1,0:0:0:0:
468,352,126613,1,8,0:2:0:0:
480,196,126779,1,8,0:1:0:0:
300,344,126946,6,0,P|265:316|253:273,1,90,2|8,0:3|0:1,0:0:0:0:
320,108,127279,1,8,0:2:0:0:
144,136,127446,1,0,0:0:0:0:
356,36,127613,6,0,P|390:63|402:106,1,90,10|8,0:1|0:1,0:0:0:0:
360,276,127946,1,8,0:2:0:0:
320,108,128113,1,0,0:0:0:0:
492,204,128279,5,10,0:1:0:0:
252,164,128446,1,8,0:1:0:0:
252,164,128529,1,8,0:1:0:0:
252,164,128613,1,10,0:2:0:0:
460,0,128779,2,0,P|472:52|396:160,1,180,10|10,0:1|0:1,0:0:0:0:
264,288,129279,1,10,0:2:0:0:
97,113,129446,6,0,P|149:101|257:177,1,180,10|10,0:1|0:2,0:0:0:0:
160,192,129863,1,10,0:2:0:0:
160,192,129946,1,10,0:2:0:0:
244,24,130113,1,10,0:2:0:0:
360,172,130279,5,6,0:3:0:0:
400,72,130446,1,6,0:3:0:0:
500,116,130613,1,6,0:3:0:0:
291,117,130779,6,0,P|235:121|162:70,1,148.50000453186,14|0,0:1|0:0,0:0:0:0:
136,40,131113,1,10,0:1:0:0:
24,192,131279,1,10,0:2:0:0:
168,320,131446,1,2,0:2:0:0:
168,320,131529,1,2,0:0:0:0:
168,320,131613,2,0,P|208:292|256:296,1,99.0000030212403,10|10,0:1|0:1,0:0:0:0:
428,312,131946,1,10,0:2:0:0:
352,92,132113,6,0,P|388:152|344:272,1,198.000006042481,10|8,0:1|0:1,0:0:0:0:
236,136,132613,1,10,0:2:0:0:
416,24,132779,1,2,0:2:0:0:
416,24,132863,1,2,0:0:0:0:
416,24,132946,1,8,0:1:0:0:
480,184,133113,1,8,0:1:0:0:
512,16,133279,1,8,0:2:0:0:
288,60,133446,6,0,B|200:48|200:48|176:60|176:60|92:48,1,198.000006042481,14|10,0:1|0:1,0:0:0:0:
44,240,133946,1,10,0:2:0:0:
236,136,134113,1,2,0:2:0:0:
236,136,134196,1,2,0:0:0:0:
236,136,134279,2,0,P|292:132|328:156,1,99.0000030212403,10|10,0:1|0:1,0:0:0:0:
356,344,134613,1,10,0:2:0:0:
408,100,134779,6,0,P|412:172|316:260,1,198.000006042481,10|8,0:1|0:1,0:0:0:0:
176,352,135279,1,10,0:2:0:0:
216,164,135446,1,8,0:1:0:0:
216,164,135529,1,8,0:2:0:0:
216,164,135613,1,10,0:1:0:0:
28,228,135779,1,10,0:1:0:0:
216,276,135946,1,10,0:2:0:0:
100,88,136113,6,0,B|172:24|192:88|288:8,1,198.000006042481,14|8,0:1|0:1,0:0:0:0:
452,96,136613,1,8,0:2:0:0:
336,240,136779,1,2,0:0:0:0:
336,240,136863,1,2,0:0:0:0:
336,240,136946,2,0,P|304:196|308:144,1,99.0000030212403,10|8,0:1|0:1,0:0:0:0:
392,20,137279,1,10,0:2:0:0:
424,224,137446,6,0,P|412:284|292:320,1,198.000006042481,10|8,0:1|0:1,0:0:0:0:
184,184,137946,1,8,0:2:0:0:
96,356,138113,1,2,0:2:0:0:
96,356,138196,1,2,0:0:0:0:
96,356,138279,2,0,P|52:332|32:288,1,99.0000030212403,10|8,0:1|0:1,0:0:0:0:
4,116,138613,1,10,0:2:0:0:
212,56,138779,6,0,B|264:64|304:28|304:28|400:52,1,198.000006042481,14|10,0:1|0:1,0:0:0:0:
416,228,139279,1,10,0:2:0:0:
488,36,139446,1,2,0:2:0:0:
488,36,139529,1,2,0:0:0:0:
488,36,139613,2,0,P|484:88|456:124,1,99.0000030212403,10|8,0:1|0:1,0:0:0:0:
476,304,139946,1,10,0:2:0:0:
320,188,140113,6,0,P|236:144|128:164,1,198.000006042481,10|10,0:1|0:1,0:0:0:0:
52,316,140613,1,10,0:2:0:0:
0,136,140779,1,8,0:3:0:0:
0,136,140863,1,4,0:3:0:0:
0,136,140946,1,10,0:1:0:0:
172,248,141113,1,10,0:2:0:0:
0,236,141279,1,10,0:2:0:0:
108,88,141446,6,0,P|132:44|200:24,1,121.499996292114,14|0,0:1|0:0,0:0:0:0:
236,32,141779,1,10,0:1:0:0:
364,232,141946,6,0,P|412:216|436:176,1,99.0000030212403,14|2,0:2|0:2,0:0:0:0:
448,132,142196,1,2,0:0:0:0:
448,132,142279,1,10,0:1:0:0:
448,324,142446,1,10,0:1:0:0:
272,216,142613,1,10,0:2:0:0:
168,380,142779,6,0,P|92:356|60:244,1,198.000006042481,10|8,0:1|0:1,0:0:0:0:
204,112,143279,1,10,0:2:0:0:
148,288,143446,1,2,0:2:0:0:
148,288,143529,1,2,0:0:0:0:
148,288,143613,1,8,0:1:0:0:
60,140,143779,1,8,0:1:0:0:
220,216,143946,1,8,0:2:0:0:
336,28,144113,6,0,P|412:12|504:84,1,198.000006042481,14|10,0:1|0:1,0:0:0:0:
364,228,144613,1,10,0:2:0:0:
252,60,144779,1,2,0:2:0:0:
252,60,144863,1,2,0:0:0:0:
252,60,144946,2,0,P|216:96|208:144,1,99.0000030212403,8|10,0:1|0:1,0:0:0:0:
272,328,145279,1,10,0:2:0:0:
452,192,145446,6,0,P|496:132|480:8,1,198.000006042481,10|8,0:1|0:1,0:0:0:0:
304,56,145946,1,10,0:2:0:0:
336,252,146113,1,8,0:1:0:0:
336,252,146196,1,8,0:2:0:0:
336,252,146279,1,10,0:1:0:0:
184,140,146446,1,10,0:1:0:0:
384,112,146613,1,10,0:2:0:0:
188,16,146779,6,0,B|112:36|112:36|104:60|104:60|8:88,1,198.000006042481,14|8,0:1|0:1,0:0:0:0:
40,252,147279,1,8,0:2:0:0:
184,140,147446,1,2,0:0:0:0:
184,140,147529,1,2,0:0:0:0:
184,140,147613,2,0,P|224:176|232:224,1,99.0000030212403,10|8,0:1|0:1,0:0:0:0:
224,376,147946,1,10,0:2:0:0:
328,229,148113,6,0,P|320:133|252:64,1,198.000006042481,10|8,0:1|0:1,0:0:0:0:
392,8,148613,1,12,0:2:0:0:
496,160,148779,1,2,0:2:0:0:
496,160,148863,1,2,0:0:0:0:
496,160,148946,2,0,P|492:216|460:256,1,99.0000030212403,10|8,0:1|0:1,0:0:0:0:
320,336,149279,1,10,0:2:0:0:
320,152,149446,6,0,P|376:156|416:188,1,99.0000030212403,14|0,0:1|0:0,0:0:0:0:
320,336,149779,1,10,0:1:0:0:
232,176,149946,2,0,P|236:120|268:80,1,99.0000030212403,10|2,0:2|0:2,0:0:0:0:
292,56,150196,1,2,0:0:0:0:
292,56,150279,1,10,0:1:0:0:
136,92,150446,1,8,0:1:0:0:
184,248,150613,1,10,0:2:0:0:
364,120,150779,6,0,B|376:168|428:184|428:184|400:288,1,198.000006042481,14|8,0:1|0:1,0:0:0:0:
244,360,151279,1,14,0:2:0:0:
132,184,151446,1,8,0:2:0:0:
132,184,151529,1,8,0:2:0:0:
132,184,151613,1,14,0:1:0:0:
288,276,151779,1,8,0:1:0:0:
76,252,151946,2,0,P|48:208|48:156,1,99.0000030212403,14|10,0:2|0:1,0:0:0:0:
144,40,152279,5,10,0:1:0:0:
248,156,152446,1,8,0:1:0:0:
248,156,152529,1,8,0:1:0:0:
248,156,152613,2,0,P|272:124|312:108,1,80.9999975280763,8|8,0:2|0:1,0:0:0:0:
496,200,152946,2,0,L|468:152,1,40.4999987640381,8|8,0:1|0:1,0:0:0:0:
432,96,153113,1,8,0:1:0:0:
384,256,153279,1,8,0:2:0:0:
208,232,153446,5,4,0:2:0:0:
208,232,153529,1,8,0:1:0:0:
208,232,153613,2,0,P|176:208|160:168,1,80.9999975280763,14|8,0:1|0:1,0:0:0:0:
184,20,153946,1,14,0:2:0:0:
16,80,154113,1,8,0:1:0:0:
16,80,154196,1,8,0:2:0:0:
16,80,154279,1,12,0:1:0:0:
216,108,154446,1,10,0:1:0:0:
76,4,154613,1,12,0:2:0:0:
76,4,154696,1,8,0:2:0:0:
76,4,154779,1,8,0:1:0:0:
32,208,154946,5,14,0:1:0:0:
208,200,155113,2,0,P|260:184|300:88,1,161.999995056153,2|2,0:2|0:2,0:0:0:0:
392,8,155613,1,10,0:2:0:0:
300,91,155779,1,0,0:0:0:0:
436,124,155946,1,10,0:1:0:0:
384,48,156113,2,0,P|336:16|228:28,1,161.999995056153,10|10,0:1|0:1,0:0:0:0:
128,116,156613,2,0,P|152:148|160:188,1,80.9999975280763,10|0,0:1|0:0,0:0:0:0:
100,344,156946,5,14,0:2:0:0:
80,184,157113,1,8,0:1:0:0:
224,248,157279,2,0,P|256:224|296:216,1,80.9999975280763,14|8,0:2|0:1,0:0:0:0:
456,180,157613,5,14,0:1:0:0:
388,8,157779,2,0,P|364:52|372:164,1,161.999995056153,2|2,0:2|0:2,0:0:0:0:
408,308,158279,1,10,0:2:0:0:
456,180,158446,1,8,0:1:0:0:
312,216,158613,2,0,P|272:208|232:224,1,80.9999975280763,10|10,0:3|0:3,0:0:0:0:
132,324,158946,1,8,0:2:0:0:
284,368,159113,2,0,P|292:328|276:288,1,80.9999975280763,10|10,0:3|0:3,0:0:0:0:
160,192,159446,1,8,0:2:0:0:
132,324,159613,5,10,0:1:0:0:
40,164,159779,1,10,0:2:0:0:
12,344,159946,1,10,0:2:0:0:
204,272,160113,1,10,0:2:0:0:
80,92,160279,5,14,0:1:0:0:
192,28,160446,2,0,B|264:36|264:36|280:56|280:56|348:64,1,161.999995056153,2|10,0:2|0:1,0:0:0:0:
464,120,160946,2,0,P|480:160|472:200,1,80.9999975280763,10|8,0:2|0:2,0:0:0:0:
408,312,161279,1,10,0:1:0:0:
240,160,161446,2,0,P|308:156|380:220,1,161.999995056153,10|10,0:1|0:1,0:0:0:0:
232,308,161946,2,0,P|264:284|284:240,1,80.9999975280763,10|0,0:1|0:0,0:0:0:0:
216,72,162279,5,14,0:2:0:0:
282,248,162446,1,8,0:1:0:0:
344,56,162613,1,14,0:2:0:0:
160,160,162779,1,8,0:1:0:0:
376,208,162946,5,14,0:1:0:0:
312,336,163113,2,0,P|264:336|184:256,1,161.999995056153,2|2,0:2|0:2,0:0:0:0:
32,292,163613,2,0,P|76:284|104:256,1,80.9999975280763,10|8,0:2|0:1,0:0:0:0:
48,128,163946,1,10,0:3:0:0:
185,261,164113,2,0,P|177:217|149:189,1,80.9999975280763,10|8,0:3|0:2,0:0:0:0:
196,36,164446,5,10,0:3:0:0:
152,191,164613,1,10,0:3:0:0:
276,84,164779,1,8,0:2:0:0:
116,80,164946,1,10,0:2:0:0:
244,196,165113,1,10,0:2:0:0:
68,268,165279,1,10,0:2:0:0:
192,124,165446,1,10,0:2:0:0:
244,312,165613,6,0,P|288:344|360:332,1,121.499996292114,14|0,0:1|0:0,0:0:0:0:
392,320,165946,2,0,P|400:280|384:244,1,80.9999975280763,10|2,0:1|0:2,0:0:0:0:
308,128,166279,1,10,0:2:0:0:
384,244,166446,1,0,0:0:0:0:
488,144,166613,2,0,P|448:136|412:152,1,80.9999975280763,10|10,0:1|0:1,0:0:0:0:
308,251,166946,2,0,P|348:259|384:243,1,80.9999975280763,2|10,0:3|0:1,0:0:0:0:
308,128,167279,1,10,0:1:0:0:
308,251,167446,1,0,0:0:0:0:
164,128,167613,6,0,B|124:132|100:156|100:156|48:140,1,121.499996292114,14|0,0:2|0:0,0:0:0:0:
164,212,167946,2,0,P|192:248|196:328,1,121.499996292114,14|0,0:2|0:0,0:0:0:0:
120,288,168279,2,0,P|80:296|48:324,1,80.9999975280763,14|2,0:1|0:2,0:0:0:0:
64,188,168613,2,0,P|56:148|28:116,1,80.9999975280763,10|2,0:1|0:2,0:0:0:0:
96,0,168946,1,10,0:2:0:0:
30,117,169113,1,8,0:1:0:0:
164,108,169279,6,0,P|194:82|234:74,1,80.9999975280763,10|10,0:3|0:3,0:0:0:0:
360,44,169613,1,8,0:2:0:0:
328,164,169779,1,10,0:3:0:0:
234,74,169946,2,0,P|220:36|228:-8,1,80.9999975280763,10|8,0:3|0:2,0:0:0:0:
360,44,170279,1,10,0:1:0:0:
244,160,170446,1,10,0:2:0:0:
412,116,170613,1,10,0:2:0:0:
234,74,170779,1,10,0:2:0:0:
328,164,170946,6,0,P|352:208|328:296,1,144,2|0,0:2|0:0,0:0:0:0:
248,316,171446,1,2,0:2:0:0:
248,316,171613,2,0,P|315:336|396:352,2,144,2|2|0,0:2|0:2|0:0,0:0:0:0:
80,260,172613,1,2,0:2:0:0:
80,260,172779,1,2,0:0:0:0:
148,136,172946,6,0,P|196:104|220:36,1,121.499996292114,14|0,0:2|0:0,0:0:0:0:
248,16,173279,1,14,0:2:0:0:
100,56,173446,1,8,0:1:0:0:
192,212,173613,6,0,P|228:192|256:164,1,80.9999975280763,14|2,0:1|0:2,0:0:0:0:
376,144,173946,2,0,P|396:180|424:208,1,80.9999975280763,8|2,0:1|0:2,0:0:0:0:
404,328,174279,2,0,P|368:348|340:376,1,80.9999975280763,10|8,0:2|0:1,0:0:0:0:
218,383,174613,2,0,P|198:347|170:319,1,80.9999975280763,10|10,0:3|0:3,0:0:0:0:
72,224,174946,1,8,0:1:0:0:
24,340,175113,1,10,0:3:0:0:
170,319,175279,2,0,P|212:296|228:264,1,80.9999975280763,10|8,0:3|0:1,0:0:0:0:
156,80,175613,5,10,0:2:0:0:
226,267,175779,1,10,0:2:0:0:
417,209,175946,1,10,0:2:0:0:
347,22,176112,1,10,0:2:0:0:
300,304,176279,6,0,P|256:344|172:332,1,135,14|0,0:1|0:0,0:0:0:0:
144,328,176613,1,8,0:2:0:0:
24,244,176779,1,0,0:0:0:0:
112,128,176946,2,0,P|132:84|128:40,1,90,8|8,0:1|0:1,0:0:0:0:
4,104,177279,1,10,0:2:0:0:
196,164,177446,5,10,0:1:0:0:
196,164,177529,1,10,0:1:0:0:
196,164,177613,2,0,P|244:156|280:176,1,90,2|8,0:3|0:1,0:0:0:0:
376,280,177946,1,10,0:2:0:0:
216,320,178113,2,0,P|235:280|226:237,1,90,2|8,0:2|0:1,0:0:0:0:
204,72,178446,1,10,0:1:0:0:
104,192,178613,1,10,0:2:0:0:
284,112,178779,6,0,B|352:104|352:104|376:116|376:116|464:104,1,180,14|10,0:1|0:1,0:0:0:0:
408,344,179279,2,0,P|460:284|444:188,1,180,10|8,0:2|0:1,0:0:0:0:
284,112,179779,1,8,0:1:0:0:
296,284,179946,2,0,P|328:252|336:208,1,90,8|8,0:2|0:1,0:0:0:0:
240,44,180279,2,0,P|208:76|200:120,1,90,2|8,0:3|0:1,0:0:0:0:
336,209,180613,1,8,0:2:0:0:
344,40,180779,5,8,0:1:0:0:
344,40,180863,1,8,0:2:0:0:
344,40,180946,1,10,0:1:0:0:
199,118,181113,1,8,0:1:0:0:
388,144,181279,1,10,0:2:0:0:
224,264,181446,6,0,P|160:316|64:288,1,180,14|10,0:1|0:1,0:0:0:0:
4,164,181946,1,10,0:2:0:0:
92,44,182113,1,2,0:2:0:0:
92,44,182196,1,2,0:0:0:0:
92,44,182279,2,0,P|144:48|176:76,1,90,10|8,0:1|0:1,0:0:0:0:
284,176,182613,1,10,0:2:0:0:
308,32,182779,6,0,B|267:122|223:87|200:176,1,180,10|8,0:1|0:1,0:0:0:0:
148,312,183279,1,8,0:2:0:0:
201,172,183446,1,2,0:2:0:0:
288,292,183613,1,10,0:1:0:0:
124,216,183779,1,8,0:1:0:0:
124,216,183863,1,8,0:1:0:0:
124,216,183946,1,10,0:2:0:0:
296,384,184113,6,0,P|348:352|364:236,1,180,14|10,0:1|0:1,0:0:0:0:
332,76,184613,1,10,0:2:0:0:
492,128,184779,1,2,0:2:0:0:
492,128,184863,1,2,0:0:0:0:
492,128,184946,2,0,P|452:152|404:148,1,90,10|8,0:1|0:1,0:0:0:0:
376,8,185279,1,10,0:2:0:0:
248,108,185446,6,0,B|204:104|176:64|176:64|80:52,1,180,2|0,0:2|0:0,0:0:0:0:
128,160,185946,1,10,0:2:0:0:
252,24,186113,1,4,0:3:0:0:
84,52,186279,1,10,0:1:0:0:
228,200,186446,1,10,0:2:0:0:
164,8,186613,1,12,0:2:0:0:
8,148,186779,5,8,0:2:0:0:
8,148,186863,1,8,0:1:0:0:
8,148,186946,2,0,P|48:184|64:264,1,135,14|0,0:1|0:0,0:0:0:0:
56,304,187279,2,0,P|104:308|136:336,1,90,8|0,0:2|0:0,0:0:0:0:
244,228,187613,1,8,0:1:0:0:
134,334,187779,1,8,0:1:0:0:
280,356,187946,5,10,0:2:0:0:
160,208,188113,1,8,0:1:0:0:
160,208,188196,1,8,0:1:0:0:
160,208,188279,2,0,P|184:168|228:148,1,90,2|8,0:3|0:1,0:0:0:0:
364,104,188613,1,10,0:2:0:0:
302,289,188779,2,0,P|262:265|242:221,1,90,2|8,0:2|0:1,0:0:0:0:
272,72,189113,1,10,0:1:0:0:
328,212,189279,1,10,0:2:0:0:
188,36,189446,6,0,P|264:-8|348:28,1,180,14|10,0:1|0:1,0:0:0:0:
408,208,189946,2,0,B|424:140|424:140|456:120|456:120|468:48,1,180,10|8,0:2|0:1,0:0:0:0:
496,204,190446,1,8,0:1:0:0:
380,72,190613,2,0,P|336:64|292:76,1,90,8|8,0:2|0:1,0:0:0:0:
300,272,190946,2,0,P|308:228|296:184,1,90,2|8,0:3|0:1,0:0:0:0:
188,72,191279,1,8,0:2:0:0:
228,232,191446,5,8,0:1:0:0:
228,232,191529,1,8,0:2:0:0:
228,232,191613,1,10,0:1:0:0:
292,75,191779,1,8,0:1:0:0:
124,152,191946,1,10,0:2:0:0:
320,184,192113,6,0,B|348:180|364:160|364:160|348:288,1,180,14|10,0:1|0:1,0:0:0:0:
200,268,192613,1,10,0:2:0:0:
300,104,192779,1,2,0:2:0:0:
300,104,192863,1,2,0:0:0:0:
300,104,192946,2,0,P|324:64|324:16,1,90,10|8,0:1|0:1,0:0:0:0:
168,12,193279,1,10,0:2:0:0:
136,228,193446,6,0,P|188:192|212:76,1,180,10|8,0:1|0:1,0:0:0:0:
64,96,193946,1,12,0:2:0:0:
136,228,194113,1,0,0:0:0:0:
213,83,194279,1,10,0:1:0:0:
52,192,194446,1,8,0:1:0:0:
52,192,194529,1,8,0:1:0:0:
52,192,194613,1,10,0:2:0:0:
232,304,194779,6,0,B|270:344|313:328|313:328|344:365|394:344,1,180,14|10,0:1|0:1,0:0:0:0:
492,232,195279,1,10,0:2:0:0:
394,344,195446,1,2,0:2:0:0:
340,208,195613,2,0,P|320:168|324:120,1,90,10|8,0:1|0:1,0:0:0:0:
448,12,195946,1,10,0:2:0:0:
252,64,196113,2,0,P|320:40|408:92,1,180,6|0,0:2|0:0,0:0:0:0:
468,244,196613,5,14,0:2:0:0:
322,123,196779,1,8,0:1:0:0:
322,123,196863,1,8,0:2:0:0:
322,123,196946,1,14,0:1:0:0:
264,300,197113,1,10,0:1:0:0:
392,196,197279,1,14,0:2:0:0:
384,360,197446,1,8,0:1:0:0:
248,184,197613,5,14,0:1:0:0:
248,184,197946,2,0,P|208:168|168:172,1,80.9999975280763,14|0,0:1|0:0,0:0:0:0:
92,264,198279,1,10,0:2:0:0:
170,171,198446,1,8,0:1:0:0:
40,172,198613,1,10,0:2:0:0:
196,256,198779,6,0,P|264:292|352:264,1,161.999995056153,10|8,0:1|0:2,0:0:0:0:
424,184,199279,2,0,B|436:120|436:120|456:96|456:96|468:24,1,161.999995056153,10|10,0:1|0:1,0:0:0:0:
512,172,199779,1,14,0:2:0:0:
384,60,199946,2,0,P|344:56|304:72,1,80.9999975280763,8|10,0:1|0:2,0:0:0:0:
216,168,200279,6,0,B|176:160|152:124|152:124|112:128|76:92,2,161.999995056153,14|12|10,0:1|0:1|0:2,0:0:0:0:
0,296,201113,2,0,P|68:280|112:192,1,161.999995056153,8|8,0:1|0:1,0:0:0:0:
140,44,201613,1,10,0:2:0:0:
32,160,201779,1,8,0:1:0:0:
196,104,201946,2,0,P|220:68|220:24,1,80.9999975280763,8|8,0:1|0:2,0:0:0:0:
60,12,202279,1,10,0:1:0:0:
132,160,202446,2,0,P|168:184|212:184,1,80.9999975280763,12|12,0:1|0:1,0:0:0:0:
320,84,202779,1,8,0:2:0:0:
364,280,202946,5,14,0:1:0:0:
488,120,203113,1,10,0:1:0:0:
488,120,203196,1,10,0:1:0:0:
488,120,203279,1,14,0:2:0:0:
240,36,203446,2,0,P|184:40|104:116,1,161.999995056153,10|10,0:1|0:2,0:0:0:0:
32,212,203946,1,2,0:2:0:0:
216,276,204113,2,0,P|240:204|192:116,1,161.999995056153,10|8,0:2|0:1,0:0:0:0:
320,28,204613,5,8,0:2:0:0:
206,128,204779,1,8,0:1:0:0:
360,144,204946,1,8,0:2:0:0:
212,24,205113,1,8,0:2:0:0:
424,68,205279,1,8,0:2:0:0:
206,128,205446,1,10,0:2:0:0:
109,20,207946,5,10,0:2:0:0:
292,168,208113,6,0,B|277:240|277:240|288:270|288:270|272:342,1,175.499991966248,14|0,0:1|0:0,0:0:0:0:
264,380,208446,1,10,0:1:0:0:
376,232,208613,1,10,0:2:0:0:
184,280,208779,1,2,0:0:0:0:
184,280,208863,1,2,0:0:0:0:
184,280,208946,1,10,0:1:0:0:
376,348,209113,1,10,0:1:0:0:
392,136,209279,1,10,0:2:0:0:
232,12,209446,6,0,P|188:56|192:184,1,198.000006042481,10|8,0:1|0:1,0:0:0:0:
300,80,209946,1,10,0:2:0:0:
104,32,210113,1,8,0:1:0:0:
104,32,210196,1,8,0:2:0:0:
104,32,210279,1,10,0:1:0:0:
60,224,210446,1,10,0:1:0:0:
12,32,210613,1,8,0:2:0:0:
192,184,210779,6,0,B|252:200|292:160|292:160|376:212,1,198.000006042481,14|8,0:1|0:1,0:0:0:0:
356,344,211279,1,8,0:2:0:0:
436,144,211446,1,2,0:0:0:0:
436,144,211529,1,2,0:0:0:0:
436,144,211613,1,10,0:1:0:0:
292,256,211779,1,8,0:1:0:0:
488,232,211946,1,10,0:2:0:0:
368,40,212113,6,0,B|316:20|280:52|280:52|240:16|176:56,1,198.000006042481,10|8,0:1|0:1,0:0:0:0:
40,132,212613,1,8,0:2:0:0:
228,232,212779,1,2,0:2:0:0:
228,232,212863,1,2,0:0:0:0:
228,232,212946,2,0,P|216:184|176:152,1,99.0000030212403,10|8,0:1|0:1,0:0:0:0:
88,44,213279,1,10,0:2:0:0:
188,324,213446,6,0,P|268:312|316:212,1,198.000006042481,14|10,0:1|0:1,0:0:0:0:
376,24,213946,1,10,0:2:0:0:
504,188,214113,1,2,0:2:0:0:
504,188,214196,1,2,0:0:0:0:
504,188,214279,1,10,0:1:0:0:
300,76,214446,1,8,0:1:0:0:
504,32,214613,1,10,0:2:0:0:
444,256,214779,6,0,B|396:208|340:248|272:168,1,198.000006042481,10|10,0:1|0:1,0:0:0:0:
372,316,215279,1,10,0:2:0:0:
368,128,215446,1,8,0:3:0:0:
368,128,215529,1,4,0:3:0:0:
368,128,215613,1,10,0:1:0:0:
216,252,215779,1,10,0:2:0:0:
452,148,215946,1,10,0:2:0:0:
244,40,216113,6,0,P|184:24|128:48,1,121.499996292114,14|0,0:1|0:0,0:0:0:0:
96,76,216446,1,10,0:1:0:0:
72,304,216613,6,0,P|104:264|108:212,1,99.0000030212403,14|2,0:2|0:2,0:0:0:0:
108,176,216863,1,2,0:0:0:0:
108,176,216946,1,10,0:1:0:0:
8,16,217113,1,10,0:1:0:0:
192,104,217279,1,10,0:2:0:0:
8,192,217446,6,0,P|48:244|176:232,1,198.000006042481,10|8,0:1|0:1,0:0:0:0:
280,76,217946,1,10,0:2:0:0:
336,264,218113,1,2,0:2:0:0:
336,264,218196,1,2,0:0:0:0:
336,264,218279,2,0,P|312:308|316:356,1,99.0000030212403,8|8,0:1|0:1,0:0:0:0:
484,264,218613,1,8,0:2:0:0:
376,52,218779,6,0,B|308:40|308:40|264:60|264:60|180:48,1,198.000006042481,14|10,0:1|0:1,0:0:0:0:
140,240,219279,1,10,0:2:0:0:
328,128,219446,1,2,0:2:0:0:
328,128,219529,1,2,0:0:0:0:
328,128,219613,1,8,0:1:0:0:
116,104,219779,1,10,0:1:0:0:
248,272,219946,1,10,0:2:0:0:
272,32,220113,6,0,P|368:24|436:96,1,198.000006042481,10|8,0:1|0:1,0:0:0:0:
472,280,220613,1,10,0:2:0:0:
340,108,220779,1,8,0:1:0:0:
340,108,220863,1,8,0:2:0:0:
340,108,220946,2,0,P|328:160|296:192,1,99.0000030212403,10|10,0:1|0:1,0:0:0:0:
140,288,221279,1,10,0:2:0:0:
52,56,221446,6,0,P|140:76|180:176,1,198.000006042481,14|8,0:1|0:1,0:0:0:0:
52,320,221946,1,8,0:2:0:0:
240,264,222113,1,2,0:0:0:0:
240,264,222196,1,2,0:0:0:0:
240,264,222279,1,10,0:1:0:0:
80,156,222446,1,8,0:1:0:0:
156,336,222613,1,10,0:2:0:0:
256,164,222779,6,0,B|328:176|328:176|352:200|352:200|444:216,1,198.000006042481,10|8,0:1|0:1,0:0:0:0:
280,272,223279,1,12,0:2:0:0:
400,36,223446,1,2,0:2:0:0:
400,36,223529,1,2,0:0:0:0:
400,36,223613,2,0,P|416:84|400:140,1,99.0000030212403,10|8,0:1|0:1,0:0:0:0:
204,228,223946,1,10,0:2:0:0:
80,32,224113,6,0,B|136:32|164:-8|164:-8|244:60,1,198.000006042481,14|10,0:1|0:1,0:0:0:0:
316,232,224613,1,10,0:2:0:0:
116,144,224779,1,2,0:2:0:0:
116,144,224863,1,2,0:0:0:0:
116,144,224946,2,0,P|64:136|16:160,1,99.0000030212403,10|8,0:1|0:1,0:0:0:0:
0,320,225279,1,10,0:2:0:0:
176,48,225446,6,0,P|208:100|180:240,1,198.000006042481,14|8,0:1|0:1,0:0:0:0:
76,48,225946,1,14,0:2:0:0:
284,16,226113,1,8,0:2:0:0:
284,16,226196,1,8,0:2:0:0:
284,16,226279,2,0,P|336:28|368:60,1,99.0000030212403,14|8,0:1|0:1,0:0:0:0:
248,220,226613,2,0,P|247:171|272:129,1,99.0000030212403,10|14,0:2|0:1,0:0:0:0:
492,4,226946,5,10,0:2:0:0:
272,129,227113,1,10,0:1:0:0:
444,268,227279,5,10,0:2:0:0:
319,48,227446,1,8,0:1:0:0:
224,256,227613,5,10,0:2:0:0:
444,131,227780,1,10,0:1:0:0:
312,348,227946,5,10,0:2:0:0:
187,128,228113,1,10,0:1:0:0:
24,272,228279,5,10,0:2:0:0:
139,47,228446,1,10,0:1:0:0:
288,220,228613,5,8,0:2:0:0:
63,105,228780,1,10,0:1:0:0:
112,336,228946,6,0,P|164:344|200:320,1,99.0000030212403,8|14,0:2|0:1,0:0:0:0:
240,292,229196,1,10,0:1:0:0:
240,292,229279,2,0,P|280:324|304:364,1,99.0000030212403,10|14,0:2|0:1,0:0:0:0:
336,116,229613,5,10,0:2:0:0:
456,352,229779,1,10,0:1:0:0:
412,64,229947,5,10,0:2:0:0:
375,325,230113,1,8,0:1:0:0:
488,92,230279,5,10,0:2:0:0:
307,284,230445,1,10,0:1:0:0:
504,172,230613,5,10,0:2:0:0:
245,225,230779,1,10,0:1:0:0:
476,252,230946,5,10,0:2:0:0:
233,146,231112,1,14,0:1:0:0:
233,146,231196,1,8,0:1:0:0:
233,146,231279,5,8,0:2:0:0:
404,292,231446,1,14,0:1:0:0:
116,288,231613,6,0,P|64:296|28:328,1,99.0000030212403,8|10,0:2|0:1,0:0:0:0:
172,88,231946,2,0,P|164:36|132:0,1,99.0000030212403,14|10,0:2|0:2,0:0:0:0:
216,276,232279,5,14,0:2:0:0:
400,56,232446,1,10,0:1:0:0:
176,172,232613,5,10,0:2:0:0:
396,356,232780,1,8,0:1:0:0:
400,56,232946,5,10,0:2:0:0:
216,276,233113,1,10,0:1:0:0:
468,188,233279,5,10,0:2:0:0:
240,32,233446,1,10,0:1:0:0:
104,280,233613,5,10,0:2:0:0:
28,20,233779,1,10,0:1:0:0:
284,140,233946,5,8,0:2:0:0:
16,248,234113,1,14,0:1:0:0:
240,32,234279,6,0,P|292:20|336:32,1,99.0000030212403,8|14,0:2|0:1,0:0:0:0:
460,296,234613,2,0,P|412:308|364:296,1,99.0000030212403,10|14,0:2|0:1,0:0:0:0:
160,72,234946,5,14,0:2:0:0:
444,176,235113,1,10,0:1:0:0:
216,352,235279,5,10,0:2:0:0:
324,64,235446,1,8,0:1:0:0:
460,296,235613,5,10,0:2:0:0:
176,176,235779,1,10,0:1:0:0:
424,16,235946,5,10,0:2:0:0:
288,276,236113,1,14,0:1:0:0:
84,48,236279,5,10,0:2:0:0:
40,308,236446,1,14,0:2:0:0:
224,92,236613,1,8,0:2:0:0:
0,228,236780,1,14,0:2:0:0:
288,160,236946,1,8,0:2:0:0:
8,108,237113,1,14,0:2:0:0:
244,244,237279,1,10,0:2:0:0:
176,12,237446,1,10,0:2:0:0:
76,176,237613,5,10,0:2:0:0:
224,92,237779,1,10,0:1:0:0:
264,328,238113,1,10,0:1:0:0:
76,176,238446,1,10,0:1:0:0:
