osu file format v14

[General]
AudioFilename: audio.mp3
AudioLeadIn: 0
PreviewTime: 66696
Countdown: 0
SampleSet: Soft
StackLeniency: 0.3
Mode: 0
LetterboxInBreaks: 0
WidescreenStoryboard: 1

[Editor]
DistanceSpacing: 2.2
BeatDivisor: 4
GridSize: 32
TimelineZoom: 1

[Metadata]
Title:JOINT
TitleUnicode:JOINT
Artist:Mami Kawada
ArtistUnicode:川田まみ
Creator:Andrea
Version:Akitoshi's Insane
Source:灼眼のシャナⅡ
Tags:osuplayer111 Sekai Sekaii Sekai-nyan Kowari Gaia Akitoshi Corinn -Laura- midorijeon - Ex - -_Ex_- AsuKow GrazuKo Erisu Lanzhu Mayuzumi Fuyuko Full Version Female Vocals Shakugan no Shana Second Opening OP 2nd Season Two Anime Japanese Pop J-Pop JPop Rock J-Rock JRock
BeatmapID:3612054
BeatmapSetID:1764643

[Difficulty]
HPDrainRate:5.5
CircleSize:3.8
OverallDifficulty:8
ApproachRate:9
SliderMultiplier:1.6
SliderTickRate:1

[Events]
//Background and Video events
0,0,"BG.jpg",0,0
//Break Periods
2,480,2346
2,3146,5013
2,6146,9679
2,205646,207346
//Storyboard Layer 0 (Background)
//Storyboard Layer 1 (Fail)
//Storyboard Layer 2 (Pass)
//Storyboard Layer 3 (Foreground)
//Storyboard Layer 4 (Overlay)
//Storyboard Sound Samples

[TimingPoints]
280,333.333333333333,4,2,2,60,1,0
280,-125,4,2,2,60,0,0
10279,-111.111111111111,4,2,2,60,0,0
10863,-111.111111111111,4,2,2,5,0,0
10946,-100,4,2,2,75,0,0
11279,-100,4,2,6,75,0,0
11363,-100,4,2,2,75,0,0
11613,-100,4,2,6,75,0,0
11697,-100,4,2,2,75,0,0
11946,-100,4,2,6,75,0,0
12030,-100,4,2,2,75,0,0
12279,-100,4,2,6,75,0,0
12363,-100,4,2,2,75,0,0
12529,-100,4,2,2,5,0,0
12613,-100,4,2,6,75,0,0
12697,-100,4,2,2,75,0,0
12946,-100,4,2,6,75,0,0
13030,-100,4,2,2,75,0,0
13113,-100,4,2,5,75,0,0
13613,-100,4,2,2,75,0,0
13863,-100,4,2,2,5,0,0
13946,-100,4,2,6,75,0,0
14030,-100,4,2,2,75,0,0
14279,-100,4,2,6,75,0,0
14363,-100,4,2,2,75,0,0
14613,-100,4,2,6,75,0,0
14697,-100,4,2,2,75,0,0
14946,-100,4,2,6,75,0,0
15030,-100,4,2,2,75,0,0
15113,-100,4,2,3,75,0,0
15613,-100,4,2,6,75,0,0
15697,-100,4,2,2,75,0,0
15946,-100,4,2,5,75,0,0
16279,-100,4,2,2,75,0,0
16529,-100,4,2,2,5,0,0
16613,-100,4,2,6,75,0,0
16697,-100,4,2,2,75,0,0
16946,-100,4,2,6,75,0,0
17030,-100,4,2,2,75,0,0
17279,-100,4,2,6,75,0,0
17363,-100,4,2,2,75,0,0
17613,-100,4,2,6,75,0,0
17697,-100,4,2,2,75,0,0
17863,-100,4,2,2,5,0,0
17946,-100,4,2,6,75,0,0
18030,-100,4,2,2,75,0,0
18279,-100,4,2,6,75,0,0
18363,-100,4,2,2,75,0,0
18613,-100,4,2,6,75,0,0
18697,-100,4,2,2,75,0,0
18946,-100,4,2,3,75,0,0
19196,-100,4,2,3,5,0,0
19279,-100,4,2,6,75,0,0
19363,-100,4,2,2,75,0,0
19613,-100,4,2,6,75,0,0
19697,-100,4,2,2,75,0,0
19946,-100,4,2,6,75,0,0
20030,-100,4,2,2,75,0,0
20279,-100,4,2,6,75,0,0
20363,-100,4,2,2,75,0,0
21613,-100,4,2,3,75,0,0
21863,-100,4,2,3,5,0,0
21946,-100,4,2,6,75,0,0
22030,-100,4,2,2,75,0,0
22279,-100,4,2,6,75,0,0
22363,-100,4,2,2,75,0,0
22613,-100,4,2,6,75,0,0
22697,-100,4,2,2,75,0,0
22946,-100,4,2,6,75,0,0
23030,-100,4,2,2,75,0,0
23279,-100,4,2,6,75,0,0
23363,-100,4,2,2,75,0,0
23613,-100,4,2,6,75,0,0
23697,-100,4,2,2,75,0,0
23946,-100,4,2,6,75,0,0
24030,-100,4,2,2,75,0,0
24279,-100,4,2,3,75,0,0
24529,-100,4,2,3,5,0,0
24613,-100,4,2,6,75,0,0
24697,-100,4,2,2,75,0,0
24946,-100,4,2,6,75,0,0
25030,-100,4,2,2,75,0,0
25279,-100,4,2,6,75,0,0
25363,-100,4,2,2,75,0,0
25613,-100,4,2,6,75,0,0
25697,-100,4,2,2,75,0,0
25946,-100,4,2,6,75,0,0
26030,-100,4,2,2,75,0,0
26279,-100,4,2,6,75,0,0
26363,-100,4,2,2,75,0,0
26613,-100,4,2,6,75,0,0
26697,-100,4,2,2,75,0,0
27196,-100,4,2,2,5,0,0
27279,-100,4,2,6,75,0,0
27363,-100,4,2,2,75,0,0
27613,-100,4,2,6,75,0,0
27697,-100,4,2,2,75,0,0
27946,-100,4,2,6,75,0,0
28030,-100,4,2,2,75,0,0
28279,-100,4,2,6,75,0,0
28363,-100,4,2,2,75,0,0
28613,-100,4,2,6,75,0,0
28697,-100,4,2,2,75,0,0
28946,-100,4,2,6,75,0,0
29030,-100,4,2,2,75,0,0
29279,-100,4,2,6,75,0,0
29363,-100,4,2,2,75,0,0
29613,-100,4,2,3,75,0,0
29946,-100,4,2,6,75,0,0
30030,-100,4,2,2,75,0,0
32279,-125,4,2,3,70,0,0
32613,-125,4,2,8,70,0,0
32697,-125,4,2,2,70,0,0
32946,-125,4,2,8,70,0,0
33030,-125,4,2,2,70,0,0
33279,-125,4,2,8,70,0,0
33363,-125,4,2,2,70,0,0
33613,-125,4,2,8,70,0,0
33697,-125,4,2,2,70,0,0
33946,-125,4,2,8,70,0,0
34030,-125,4,2,2,70,0,0
34196,-125,4,2,2,5,0,0
34279,-125,4,2,8,70,0,0
34363,-125,4,2,2,70,0,0
34613,-125,4,2,8,70,0,0
34697,-125,4,2,2,70,0,0
34779,-125,4,2,12,70,0,0
34863,-125,4,2,2,70,0,0
35279,-125,4,2,8,70,0,0
35363,-125,4,2,2,70,0,0
35613,-125,4,2,8,70,0,0
35697,-125,4,2,2,70,0,0
35946,-125,4,2,8,70,0,0
36030,-125,4,2,2,70,0,0
36279,-125,4,2,8,70,0,0
36363,-125,4,2,2,70,0,0
36613,-125,4,2,8,70,0,0
36697,-125,4,2,2,70,0,0
36946,-125,4,2,8,70,0,0
37030,-125,4,2,2,70,0,0
37113,-125,4,2,12,70,0,0
37197,-125,4,2,2,70,0,0
37446,-125,4,2,8,70,0,0
37530,-125,4,2,2,70,0,0
37946,-125,4,2,8,70,0,0
38030,-125,4,2,2,70,0,0
38279,-125,4,2,8,70,0,0
38363,-125,4,2,2,70,0,0
38613,-125,4,2,8,70,0,0
38697,-125,4,2,2,70,0,0
38946,-125,4,2,8,70,0,0
39030,-125,4,2,2,70,0,0
39279,-125,4,2,8,70,0,0
39363,-125,4,2,2,70,0,0
39613,-125,4,2,8,70,0,0
39697,-125,4,2,2,70,0,0
39946,-125,4,2,8,70,0,0
40030,-125,4,2,2,70,0,0
40113,-125,4,2,12,70,0,0
40197,-125,4,2,2,70,0,0
40279,-100,4,2,9,70,0,0
40363,-100,4,2,2,70,0,0
40613,-100,4,2,8,70,0,0
40697,-100,4,2,2,70,0,0
40946,-100,4,2,8,70,0,0
41030,-100,4,2,2,70,0,0
41279,-100,4,2,8,70,0,0
41363,-100,4,2,2,70,0,0
41613,-100,4,2,8,70,0,0
41697,-100,4,2,2,70,0,0
41946,-100,4,2,12,70,0,0
42030,-100,4,2,2,70,0,0
42279,-100,4,2,12,70,0,0
42363,-100,4,2,2,70,0,0
42613,-100,4,2,12,70,0,0
42697,-100,4,2,2,70,0,0
42779,-100,4,2,3,70,0,0
42946,-111.111111111111,4,2,2,70,0,0
43279,-111.111111111111,4,2,8,70,0,0
43363,-111.111111111111,4,2,2,70,0,0
43529,-111.111111111111,4,2,2,5,0,0
43613,-111.111111111111,4,2,8,70,0,0
43697,-111.111111111111,4,2,2,70,0,0
43946,-111.111111111111,4,2,8,70,0,0
44030,-111.111111111111,4,2,2,70,0,0
44279,-111.111111111111,4,2,8,70,0,0
44363,-111.111111111111,4,2,2,70,0,0
44613,-111.111111111111,4,2,8,70,0,0
44697,-111.111111111111,4,2,2,70,0,0
44946,-111.111111111111,4,2,8,70,0,0
45030,-111.111111111111,4,2,2,70,0,0
45279,-111.111111111111,4,2,8,70,0,0
45363,-111.111111111111,4,2,2,70,0,0
45446,-111.111111111111,4,2,12,70,0,0
45530,-111.111111111111,4,2,2,70,0,0
45946,-111.111111111111,4,2,8,70,0,0
46030,-111.111111111111,4,2,2,70,0,0
46279,-111.111111111111,4,2,8,70,0,0
46363,-111.111111111111,4,2,2,70,0,0
46613,-111.111111111111,4,2,8,70,0,0
46697,-111.111111111111,4,2,2,70,0,0
46946,-111.111111111111,4,2,8,70,0,0
47030,-111.111111111111,4,2,2,70,0,0
47279,-111.111111111111,4,2,8,70,0,0
47363,-111.111111111111,4,2,2,70,0,0
47613,-111.111111111111,4,2,8,70,0,0
47697,-111.111111111111,4,2,2,70,0,0
47946,-111.111111111111,4,2,8,70,0,0
48030,-111.111111111111,4,2,2,70,0,0
48113,-111.111111111111,4,2,12,70,0,0
48197,-111.111111111111,4,2,2,70,0,0
48613,-111.111111111111,4,2,8,70,0,0
48697,-111.111111111111,4,2,2,70,0,0
48863,-111.111111111111,4,2,2,5,0,0
48946,-111.111111111111,4,2,8,70,0,0
49030,-111.111111111111,4,2,2,70,0,0
49279,-111.111111111111,4,2,8,70,0,0
49363,-111.111111111111,4,2,2,70,0,0
49613,-111.111111111111,4,2,8,70,0,0
49697,-111.111111111111,4,2,2,70,0,0
49946,-111.111111111111,4,2,8,70,0,0
50030,-111.111111111111,4,2,2,70,0,0
50279,-111.111111111111,4,2,8,70,0,0
50363,-111.111111111111,4,2,2,70,0,0
50613,-111.111111111111,4,2,8,70,0,0
50697,-111.111111111111,4,2,2,70,0,0
50946,-100,4,2,8,70,0,0
51030,-100,4,2,2,70,0,0
51279,-100,4,2,8,70,0,0
51363,-100,4,2,2,70,0,0
51613,-100,4,2,8,70,0,0
51697,-100,4,2,2,70,0,0
51863,-100,4,2,2,5,0,0
51946,-100,4,2,8,70,0,0
52030,-100,4,2,2,70,0,0
52279,-100,4,2,6,70,0,0
52363,-100,4,2,2,70,0,0
52613,-100,4,2,6,70,0,0
52697,-100,4,2,2,70,0,0
52946,-100,4,2,6,70,0,0
53030,-100,4,2,2,70,0,0
53279,-100,4,2,6,70,0,0
53363,-100,4,2,2,70,0,0
53613,-125,4,2,2,70,0,0
53863,-125,4,2,2,5,0,0
53946,-125,4,2,3,70,0,0
54196,-125,4,2,2,5,0,0
54279,-125,4,2,3,70,0,0
55529,-125,4,2,2,5,0,0
55613,-125,4,2,3,70,0,0
56613,-125,4,2,2,70,0,0
56863,-125,4,2,2,5,0,0
56946,-125,4,2,2,70,0,0
58446,-76.9230769230769,4,2,2,70,0,0
58946,-125,4,2,2,70,0,0
59279,-125,4,2,3,70,0,0
59529,-125,4,2,2,5,0,0
59613,-125,4,2,3,70,0,0
60863,-125,4,2,2,5,0,0
60946,-125,4,2,3,70,0,0
61613,-111.111111111111,4,2,2,70,0,0
61946,-111.111111111111,4,2,6,70,0,0
62030,-111.111111111111,4,2,2,70,0,0
62279,-111.111111111111,4,2,6,70,0,0
62363,-111.111111111111,4,2,2,70,0,0
62613,-111.111111111111,4,2,6,70,0,0
62697,-111.111111111111,4,2,2,70,0,0
62946,-111.111111111111,4,2,7,70,0,0
63030,-111.111111111111,4,2,2,70,0,0
63279,-111.111111111111,4,2,6,70,0,0
63363,-111.111111111111,4,2,2,70,0,0
63613,-111.111111111111,4,2,6,70,0,0
63697,-111.111111111111,4,2,2,70,0,0
63946,-111.111111111111,4,2,6,70,0,0
64030,-111.111111111111,4,2,2,70,0,0
64279,-100,4,2,6,70,0,0
64363,-100,4,2,2,70,0,0
64613,-100,4,2,6,70,0,0
64697,-100,4,2,2,70,0,0
64946,-100,4,2,6,70,0,0
65030,-100,4,2,2,70,0,0
65446,-100,4,2,6,70,0,0
65530,-100,4,2,2,70,0,0
66779,-90.9090909090909,4,2,1,80,0,1
67029,-90.9090909090909,4,2,1,5,0,1
67113,-90.9090909090909,4,2,1,80,0,1
67279,-90.9090909090909,4,2,6,80,0,1
67363,-90.9090909090909,4,2,2,80,0,1
67613,-90.9090909090909,4,2,6,80,0,1
67697,-90.9090909090909,4,2,2,80,0,1
67946,-90.9090909090909,4,2,6,80,0,1
68030,-90.9090909090909,4,2,2,80,0,1
68279,-90.9090909090909,4,2,6,80,0,1
68363,-90.9090909090909,4,2,2,80,0,1
68613,-90.9090909090909,4,2,6,80,0,1
68697,-90.9090909090909,4,2,2,80,0,1
68946,-90.9090909090909,4,2,6,80,0,1
69030,-90.9090909090909,4,2,2,80,0,1
69279,-90.9090909090909,4,2,6,80,0,1
69363,-90.9090909090909,4,2,2,80,0,1
69446,-90.9090909090909,4,2,3,80,0,1
69946,-90.9090909090909,4,2,6,80,0,1
70030,-90.9090909090909,4,2,2,80,0,1
70279,-90.9090909090909,4,2,6,80,0,1
70363,-90.9090909090909,4,2,2,80,0,1
70613,-90.9090909090909,4,2,6,80,0,1
70697,-90.9090909090909,4,2,2,80,0,1
70946,-90.9090909090909,4,2,6,80,0,1
71030,-90.9090909090909,4,2,2,80,0,1
71279,-90.9090909090909,4,2,6,80,0,1
71363,-90.9090909090909,4,2,2,80,0,1
71613,-90.9090909090909,4,2,6,80,0,1
71697,-90.9090909090909,4,2,2,80,0,1
71946,-90.9090909090909,4,2,6,80,0,1
72030,-90.9090909090909,4,2,2,80,0,1
72613,-90.9090909090909,4,2,6,80,0,1
72697,-90.9090909090909,4,2,2,80,0,1
72946,-90.9090909090909,4,2,6,80,0,1
73030,-90.9090909090909,4,2,2,80,0,1
73279,-90.9090909090909,4,2,6,80,0,1
73363,-90.9090909090909,4,2,2,80,0,1
73613,-90.9090909090909,4,2,6,80,0,1
73697,-90.9090909090909,4,2,2,80,0,1
73946,-90.9090909090909,4,2,6,80,0,1
74030,-90.9090909090909,4,2,2,80,0,1
74279,-90.9090909090909,4,2,6,80,0,1
74363,-90.9090909090909,4,2,2,80,0,1
74613,-90.9090909090909,4,2,6,80,0,1
74697,-90.9090909090909,4,2,2,80,0,1
74779,-90.9090909090909,4,2,3,80,0,1
75029,-90.9090909090909,4,2,3,5,0,1
75113,-90.9090909090909,4,2,3,80,0,1
75279,-90.9090909090909,4,2,6,80,0,1
75363,-90.9090909090909,4,2,2,80,0,1
75613,-90.9090909090909,4,2,6,80,0,1
75697,-90.9090909090909,4,2,2,80,0,1
75946,-90.9090909090909,4,2,6,80,0,1
76030,-90.9090909090909,4,2,2,80,0,1
76279,-90.9090909090909,4,2,6,80,0,1
76363,-90.9090909090909,4,2,2,80,0,1
76613,-90.9090909090909,4,2,6,80,0,1
76697,-90.9090909090909,4,2,2,80,0,1
76779,-90.9090909090909,4,2,1,80,0,1
76946,-90.9090909090909,4,2,6,80,0,1
77030,-90.9090909090909,4,2,2,80,0,1
77279,-90.9090909090909,4,2,6,80,0,1
77363,-90.9090909090909,4,2,2,80,0,1
77446,-142.857142857143,4,2,2,80,0,1
77696,-142.857142857143,4,2,2,5,0,1
77779,-142.857142857143,4,2,2,80,0,1
77863,-142.857142857143,4,2,2,5,0,1
77946,-90.9090909090909,4,2,5,80,0,1
78279,-90.9090909090909,4,2,6,80,0,1
78363,-90.9090909090909,4,2,2,80,0,1
78613,-90.9090909090909,4,2,6,80,0,1
78697,-90.9090909090909,4,2,2,80,0,1
78946,-90.9090909090909,4,2,6,80,0,1
79030,-90.9090909090909,4,2,2,80,0,1
79279,-90.9090909090909,4,2,6,80,0,1
79363,-90.9090909090909,4,2,2,80,0,1
79613,-90.9090909090909,4,2,6,80,0,1
79697,-90.9090909090909,4,2,2,80,0,1
79946,-90.9090909090909,4,2,6,80,0,1
80030,-90.9090909090909,4,2,2,80,0,1
80613,-90.9090909090909,4,2,6,80,0,1
80697,-90.9090909090909,4,2,2,80,0,1
80946,-90.9090909090909,4,2,6,80,0,1
81030,-90.9090909090909,4,2,2,80,0,1
81279,-90.9090909090909,4,2,6,80,0,1
81363,-90.9090909090909,4,2,2,80,0,1
81613,-90.9090909090909,4,2,6,80,0,1
81696,-90.9090909090909,4,2,2,80,0,1
81946,-90.9090909090909,4,2,6,80,0,1
82030,-90.9090909090909,4,2,2,80,0,1
82279,-90.9090909090909,4,2,6,80,0,1
82363,-90.9090909090909,4,2,2,80,0,1
82613,-90.9090909090909,4,2,6,80,0,1
82697,-90.9090909090909,4,2,2,80,0,1
82779,-90.9090909090909,4,2,3,80,0,1
83279,-90.9090909090909,4,2,6,80,0,1
83363,-90.9090909090909,4,2,2,80,0,1
83613,-90.9090909090909,4,2,6,80,0,1
83697,-90.9090909090909,4,2,2,80,0,1
83946,-90.9090909090909,4,2,6,80,0,1
84030,-90.9090909090909,4,2,2,80,0,1
84279,-90.9090909090909,4,2,6,80,0,1
84363,-90.9090909090909,4,2,2,80,0,1
84613,-90.9090909090909,4,2,5,80,0,1
84946,-90.9090909090909,4,2,6,80,0,1
85030,-90.9090909090909,4,2,2,80,0,1
85279,-90.9090909090909,4,2,6,80,0,1
85363,-90.9090909090909,4,2,2,80,0,1
85696,-90.9090909090909,4,2,2,5,0,1
85779,-90.9090909090909,4,2,2,80,0,1
85946,-90.9090909090909,4,2,6,80,0,1
86030,-90.9090909090909,4,2,2,80,0,1
86279,-90.9090909090909,4,2,6,80,0,1
86363,-90.9090909090909,4,2,2,80,0,1
86613,-90.9090909090909,4,2,6,80,0,1
86697,-90.9090909090909,4,2,2,80,0,1
86779,-90.9090909090909,4,2,3,80,0,1
87613,-90.9090909090909,4,2,2,80,0,1
87946,-90.9090909090909,4,2,5,80,0,1
88279,-100,4,2,4,80,0,0
89946,-166.666666666667,4,2,6,80,0,0
90030,-166.666666666667,4,2,2,80,0,0
90279,-166.666666666667,4,2,6,80,0,0
90363,-166.666666666667,4,2,2,80,0,0
90613,-76.9230769230769,4,2,2,80,0,0
90863,-76.9230769230769,4,2,2,5,0,0
90946,-125,4,2,2,75,0,0
91279,-125,4,2,3,75,0,0
93529,-125,4,2,3,5,0,0
93613,-125,4,2,3,75,0,0
93946,-125,4,2,2,75,0,0
95779,-100,4,2,2,75,0,0
96279,-125,4,2,3,70,0,0
96613,-125,4,2,8,70,0,0
96697,-125,4,2,2,70,0,0
96863,-125,4,2,2,5,0,0
96946,-125,4,2,8,70,0,0
97030,-125,4,2,2,70,0,0
97279,-125,4,2,8,70,0,0
97363,-125,4,2,2,70,0,0
97613,-125,4,2,8,70,0,0
97697,-125,4,2,2,70,0,0
97946,-125,4,2,8,70,0,0
98030,-125,4,2,2,70,0,0
98279,-125,4,2,8,70,0,0
98363,-125,4,2,2,70,0,0
98613,-125,4,2,8,70,0,0
98697,-125,4,2,2,70,0,0
98779,-125,4,2,12,70,0,0
98863,-125,4,2,2,70,0,0
99279,-125,4,2,8,70,0,0
99363,-125,4,2,2,70,0,0
99613,-125,4,2,8,70,0,0
99697,-125,4,2,2,70,0,0
99946,-125,4,2,8,70,0,0
100030,-125,4,2,2,70,0,0
100279,-125,4,2,8,70,0,0
100363,-125,4,2,2,70,0,0
100613,-125,4,2,8,70,0,0
100697,-125,4,2,2,70,0,0
100946,-125,4,2,8,70,0,0
101030,-125,4,2,2,70,0,0
101113,-125,4,2,12,70,0,0
101197,-125,4,2,2,70,0,0
101613,-125,4,2,8,70,0,0
101697,-125,4,2,2,70,0,0
101946,-125,4,2,8,70,0,0
102030,-125,4,2,2,70,0,0
102196,-125,4,2,2,5,0,0
102279,-125,4,2,8,70,0,0
102363,-125,4,2,2,70,0,0
102613,-125,4,2,8,70,0,0
102697,-125,4,2,2,70,0,0
102946,-125,4,2,8,70,0,0
103030,-125,4,2,2,70,0,0
103279,-125,4,2,8,70,0,0
103363,-125,4,2,2,70,0,0
103613,-125,4,2,8,70,0,0
103697,-125,4,2,2,70,0,0
103946,-125,4,2,8,70,0,0
104030,-125,4,2,2,70,0,0
104279,-100,4,2,8,70,0,0
104363,-100,4,2,2,70,0,0
104613,-100,4,2,8,70,0,0
104697,-100,4,2,2,70,0,0
104946,-100,4,2,8,70,0,0
105030,-100,4,2,2,70,0,0
105279,-100,4,2,8,70,0,0
105363,-100,4,2,2,70,0,0
105613,-100,4,2,8,70,0,0
105697,-100,4,2,2,70,0,0
105946,-100,4,2,8,70,0,0
106030,-100,4,2,2,70,0,0
106279,-100,4,2,8,70,0,0
106363,-100,4,2,2,70,0,0
106613,-100,4,2,8,70,0,0
106697,-100,4,2,2,70,0,0
106946,-111.111111111111,4,2,2,70,0,0
107279,-111.111111111111,4,2,8,70,0,0
107363,-111.111111111111,4,2,2,70,0,0
107613,-111.111111111111,4,2,8,70,0,0
107697,-111.111111111111,4,2,2,70,0,0
107946,-111.111111111111,4,2,8,70,0,0
108030,-111.111111111111,4,2,2,70,0,0
108279,-111.111111111111,4,2,8,70,0,0
108363,-111.111111111111,4,2,2,70,0,0
108613,-111.111111111111,4,2,8,70,0,0
108697,-111.111111111111,4,2,2,70,0,0
108863,-111.111111111111,4,2,2,5,0,0
108946,-111.111111111111,4,2,8,70,0,0
109030,-111.111111111111,4,2,2,70,0,0
109279,-111.111111111111,4,2,8,70,0,0
109363,-111.111111111111,4,2,2,70,0,0
109613,-111.111111111111,4,2,8,70,0,0
109697,-111.111111111111,4,2,2,70,0,0
109946,-111.111111111111,4,2,8,70,0,0
110030,-111.111111111111,4,2,2,70,0,0
110279,-111.111111111111,4,2,8,70,0,0
110363,-111.111111111111,4,2,2,70,0,0
110613,-111.111111111111,4,2,8,70,0,0
110697,-111.111111111111,4,2,2,70,0,0
110946,-111.111111111111,4,2,8,70,0,0
111030,-111.111111111111,4,2,2,70,0,0
111279,-111.111111111111,4,2,8,70,0,0
111363,-111.111111111111,4,2,2,70,0,0
111613,-111.111111111111,4,2,8,70,0,0
111697,-111.111111111111,4,2,2,70,0,0
111779,-111.111111111111,4,2,12,70,0,0
111863,-111.111111111111,4,2,2,70,0,0
112196,-111.111111111111,4,2,2,5,0,0
112279,-111.111111111111,4,2,8,70,0,0
112363,-111.111111111111,4,2,2,70,0,0
112613,-111.111111111111,4,2,8,70,0,0
112697,-111.111111111111,4,2,2,70,0,0
112946,-111.111111111111,4,2,8,70,0,0
113030,-111.111111111111,4,2,2,70,0,0
113279,-111.111111111111,4,2,8,70,0,0
113363,-111.111111111111,4,2,2,70,0,0
113613,-111.111111111111,4,2,8,70,0,0
113697,-111.111111111111,4,2,2,70,0,0
113946,-111.111111111111,4,2,8,70,0,0
114030,-111.111111111111,4,2,2,70,0,0
114279,-111.111111111111,4,2,8,70,0,0
114363,-111.111111111111,4,2,2,70,0,0
114613,-111.111111111111,4,2,8,70,0,0
114697,-111.111111111111,4,2,2,70,0,0
114946,-100,4,2,8,70,0,0
115030,-100,4,2,2,70,0,0
115279,-100,4,2,8,70,0,0
115363,-100,4,2,2,70,0,0
115613,-100,4,2,8,70,0,0
115697,-100,4,2,2,70,0,0
115863,-100,4,2,2,5,0,0
115946,-100,4,2,8,70,0,0
116030,-100,4,2,2,70,0,0
116279,-100,4,2,8,70,0,0
116363,-100,4,2,2,70,0,0
116613,-100,4,2,6,70,0,0
116697,-100,4,2,2,70,0,0
116946,-100,4,2,6,70,0,0
117030,-100,4,2,2,70,0,0
117279,-100,4,2,6,70,0,0
117363,-100,4,2,2,70,0,0
117613,-125,4,2,2,70,0,0
117863,-125,4,2,2,5,0,0
117946,-125,4,2,3,70,0,0
118196,-125,4,2,2,5,0,0
118279,-125,4,2,3,70,0,0
120613,-125,4,2,2,70,0,0
120863,-125,4,2,2,5,0,0
120946,-125,4,2,2,70,0,0
122446,-76.9230769230769,4,2,2,70,0,0
122946,-125,4,2,2,70,0,0
123279,-125,4,2,3,70,0,0
123529,-125,4,2,3,5,0,0
123613,-125,4,2,3,70,0,0
124863,-125,4,2,3,5,0,0
124946,-125,4,2,3,70,0,0
125613,-111.111111111111,4,2,2,70,0,0
125946,-111.111111111111,4,2,6,70,0,0
126030,-111.111111111111,4,2,2,70,0,0
126279,-111.111111111111,4,2,6,70,0,0
126363,-111.111111111111,4,2,2,70,0,0
126613,-111.111111111111,4,2,6,70,0,0
126697,-111.111111111111,4,2,2,70,0,0
126946,-111.111111111111,4,2,7,70,0,0
127030,-111.111111111111,4,2,2,70,0,0
127279,-111.111111111111,4,2,6,70,0,0
127363,-111.111111111111,4,2,2,70,0,0
127613,-111.111111111111,4,2,6,70,0,0
127697,-111.111111111111,4,2,2,70,0,0
127946,-111.111111111111,4,2,6,70,0,0
128030,-111.111111111111,4,2,2,70,0,0
128279,-100,4,2,6,70,0,0
128363,-100,4,2,2,70,0,0
128613,-100,4,2,6,70,0,0
128697,-100,4,2,2,70,0,0
128946,-100,4,2,6,70,0,0
129030,-100,4,2,2,70,0,0
129446,-100,4,2,6,70,0,0
129530,-100,4,2,2,70,0,0
130279,-100,4,2,1,70,0,0
130613,-100,4,2,3,70,0,0
130779,-90.9090909090909,4,2,1,80,0,1
131029,-90.9090909090909,4,2,1,5,0,1
131113,-90.9090909090909,4,2,1,80,0,1
131279,-90.9090909090909,4,2,6,80,0,1
131363,-90.9090909090909,4,2,2,80,0,1
131613,-90.9090909090909,4,2,6,80,0,1
131697,-90.9090909090909,4,2,2,80,0,1
131946,-90.9090909090909,4,2,6,80,0,1
132030,-90.9090909090909,4,2,2,80,0,1
132279,-90.9090909090909,4,2,6,80,0,1
132363,-90.9090909090909,4,2,2,80,0,1
132613,-90.9090909090909,4,2,6,80,0,1
132697,-90.9090909090909,4,2,2,80,0,1
132946,-90.9090909090909,4,2,6,80,0,1
133030,-90.9090909090909,4,2,2,80,0,1
133279,-90.9090909090909,4,2,6,80,0,1
133363,-90.9090909090909,4,2,2,80,0,1
133446,-90.9090909090909,4,2,3,80,0,1
133946,-90.9090909090909,4,2,6,80,0,1
134030,-90.9090909090909,4,2,2,80,0,1
134279,-90.9090909090909,4,2,6,80,0,1
134363,-90.9090909090909,4,2,2,80,0,1
134613,-90.9090909090909,4,2,6,80,0,1
134697,-90.9090909090909,4,2,2,80,0,1
134946,-90.9090909090909,4,2,6,80,0,1
135030,-90.9090909090909,4,2,2,80,0,1
135279,-90.9090909090909,4,2,6,80,0,1
135363,-90.9090909090909,4,2,2,80,0,1
135613,-90.9090909090909,4,2,6,80,0,1
135697,-90.9090909090909,4,2,2,80,0,1
135946,-90.9090909090909,4,2,6,80,0,1
136030,-90.9090909090909,4,2,2,80,0,1
136613,-90.9090909090909,4,2,6,80,0,1
136697,-90.9090909090909,4,2,2,80,0,1
136946,-90.9090909090909,4,2,6,80,0,1
137030,-90.9090909090909,4,2,2,80,0,1
137279,-90.9090909090909,4,2,6,80,0,1
137363,-90.9090909090909,4,2,2,80,0,1
137613,-90.9090909090909,4,2,6,80,0,1
137697,-90.9090909090909,4,2,2,80,0,1
137946,-90.9090909090909,4,2,6,80,0,1
138030,-90.9090909090909,4,2,2,80,0,1
138279,-90.9090909090909,4,2,6,80,0,1
138363,-90.9090909090909,4,2,2,80,0,1
138613,-90.9090909090909,4,2,6,80,0,1
138697,-90.9090909090909,4,2,2,80,0,1
138779,-90.9090909090909,4,2,3,80,0,1
139279,-90.9090909090909,4,2,6,80,0,1
139363,-90.9090909090909,4,2,2,80,0,1
139613,-90.9090909090909,4,2,6,80,0,1
139697,-90.9090909090909,4,2,2,80,0,1
139946,-90.9090909090909,4,2,6,80,0,1
140030,-90.9090909090909,4,2,2,80,0,1
140279,-90.9090909090909,4,2,6,80,0,1
140363,-90.9090909090909,4,2,2,80,0,1
140613,-90.9090909090909,4,2,6,80,0,1
140697,-90.9090909090909,4,2,2,80,0,1
140779,-90.9090909090909,4,2,1,80,0,1
140946,-90.9090909090909,4,2,6,80,0,1
141030,-90.9090909090909,4,2,2,80,0,1
141279,-90.9090909090909,4,2,6,80,0,1
141363,-90.9090909090909,4,2,2,80,0,1
141613,-142.857142857143,4,2,2,80,0,1
141696,-142.857142857143,4,2,2,5,0,1
141779,-142.857142857143,4,2,2,80,0,1
141863,-142.857142857143,4,2,2,5,0,1
141946,-90.9090909090909,4,2,5,80,0,1
142279,-90.9090909090909,4,2,6,80,0,1
142363,-90.9090909090909,4,2,2,80,0,1
142613,-90.9090909090909,4,2,6,80,0,1
142697,-90.9090909090909,4,2,2,80,0,1
142946,-90.9090909090909,4,2,6,80,0,1
143030,-90.9090909090909,4,2,2,80,0,1
143279,-90.9090909090909,4,2,6,80,0,1
143363,-90.9090909090909,4,2,2,80,0,1
143613,-90.9090909090909,4,2,6,80,0,1
143697,-90.9090909090909,4,2,2,80,0,1
143946,-90.9090909090909,4,2,6,80,0,1
144030,-90.9090909090909,4,2,2,80,0,1
144613,-90.9090909090909,4,2,6,80,0,1
144697,-90.9090909090909,4,2,2,80,0,1
144946,-90.9090909090909,4,2,6,80,0,1
145030,-90.9090909090909,4,2,2,80,0,1
145279,-90.9090909090909,4,2,6,80,0,1
145363,-90.9090909090909,4,2,2,80,0,1
145613,-90.9090909090909,4,2,6,80,0,1
145696,-90.9090909090909,4,2,2,80,0,1
145946,-90.9090909090909,4,2,6,80,0,1
146030,-90.9090909090909,4,2,2,80,0,1
146279,-90.9090909090909,4,2,6,80,0,1
146363,-90.9090909090909,4,2,2,80,0,1
146613,-90.9090909090909,4,2,6,80,0,1
146697,-90.9090909090909,4,2,2,80,0,1
146779,-90.9090909090909,4,2,3,80,0,1
147279,-90.9090909090909,4,2,6,80,0,1
147363,-90.9090909090909,4,2,2,80,0,1
147613,-90.9090909090909,4,2,6,80,0,1
147697,-90.9090909090909,4,2,2,80,0,1
147946,-90.9090909090909,4,2,6,80,0,1
148030,-90.9090909090909,4,2,2,80,0,1
148279,-90.9090909090909,4,2,6,80,0,1
148363,-90.9090909090909,4,2,2,80,0,1
148613,-90.9090909090909,4,2,5,80,0,1
148946,-90.9090909090909,4,2,6,80,0,1
149030,-90.9090909090909,4,2,2,80,0,1
149279,-90.9090909090909,4,2,6,80,0,1
149363,-90.9090909090909,4,2,2,80,0,1
149946,-90.9090909090909,4,2,6,80,0,1
150030,-90.9090909090909,4,2,2,80,0,1
150279,-90.9090909090909,4,2,6,80,0,1
150363,-90.9090909090909,4,2,2,80,0,1
150613,-90.9090909090909,4,2,6,80,0,1
150697,-90.9090909090909,4,2,2,80,0,1
150779,-90.9090909090909,4,2,3,80,0,1
151613,-90.9090909090909,4,2,2,80,0,1
151946,-90.9090909090909,4,2,5,80,0,1
152279,-111.111111111111,4,2,6,75,0,0
152363,-111.111111111111,4,2,2,75,0,0
152613,-111.111111111111,4,2,6,75,0,0
152697,-111.111111111111,4,2,2,75,0,0
152946,-111.111111111111,4,2,6,75,0,0
153030,-111.111111111111,4,2,2,75,0,0
153279,-111.111111111111,4,2,6,75,0,0
153363,-111.111111111111,4,2,2,75,0,0
153446,-111.111111111111,4,2,5,75,0,0
153613,-111.111111111111,4,2,3,75,0,0
153946,-111.111111111111,4,2,5,75,0,0
154279,-111.111111111111,4,2,2,75,0,0
154613,-111.111111111111,4,2,5,75,0,0
154946,-83.3333333333333,4,2,5,70,0,0
155279,-111.111111111111,4,2,6,70,0,0
155363,-111.111111111111,4,2,2,70,0,0
155613,-111.111111111111,4,2,6,70,0,0
155697,-111.111111111111,4,2,2,70,0,0
155946,-111.111111111111,4,2,6,70,0,0
156030,-111.111111111111,4,2,2,70,0,0
156279,-111.111111111111,4,2,6,70,0,0
156363,-111.111111111111,4,2,2,70,0,0
156613,-111.111111111111,4,2,6,70,0,0
156697,-111.111111111111,4,2,2,70,0,0
156946,-83.3333333333333,4,2,3,70,0,0
157613,-111.111111111111,4,2,2,70,0,0
157946,-111.111111111111,4,2,6,70,0,0
158030,-111.111111111111,4,2,2,70,0,0
158279,-111.111111111111,4,2,6,70,0,0
158363,-111.111111111111,4,2,2,70,0,0
159113,-111.111111111111,4,2,3,70,0,0
159613,-100,4,2,3,70,0,0
159946,-90.9090909090909,4,2,3,70,0,0
160279,-83.3333333333333,4,2,2,70,0,0
160613,-111.111111111111,4,2,6,70,0,0
160697,-111.111111111111,4,2,2,70,0,0
160946,-111.111111111111,4,2,6,70,0,0
161030,-111.111111111111,4,2,2,70,0,0
161279,-111.111111111111,4,2,6,70,0,0
161363,-111.111111111111,4,2,2,70,0,0
161613,-111.111111111111,4,2,6,70,0,0
161697,-111.111111111111,4,2,2,70,0,0
161946,-111.111111111111,4,2,6,70,0,0
162030,-111.111111111111,4,2,2,70,0,0
162279,-83.3333333333333,4,2,3,70,0,0
162946,-111.111111111111,4,2,2,70,0,0
163279,-111.111111111111,4,2,6,70,0,0
163363,-111.111111111111,4,2,2,70,0,0
163613,-111.111111111111,4,2,6,70,0,0
163697,-111.111111111111,4,2,2,70,0,0
164446,-111.111111111111,4,2,3,70,0,0
164946,-90.9090909090909,4,2,3,70,0,0
165279,-83.3333333333333,4,2,3,70,0,0
165613,-111.111111111111,4,2,2,70,0,0
165863,-111.111111111111,4,2,2,5,0,0
165946,-111.111111111111,4,2,6,70,0,0
166030,-111.111111111111,4,2,2,70,0,0
166279,-111.111111111111,4,2,6,70,0,0
166363,-111.111111111111,4,2,2,70,0,0
166613,-111.111111111111,4,2,6,70,0,0
166697,-111.111111111111,4,2,2,70,0,0
166946,-111.111111111111,4,2,6,70,0,0
167030,-111.111111111111,4,2,2,70,0,0
167279,-111.111111111111,4,2,6,70,0,0
167363,-111.111111111111,4,2,2,70,0,0
167613,-66.6666666666667,4,2,4,70,0,0
167779,-66.6666666666667,4,2,4,5,0,0
167863,-66.6666666666667,4,2,4,5,0,0
167946,-66.6666666666667,4,2,4,70,0,0
168113,-66.6666666666667,4,2,4,5,0,0
168196,-66.6666666666667,4,2,4,5,0,0
168279,-111.111111111111,4,2,2,70,0,0
168613,-111.111111111111,4,2,6,70,0,0
168697,-111.111111111111,4,2,2,70,0,0
168946,-111.111111111111,4,2,6,70,0,0
169030,-111.111111111111,4,2,2,70,0,0
169779,-111.111111111111,4,2,3,70,0,0
170446,-66.6666666666666,4,2,3,70,0,0
170946,-166.666666666667,4,2,3,55,0,0
172946,-76.9230769230769,4,2,4,70,0,0
173113,-76.9230769230769,4,2,4,5,0,0
173196,-76.9230769230769,4,2,4,5,0,0
173279,-76.9230769230769,4,2,4,70,0,0
173613,-83.3333333333333,4,2,2,70,0,0
173946,-111.111111111111,4,2,6,70,0,0
174030,-111.111111111111,4,2,2,70,0,0
174279,-111.111111111111,4,2,6,70,0,0
174363,-111.111111111111,4,2,2,70,0,0
175113,-111.111111111111,4,2,3,70,0,0
176279,-100,4,2,2,75,0,0
176529,-100,4,2,2,5,0,0
176613,-100,4,2,6,75,0,0
176696,-100,4,2,2,75,0,0
176946,-100,4,2,6,75,0,0
177029,-100,4,2,2,75,0,0
177279,-100,4,2,6,75,0,0
177362,-100,4,2,2,75,0,0
177613,-100,4,2,7,75,0,0
177696,-100,4,2,2,75,0,0
177946,-100,4,2,6,75,0,0
178029,-100,4,2,2,75,0,0
178279,-100,4,2,6,75,0,0
178362,-100,4,2,2,75,0,0
178613,-100,4,2,6,75,0,0
178696,-100,4,2,2,75,0,0
178779,-100,4,2,3,75,0,0
179279,-100,4,2,6,75,0,0
179362,-100,4,2,2,75,0,0
179613,-100,4,2,6,75,0,0
179696,-100,4,2,2,75,0,0
179946,-100,4,2,6,75,0,0
180029,-100,4,2,2,75,0,0
180279,-100,4,2,6,75,0,0
180362,-100,4,2,2,75,0,0
180613,-100,4,2,6,75,0,0
180696,-100,4,2,2,75,0,0
180946,-100,4,2,6,75,0,0
181029,-100,4,2,2,75,0,0
181279,-100,4,2,6,75,0,0
181362,-100,4,2,2,75,0,0
181946,-100,4,2,6,75,0,0
182029,-100,4,2,2,75,0,0
182279,-100,4,2,6,75,0,0
182362,-100,4,2,2,75,0,0
182613,-100,4,2,6,75,0,0
182696,-100,4,2,2,75,0,0
182946,-100,4,2,6,75,0,0
183029,-100,4,2,2,75,0,0
183279,-100,4,2,6,75,0,0
183362,-100,4,2,2,75,0,0
183529,-100,4,2,2,5,0,0
183613,-100,4,2,6,75,0,0
183696,-100,4,2,2,75,0,0
183946,-100,4,2,6,75,0,0
184029,-100,4,2,2,75,0,0
184113,-100,4,2,3,75,0,0
184613,-100,4,2,6,75,0,0
184696,-100,4,2,2,75,0,0
184946,-100,4,2,6,75,0,0
185029,-100,4,2,2,75,0,0
185279,-100,4,2,6,75,0,0
185362,-100,4,2,2,75,0,0
185613,-100,4,2,6,75,0,0
185696,-100,4,2,2,75,0,0
185946,-100,4,2,6,75,0,0
186029,-100,4,2,2,75,0,0
186113,-100,4,2,1,75,0,0
186279,-100,4,2,6,75,0,0
186362,-100,4,2,2,75,0,0
186613,-100,4,2,3,75,0,0
186946,-100,4,2,2,75,0,0
187196,-100,4,2,2,5,0,0
187279,-100,4,2,6,75,0,0
187362,-100,4,2,2,75,0,0
187613,-100,4,2,6,75,0,0
187696,-100,4,2,2,75,0,0
187946,-100,4,2,6,75,0,0
188029,-100,4,2,2,75,0,0
188279,-100,4,2,7,75,0,0
188362,-100,4,2,2,75,0,0
188613,-100,4,2,6,75,0,0
188696,-100,4,2,2,75,0,0
188946,-100,4,2,6,75,0,0
189029,-100,4,2,2,75,0,0
189279,-100,4,2,6,75,0,0
189362,-100,4,2,2,75,0,0
189946,-100,4,2,6,75,0,0
190029,-100,4,2,2,75,0,0
190279,-100,4,2,6,75,0,0
190362,-100,4,2,2,75,0,0
190613,-100,4,2,6,75,0,0
190696,-100,4,2,2,75,0,0
190946,-100,4,2,6,75,0,0
191029,-100,4,2,2,75,0,0
191279,-100,4,2,6,75,0,0
191362,-100,4,2,2,75,0,0
191613,-100,4,2,6,75,0,0
191696,-100,4,2,2,75,0,0
191946,-100,4,2,6,75,0,0
192029,-100,4,2,2,75,0,0
192113,-100,4,2,3,75,0,0
192613,-100,4,2,6,75,0,0
192696,-100,4,2,2,75,0,0
192946,-100,4,2,6,75,0,0
193029,-100,4,2,2,75,0,0
193279,-100,4,2,6,75,0,0
193362,-100,4,2,2,75,0,0
193613,-100,4,2,6,75,0,0
193696,-100,4,2,2,75,0,0
193946,-100,4,2,5,75,0,0
194196,-100,4,2,5,75,0,0
194279,-100,4,2,6,75,0,0
194362,-100,4,2,2,75,0,0
194613,-100,4,2,6,75,0,0
194696,-100,4,2,2,75,0,0
195279,-100,4,2,6,75,0,0
195362,-100,4,2,2,75,0,0
195613,-100,4,2,6,75,0,0
195696,-100,4,2,2,75,0,0
195946,-100,4,2,6,75,0,0
196029,-100,4,2,2,75,0,0
196113,-100,4,2,5,75,0,0
196613,-100,4,2,3,75,0,0
196946,-100,4,2,2,75,0,0
197279,-100,4,2,5,75,0,0
197613,-125,4,2,2,70,0,0
197946,-125,4,2,3,70,0,0
200279,-111.111111111111,4,2,2,70,0,0
200613,-111.111111111111,4,2,3,70,0,0
202446,-111.111111111111,4,2,5,70,0,0
202946,-100,4,2,2,70,0,0
203279,-100,4,2,3,70,0,0
205446,-249.999999999999,4,2,3,50,0,0
207029,-249.999999999999,4,2,3,5,0,0
207279,-249.999999999999,4,2,3,50,0,0
207696,-249.999999999999,4,2,3,5,0,0
207946,-66.6666666666666,4,2,3,65,0,0
208029,-66.6666666666666,4,2,3,5,0,0
208113,-90.9090909090909,4,2,3,80,0,1
208363,-90.9090909090909,4,2,3,5,0,1
208446,-90.9090909090909,4,2,3,80,0,1
208613,-90.9090909090909,4,2,6,80,0,1
208697,-90.9090909090909,4,2,2,80,0,1
208946,-90.9090909090909,4,2,6,80,0,1
209030,-90.9090909090909,4,2,2,80,0,1
209280,-90.9090909090909,4,2,6,80,0,1
209364,-90.9090909090909,4,2,2,80,0,1
209613,-90.9090909090909,4,2,6,80,0,1
209697,-90.9090909090909,4,2,2,80,0,1
209946,-90.9090909090909,4,2,6,80,0,1
210030,-90.9090909090909,4,2,2,80,0,1
210280,-90.9090909090909,4,2,6,80,0,1
210364,-90.9090909090909,4,2,2,80,0,1
210613,-90.9090909090909,4,2,6,80,0,1
210697,-90.9090909090909,4,2,2,80,0,1
211280,-90.9090909090909,4,2,6,80,0,1
211364,-90.9090909090909,4,2,2,80,0,1
211613,-90.9090909090909,4,2,6,80,0,1
211697,-90.9090909090909,4,2,2,80,0,1
211946,-90.9090909090909,4,2,6,80,0,1
212030,-90.9090909090909,4,2,2,80,0,1
212280,-90.9090909090909,4,2,6,80,0,1
212364,-90.9090909090909,4,2,2,80,0,1
212613,-90.9090909090909,4,2,6,80,0,1
212697,-90.9090909090909,4,2,2,80,0,1
212946,-90.9090909090909,4,2,6,80,0,1
213030,-90.9090909090909,4,2,2,80,0,1
213280,-90.9090909090909,4,2,6,80,0,1
213364,-90.9090909090909,4,2,2,80,0,1
213446,-90.9090909090909,4,2,3,80,0,1
213946,-90.9090909090909,4,2,6,80,0,1
214030,-90.9090909090909,4,2,2,80,0,1
214280,-90.9090909090909,4,2,6,80,0,1
214364,-90.9090909090909,4,2,2,80,0,1
214613,-90.9090909090909,4,2,6,80,0,1
214697,-90.9090909090909,4,2,2,80,0,1
214946,-90.9090909090909,4,2,6,80,0,1
215030,-90.9090909090909,4,2,2,80,0,1
215280,-90.9090909090909,4,2,6,80,0,1
215364,-90.9090909090909,4,2,2,80,0,1
215446,-90.9090909090909,4,2,1,80,0,1
215613,-90.9090909090909,4,2,6,80,0,1
215697,-90.9090909090909,4,2,2,80,0,1
215946,-90.9090909090909,4,2,6,80,0,1
216030,-90.9090909090909,4,2,2,80,0,1
216113,-142.857142857143,4,2,2,80,0,1
216363,-142.857142857143,4,2,2,5,0,1
216446,-142.857142857143,4,2,2,80,0,1
216529,-142.857142857143,4,2,2,5,0,1
216613,-90.9090909090909,4,2,5,80,0,1
216946,-90.9090909090909,4,2,6,80,0,1
217030,-90.9090909090909,4,2,2,80,0,1
217280,-90.9090909090909,4,2,6,80,0,1
217364,-90.9090909090909,4,2,2,80,0,1
217613,-90.9090909090909,4,2,6,80,0,1
217697,-90.9090909090909,4,2,2,80,0,1
217946,-90.9090909090909,4,2,6,80,0,1
218030,-90.9090909090909,4,2,2,80,0,1
218280,-90.9090909090909,4,2,6,80,0,1
218364,-90.9090909090909,4,2,2,80,0,1
218613,-90.9090909090909,4,2,6,80,0,1
218697,-90.9090909090909,4,2,2,80,0,1
219280,-90.9090909090909,4,2,6,80,0,1
219364,-90.9090909090909,4,2,2,80,0,1
219613,-90.9090909090909,4,2,6,80,0,1
219697,-90.9090909090909,4,2,2,80,0,1
219946,-90.9090909090909,4,2,6,80,0,1
220030,-90.9090909090909,4,2,2,80,0,1
220280,-90.9090909090909,4,2,6,80,0,1
220363,-90.9090909090909,4,2,2,80,0,1
220613,-90.9090909090909,4,2,6,80,0,1
220697,-90.9090909090909,4,2,2,80,0,1
220946,-90.9090909090909,4,2,6,80,0,1
221030,-90.9090909090909,4,2,2,80,0,1
221280,-90.9090909090909,4,2,6,80,0,1
221364,-90.9090909090909,4,2,2,80,0,1
221446,-90.9090909090909,4,2,3,80,0,1
221946,-90.9090909090909,4,2,6,80,0,1
222030,-90.9090909090909,4,2,2,80,0,1
222280,-90.9090909090909,4,2,6,80,0,1
222364,-90.9090909090909,4,2,2,80,0,1
222613,-90.9090909090909,4,2,6,80,0,1
222697,-90.9090909090909,4,2,2,80,0,1
222946,-90.9090909090909,4,2,6,80,0,1
223030,-90.9090909090909,4,2,2,80,0,1
223280,-90.9090909090909,4,2,5,80,0,1
223613,-90.9090909090909,4,2,6,80,0,1
223697,-90.9090909090909,4,2,2,80,0,1
223946,-90.9090909090909,4,2,6,80,0,1
224030,-90.9090909090909,4,2,2,80,0,1
224613,-90.9090909090909,4,2,6,80,0,1
224697,-90.9090909090909,4,2,2,80,0,1
224946,-90.9090909090909,4,2,6,80,0,1
225030,-90.9090909090909,4,2,2,80,0,1
225280,-90.9090909090909,4,2,6,80,0,1
225364,-90.9090909090909,4,2,2,80,0,1
225446,-90.9090909090909,4,2,3,80,0,1
226280,-90.9090909090909,4,2,2,80,0,1
226613,-90.9090909090909,4,2,5,80,0,1
226779,-90.9090909090909,4,2,2,75,0,1
226863,-90.9090909090909,4,2,2,75,0,0
226946,-90.9090909090909,4,2,6,75,0,1
227029,-90.9090909090909,4,2,2,75,0,1
227279,-90.9090909090909,4,2,6,75,0,1
227362,-90.9090909090909,4,2,2,75,0,1
227613,-90.9090909090909,4,2,6,75,0,1
227696,-90.9090909090909,4,2,2,75,0,1
227946,-90.9090909090909,4,2,6,75,0,1
228029,-90.9090909090909,4,2,2,75,0,1
228279,-90.9090909090909,4,2,6,75,0,1
228362,-90.9090909090909,4,2,2,75,0,1
228613,-90.9090909090909,4,2,6,75,0,1
228696,-90.9090909090909,4,2,2,75,0,1
228946,-90.9090909090909,4,2,6,75,0,1
229029,-90.9090909090909,4,2,2,75,0,1
229113,-90.9090909090909,4,2,5,75,0,1
229946,-90.9090909090909,4,2,6,75,0,1
230029,-90.9090909090909,4,2,2,75,0,1
230279,-90.9090909090909,4,2,6,75,0,1
230362,-90.9090909090909,4,2,2,75,0,1
230613,-90.9090909090909,4,2,6,75,0,1
230696,-90.9090909090909,4,2,2,75,0,1
230946,-90.9090909090909,4,2,6,75,0,1
231029,-90.9090909090909,4,2,2,75,0,1
231113,-90.9090909090909,4,2,3,75,0,1
231946,-90.9090909090909,4,2,5,75,0,1
232279,-90.9090909090909,4,2,6,75,0,1
232362,-90.9090909090909,4,2,2,75,0,1
232529,-90.9090909090909,4,2,2,5,0,1
232613,-90.9090909090909,4,2,6,75,0,1
232696,-90.9090909090909,4,2,2,75,0,1
232946,-90.9090909090909,4,2,6,75,0,1
233029,-90.9090909090909,4,2,2,75,0,1
233279,-90.9090909090909,4,2,6,75,0,1
233362,-90.9090909090909,4,2,2,75,0,1
233613,-90.9090909090909,4,2,6,75,0,1
233696,-90.9090909090909,4,2,2,75,0,1
233946,-90.9090909090909,4,2,6,75,0,1
234029,-90.9090909090909,4,2,2,75,0,1
234446,-90.9090909090909,4,2,5,75,0,1
234946,-90.9090909090909,4,2,3,75,0,1
235279,-90.9090909090909,4,2,6,75,0,1
235362,-90.9090909090909,4,2,2,75,0,1
235613,-90.9090909090909,4,2,6,75,0,1
235696,-90.9090909090909,4,2,2,75,0,1
235946,-90.9090909090909,4,2,6,75,0,1
236029,-90.9090909090909,4,2,2,75,0,1
236779,-90.9090909090909,4,2,5,75,0,1
237613,-76.9230769230769,4,2,2,60,0,0
237946,-76.9230769230769,4,2,2,5,0,0
238113,-76.9230769230769,4,2,2,60,0,0
238279,-76.9230769230769,4,2,2,5,0,0
238446,-76.9230769230769,4,2,2,60,0,0

[Colours]
Combo1 : 255,128,64
Combo2 : 255,64,64
SliderBorder : 200,200,200
SliderTrackOverride : 25,34,58

[HitObjects]
256,192,280,5,2,0:0:0:0:
184,268,2946,5,8,0:2:0:0:
184,268,5613,5,8,0:2:0:0:
256,192,5779,1,8,0:2:0:0:
328,268,5946,1,8,0:2:0:0:
328,268,10279,6,0,P|281:279|255:288,1,71.9999978027344,14|0,0:0|0:0,0:0:0:0:
332,170,10613,2,0,P|378:178|451:197,1,107.999996704102,10|0,0:0|0:0,0:0:0:0:
464,200,10946,6,0,B|478:161|478:161|459:102,1,80,14|10,0:0|0:1,0:0:0:0:
367,55,11279,2,0,P|324:70|277:63,1,80,10|8,0:2|0:1,0:0:0:0:
172,39,11613,1,10,0:2:0:0:
213,151,11779,1,10,0:1:0:0:
95,123,11946,2,0,P|55:121|18:135,1,80,10|10,0:2|0:1,0:0:0:0:
8,255,12279,6,0,P|16:295|28:342,1,80,8|0,0:2|0:0,0:0:0:0:
122,261,12613,2,0,P|130:301|142:348,1,80,10|10,0:2|0:1,0:0:0:0:
254,374,12946,1,10,0:2:0:0:
330,283,13113,1,12,0:1:0:0:
330,283,13196,1,8,0:1:0:0:
330,283,13279,2,0,P|372:293|419:278,1,80,10|12,0:2|0:1,0:0:0:0:
490,197,13613,6,0,P|437:186|394:182,1,80,10|0,0:2|0:0,0:0:0:0:
336,89,13946,2,0,P|375:83|414:75,1,80,10|8,0:2|0:1,0:0:0:0:
278,5,14279,1,10,0:2:0:0:
246,121,14446,1,10,0:1:0:0:
149,49,14613,2,0,P|106:44|64:62,1,80,10|10,0:2|0:1,0:0:0:0:
2,154,14946,5,8,0:2:0:0:
113,222,15113,1,14,0:1:0:0:
113,222,15196,1,10,0:1:0:0:
113,222,15279,2,0,P|161:209|196:203,1,80,10|14,0:2|0:1,0:0:0:0:
335,203,15613,1,10,0:2:0:0:
363,310,15779,1,10,0:1:0:0:
440,169,15946,1,14,0:2:0:0:
473,298,16112,1,8,0:2:0:0:
335,203,16279,6,0,B|321:164|321:164|337:115,1,80,14|0,0:2|0:0,0:0:0:0:
216,40,16613,2,0,P|221:82|227:132,1,80,10|8,0:2|0:1,0:0:0:0:
170,226,16946,1,10,0:2:0:0:
110,121,17113,1,10,0:1:0:0:
55,228,17279,2,0,P|60:270|66:320,1,80,10|10,0:2|0:1,0:0:0:0:
167,371,17613,6,0,P|208:369|256:346,1,80,8|0,0:2|0:0,0:0:0:0:
344,288,17946,2,0,P|307:273|267:271,1,80,10|10,0:2|0:1,0:0:0:0:
358,383,18279,1,10,0:2:0:0:
438,262,18446,2,0,P|431:220|423:168,1,80,14|10,0:1|0:2,0:0:0:0:
404,64,18779,1,12,0:1:0:0:
293,156,18946,6,0,B|234:144|234:144|199:160|199:160|132:146,1,160,14|10,0:2|0:2,0:0:0:0:
21,123,19446,1,8,0:1:0:0:
69,233,19613,2,0,P|62:271|53:318,1,80,10|10,0:2|0:1,0:0:0:0:
153,379,19946,1,10,0:2:0:0:
243,300,20113,2,0,P|288:314|333:306,1,80,14|8,0:1|0:2,0:0:0:0:
428,258,20446,5,10,0:2:0:0:
336,208,20613,1,10,0:2:0:0:
425,155,20779,1,10,0:2:0:0:
244,158,20946,5,10,0:2:0:0:
333,105,21113,1,10,0:2:0:0:
333,105,21196,1,10,0:1:0:0:
333,105,21279,1,10,0:2:0:0:
336,208,21446,2,0,L|330:252,1,40,10|8,0:2|0:1,0:0:0:0:
319,327,21613,6,0,B|248:345|248:345|199:305,1,120,14|0,0:1|0:0,0:0:0:0:
195,303,21946,2,0,P|189:346|185:384,1,80,10|0,0:2|0:0,0:0:0:0:
80,322,22279,2,0,P|75:282|70:242,1,80,10|10,0:1|0:1,0:0:0:0:
58,122,22613,1,10,0:2:0:0:
155,191,22779,1,10,0:2:0:0:
203,80,22946,6,0,P|245:46|357:64,1,160,8|10,0:1|0:2,0:0:0:0:
413,154,23446,2,0,P|406:190|398:241,1,80,10|8,0:1|0:1,0:0:0:0:
379,351,23779,1,10,0:1:0:0:
310,252,23946,1,10,0:2:0:0:
454,301,24113,1,10,0:1:0:0:
283,341,24279,6,0,B|241:320|241:320|160:340,1,120,14|0,0:1|0:0,0:0:0:0:
158,354,24613,2,0,P|99:345|71:341,1,80,10|2,0:2|0:0,0:0:0:0:
17,238,24946,2,0,P|56:232|96:226,1,80,10|10,0:1|0:1,0:0:0:0:
194,157,25279,1,10,0:2:0:0:
77,128,25446,1,10,0:2:0:0:
177,62,25613,6,0,P|216:58|274:78,1,80,8|2,0:1|0:2,0:0:0:0:
340,152,25946,1,10,0:2:0:0:
220,236,26113,2,0,P|206:199|210:160,1,80,2|10,0:2|0:1,0:0:0:0:
312,261,26446,1,8,0:1:0:0:
205,331,26613,2,0,P|149:319|110:315,1,80,10|8,0:2|0:1,0:0:0:0:
334,375,26946,6,0,B|377:366|377:366|407:377|407:377|469:362,1,120,14|0,0:1|0:0,0:0:0:0:
469,361,27279,2,0,P|477:320|459:276,1,80,10|2,0:2|0:0,0:0:0:0:
509,172,27613,2,0,P|477:144|430:138,1,80,10|10,0:1|0:1,0:0:0:0:
321,153,27946,1,10,0:2:0:0:
397,60,28113,1,10,0:2:0:0:
389,207,28279,6,0,P|384:246|378:286,1,80,8|2,0:1|0:2,0:0:0:0:
296,375,28613,1,10,0:2:0:0:
218,283,28779,2,0,P|175:280|132:298,1,80,10|8,0:1|0:1,0:0:0:0:
34,349,29113,1,10,0:1:0:0:
151,371,29279,1,10,0:2:0:0:
55,252,29446,1,8,0:1:0:0:
218,283,29613,6,0,B|267:312|328:277|328:277|297:238,1,160,14|10,0:1|0:2,0:0:0:0:
210,155,30113,1,8,0:1:0:0:
210,155,30196,1,8,0:2:0:0:
210,155,30279,2,0,P|218:108|226:69,1,80,14|10,0:1|0:1,0:0:0:0:
332,21,30613,2,0,P|339:60|346:99,1,80,10|14,0:2|0:2,0:0:0:0:
457,178,30946,5,0,0:0:0:0:
427,65,31113,1,10,0:2:0:0:
356,184,31279,1,10,0:2:0:0:
251,96,31446,2,0,P|205:97|172:114,1,80,10|8,0:1|0:2,0:0:0:0:
82,185,31779,1,10,0:1:0:0:
82,185,31863,1,10,0:1:0:0:
82,185,31946,1,10,0:2:0:0:
93,65,32113,1,10,0:2:0:0:
181,199,32279,6,0,B|167:246|167:246|178:273|178:273|165:325,1,128,14|8,0:1|0:2,0:0:0:0:
166,321,32946,2,0,P|196:324|251:333,1,64,10|10,0:1|0:1,0:0:0:0:
319,335,33279,1,10,0:2:0:0:
397,290,33446,6,0,P|416:235|379:164,1,128,10|8,0:1|0:1,0:0:0:0:
309,134,33946,2,0,P|304:177|301:205,1,64,10|0,0:2|0:0,0:0:0:0:
223,241,34279,1,10,0:1:0:0:
158,178,34446,2,0,P|115:183|87:186,1,64,10|8,0:1|0:2,0:0:0:0:
32,119,34779,6,0,P|67:83|158:89,1,128,10|10,0:1|0:1,0:0:0:0:
228,102,35279,2,0,P|236:51|238:34,1,64,10|0,0:2|0:0,0:0:0:0:
325,10,35613,1,8,0:1:0:0:
325,10,35779,1,8,0:1:0:0:
384,77,35946,2,0,P|427:68|458:65,1,64,8|0,0:2|0:0,0:0:0:0:
493,142,36279,6,0,P|512:202|493:265,2,128,8|8|8,0:1|0:2|0:1,0:0:0:0:
446,65,37113,1,8,0:1:0:0:
402,142,37279,1,8,0:2:0:0:
314,121,37446,6,0,B|266:130|266:130|247:153|247:153|190:164,1,128,10|8,0:1|0:1,0:0:0:0:
109,175,37946,1,10,0:2:0:0:
109,175,38279,2,0,P|74:170|40:163,1,64,10|10,0:1|0:1,0:0:0:0:
0,89,38613,1,10,0:2:0:0:
58,21,38779,6,0,P|119:13|174:57,1,128,10|8,0:1|0:1,0:0:0:0:
260,53,39279,2,0,P|294:47|338:41,1,64,10|2,0:2|0:0,0:0:0:0:
408,71,39613,1,10,0:1:0:0:
355,143,39779,2,0,P|361:177|366:208,1,64,10|8,0:1|0:2,0:0:0:0:
379,295,40113,1,10,0:1:0:0:
266,253,40279,5,2,0:3:0:0:
203,355,40446,1,8,0:1:0:0:
203,355,40529,1,8,0:1:0:0:
203,355,40613,2,0,P|146:355|117:343,1,80,8|8,0:2|0:1,0:0:0:0:
20,287,40946,5,10,0:1:0:0:
133,238,41113,1,8,0:1:0:0:
133,238,41196,1,8,0:1:0:0:
133,238,41279,2,0,P|133:181|121:152,1,80,8|8,0:2|0:1,0:0:0:0:
64,55,41613,5,10,0:1:0:0:
180,13,41779,1,8,0:1:0:0:
180,13,41863,1,8,0:1:0:0:
180,13,41946,1,8,0:2:0:0:
236,118,42113,1,2,0:2:0:0:
300,17,42279,5,8,0:1:0:0:
162,90,42446,1,8,0:2:0:0:
317,127,42613,2,0,P|362:118|400:112,1,80,8|8,0:2|0:1,0:0:0:0:
495,195,42946,5,14,0:1:0:0:
417,270,43113,1,8,0:1:0:0:
319,225,43279,2,0,P|258:226|216:266,1,107.999996704102,8|0,0:2|0:0,0:0:0:0:
213,269,43613,2,0,P|175:265|135:261,1,71.9999978027344,10|8,0:1|0:1,0:0:0:0:
40,252,43946,1,10,0:2:0:0:
20,152,44113,6,0,P|57:116|157:126,1,143.999995605469,10|0,0:1|0:0,0:0:0:0:
244,135,44613,2,0,P|238:95|231:57,1,71.9999978027344,10|0,0:2|0:0,0:0:0:0:
313,3,44946,1,10,0:1:0:0:
388,69,45113,2,0,P|419:62|471:52,1,71.9999978027344,10|8,0:1|0:2,0:0:0:0:
499,146,45446,6,0,P|491:206|481:288,1,143.999995605469,10|10,0:1|0:1,0:0:0:0:
388,329,45946,2,0,P|380:292|386:257,1,71.9999978027344,10|0,0:2|0:0,0:0:0:0:
339,174,46279,1,8,0:1:0:0:
339,174,46446,1,8,0:1:0:0:
257,233,46613,2,0,P|221:238|186:230,1,71.9999978027344,8|8,0:2|0:1,0:0:0:0:
88,206,46946,6,0,P|83:244|78:285,1,71.9999978027344,8|0,0:1|0:0,0:0:0:0:
69,378,47279,1,8,0:2:0:0:
170,347,47446,1,10,0:1:0:0:
170,347,47529,1,8,0:2:0:0:
170,347,47613,2,0,P|204:339|240:344,1,71.9999978027344,8|10,0:1|0:1,0:0:0:0:
337,371,47946,1,8,0:2:0:0:
392,253,48113,6,0,B|475:273|475:273|502:261|509:214,1,143.999995605469,10|10,0:1|0:1,0:0:0:0:
454,139,48613,2,0,P|409:149|380:155,1,71.9999978027344,8|0,0:2|0:0,0:0:0:0:
284,172,48946,1,10,0:1:0:0:
318,77,49113,1,10,0:1:0:0:
219,94,49279,1,10,0:2:0:0:
181,187,49446,6,0,B|189:258|189:255|201:338,1,143.999995605469,10|0,0:1|0:0,0:0:0:0:
107,371,49946,2,0,P|69:376|33:366,1,71.9999978027344,10|0,0:2|0:0,0:0:0:0:
4,271,50279,1,10,0:1:0:0:
78,202,50446,2,0,B|72:164|72:166|68:129,1,71.9999978027344,10|8,0:1|0:2,0:0:0:0:
124,46,50779,1,2,0:2:0:0:
181,187,50946,5,10,0:1:0:0:
238,81,51113,1,8,0:1:0:0:
311,175,51279,2,0,P|350:168|391:160,1,80,8|0,0:2|0:0,0:0:0:0:
509,141,51613,1,10,0:1:0:0:
407,78,51779,1,0,0:0:0:0:
458,217,51946,2,0,P|449:275|444:307,1,80,8|2,0:2|0:2,0:0:0:0:
350,369,52279,5,10,0:1:0:0:
245,309,52446,2,0,P|200:317|164:304,1,80,10|8,0:1|0:2,0:0:0:0:
94,211,52779,2,0,P|132:200|170:208,1,80,10|8,0:1|0:2,0:0:0:0:
53,294,53113,1,10,0:1:0:0:
21,154,53279,2,0,L|26:113,1,40,8|8,0:2|0:1,0:0:0:0:
103,93,53446,2,0,L|98:53,1,40,8|8,0:1|0:1,0:0:0:0:
168,13,53613,6,0,B|207:42|207:42|295:19,1,128,14|12,0:1|0:1,0:0:0:0:
284,22,54279,2,0,P|277:70|275:96,1,64,10|8,0:2|0:1,0:0:0:0:
267,175,54613,1,10,0:2:0:0:
349,142,54779,6,0,P|412:131|465:179,1,128,10|0,0:1|0:0,0:0:0:0:
502,246,55279,2,0,P|459:256|434:262,1,64,10|0,0:1|0:0,0:0:0:0:
351,279,55613,1,10,0:1:0:0:
315,362,55779,1,10,0:2:0:0:
315,362,55946,2,0,P|272:352|247:346,1,64,8|0,0:1|0:0,0:0:0:0:
160,277,56279,6,0,B|106:290|106:290|97:306|97:306|32:322,1,128,14|14,0:1|0:1,0:0:0:0:
45,319,56946,2,0,P|40:284|35:254,1,64,10|8,0:2|0:1,0:0:0:0:
21,167,57279,1,10,0:2:0:0:
104,130,57446,2,0,P|160:152|229:109,1,128,10|8,0:1|0:2,0:0:0:0:
279,58,57946,2,0,P|257:114|300:183,1,128,10|8,0:1|0:1,0:0:0:0:
370,263,58446,5,10,0:2:0:0:
403,131,58613,1,10,0:2:0:0:
370,263,58779,1,10,0:2:0:0:
284,172,58946,6,0,B|205:155|205:155|150:189,1,128,14|14,0:1|0:1,0:0:0:0:
165,180,59613,2,0,P|176:216|172:249,1,64,10|8,0:2|0:1,0:0:0:0:
121,314,59946,1,10,0:2:0:0:
53,255,60113,6,0,B|60:200|57:216|70:111,1,128,10|2,0:1|0:0,0:0:0:0:
129,62,60613,2,0,P|161:71|197:67,1,64,10|0,0:1|0:0,0:0:0:0:
269,25,60946,1,10,0:1:0:0:
346,80,61113,1,14,0:2:0:0:
346,80,61279,2,0,P|378:71|414:75,1,64,8|10,0:1|0:1,0:0:0:0:
484,140,61613,5,14,0:1:0:0:
387,162,61779,1,8,0:1:0:0:
457,234,61946,2,0,P|453:263|446:309,1,71.9999978027344,8|0,0:2|0:0,0:0:0:0:
366,377,62279,5,10,0:1:0:0:
325,276,62446,1,8,0:1:0:0:
262,364,62613,1,8,0:2:0:0:
221,263,62779,6,0,B|140:255|165:299|81:293,1,143.999995605469,8|8,0:1|0:1,0:0:0:0:
13,210,63279,2,0,P|5:177|14:127,1,71.9999978027344,8|0,0:2|0:0,0:0:0:0:
54,40,63613,5,10,0:1:0:0:
112,130,63779,1,8,0:1:0:0:
175,42,63946,2,0,P|212:48|258:56,1,71.9999978027344,8|2,0:2|0:0,0:0:0:0:
364,75,64279,5,10,0:1:0:0:
260,136,64446,1,10,0:1:0:0:
316,0,64613,1,10,0:2:0:0:
386,160,64779,2,0,P|446:152|472:143,1,80,10|0,0:1|0:0,0:0:0:0:
378,61,65113,1,10,0:1:0:0:
311,206,65279,1,10,0:2:0:0:
173,122,65446,6,0,B|140:132|109:130|109:130|85:155|85:155|54:151|17:163,1,160,10|10,0:1|0:1,0:0:0:0:
10,279,65946,2,0,P|45:295|93:291,1,80,10|10,0:2|0:1,0:0:0:0:
202,265,66279,1,10,0:2:0:0:
131,221,66446,1,10,0:2:0:0:
159,337,66613,1,10,0:2:0:0:
284,274,66779,6,0,B|378:298|378:298|416:278|418:228,1,176.000005371094,14|10,0:1|0:1,0:0:0:0:
298,157,67279,2,0,P|228:170|196:176,1,88.000002685547,10|2,0:2|0:2,0:0:0:0:
99,101,67613,1,10,0:1:0:0:
227,75,67779,1,10,0:1:0:0:
124,184,67946,1,10,0:2:0:0:
270,266,68113,6,0,B|294:313|287:354|253:380|253:380|188:348,1,176.000005371094,10|8,0:1|0:1,0:0:0:0:
61,298,68613,1,10,0:2:0:0:
124,184,68779,2,0,P|119:141|113:87,1,88.000002685547,2|8,0:2|0:1,0:0:0:0:
34,214,69113,1,8,0:1:0:0:
152,271,69279,1,8,0:2:0:0:
207,122,69446,6,0,B|276:106|276:106|296:76|296:76|374:60,1,176.000005371094,14|10,0:1|0:1,0:0:0:0:
484,132,69946,2,0,P|502:173|492:224,1,88.000002685547,10|2,0:2|0:2,0:0:0:0:
377,272,70279,1,10,0:1:0:0:
399,141,70446,1,10,0:1:0:0:
461,296,70613,1,10,0:2:0:0:
328,194,70779,6,0,B|282:239|282:239|159:208,1,176.000005371094,10|8,0:1|0:1,0:0:0:0:
27,274,71279,1,10,0:2:0:0:
125,377,71446,1,8,0:1:0:0:
125,377,71529,1,8,0:2:0:0:
125,377,71613,2,0,P|172:369|227:362,1,88.000002685547,10|10,0:1|0:1,0:0:0:0:
343,351,71946,1,10,0:2:0:0:
258,234,72113,6,0,B|290:120|290:120|264:144|226:154,1,176.000005371094,14|8,0:1|0:1,0:0:0:0:
136,60,72613,2,0,P|177:46|221:52,1,88.000002685547,8|2,0:2|0:0,0:0:0:0:
154,196,72946,1,10,0:1:0:0:
59,103,73113,1,8,0:1:0:0:
66,234,73279,1,10,0:2:0:0:
241,150,73446,6,0,B|344:126|344:126|359:156|403:173,1,176.000005371094,10|8,0:1|0:1,0:0:0:0:
453,299,73946,2,0,P|401:316|365:309,1,88.000002685547,8|2,0:2|0:2,0:0:0:0:
243,270,74279,1,10,0:1:0:0:
302,384,74446,1,8,0:1:0:0:
326,227,74613,1,10,0:2:0:0:
203,352,74779,6,0,B|166:351|138:337|138:337|96:359|96:359|68:344|23:340,1,176.000005371094,14|10,0:1|0:1,0:0:0:0:
2,205,75279,2,0,P|47:186|95:192,1,88.000002685547,10|2,0:2|0:2,0:0:0:0:
206,244,75613,1,10,0:1:0:0:
151,124,75779,1,8,0:1:0:0:
88,270,75946,1,10,0:2:0:0:
227,161,76113,6,0,P|272:168|334:177,1,88.000002685547,10|0,0:1|0:0,0:0:0:0:
444,197,76446,1,10,0:1:0:0:
360,94,76613,1,10,0:2:0:0:
373,259,76779,1,8,0:3:0:0:
373,259,76863,1,4,0:3:0:0:
373,259,76946,1,10,0:1:0:0:
459,105,77113,1,10,0:2:0:0:
314,174,77279,1,10,0:2:0:0:
475,226,77446,5,14,0:1:0:0:
370,279,77613,2,0,P|332:272|274:264,1,83.9999974365235,2|0,0:0|0:0,0:0:0:0:
269,263,77946,6,0,B|285:307|285:307|272:347,1,88.000002685547,14|2,0:2|0:2,0:0:0:0:
122,270,78279,1,10,0:1:0:0:
226,188,78446,1,10,0:1:0:0:
183,340,78613,1,10,0:2:0:0:
40,253,78779,6,0,B|7:211|12:163|12:163|36:135|36:135|26:78,1,176.000005371094,10|8,0:1|0:1,0:0:0:0:
122,0,79279,1,10,0:2:0:0:
215,94,79446,2,0,P|263:86|307:78,1,88.000002685547,2|8,0:2|0:1,0:0:0:0:
216,2,79779,1,8,0:1:0:0:
157,159,79946,1,8,0:2:0:0:
324,163,80113,6,0,B|294:275|294:275|359:246,1,176.000005371094,14|10,0:1|0:1,0:0:0:0:
487,193,80613,2,0,P|478:148|469:96,1,88.000002685547,10|2,0:2|0:2,0:0:0:0:
359,35,80946,1,10,0:1:0:0:
324,163,81113,1,10,0:1:0:0:
456,95,81279,1,10,0:2:0:0:
280,83,81446,6,0,B|222:83|181:116|181:116|145:101|135:54,1,176.000005371094,10|8,0:1|0:1,0:0:0:0:
0,17,81946,1,10,0:2:0:0:
44,141,82113,1,8,0:1:0:0:
44,141,82196,1,8,0:2:0:0:
44,141,82279,2,0,P|35:193|29:239,1,88.000002685547,10|10,0:1|0:1,0:0:0:0:
90,346,82613,1,10,0:2:0:0:
202,234,82779,6,0,B|246:213|290:230|290:230|314:251|314:251|339:240|378:238,1,176.000005371094,14|8,0:1|0:1,0:0:0:0:
489,171,83279,2,0,P|497:131|479:78,1,88.000002685547,8|0,0:2|0:0,0:0:0:0:
378,6,83613,1,10,0:1:0:0:
400,135,83779,1,8,0:1:0:0:
485,1,83946,1,10,0:2:0:0:
327,80,84113,6,0,B|287:78|265:66|265:66|218:90|218:90|189:79|145:74,1,176.000005371094,10|8,0:1|0:1,0:0:0:0:
100,203,84613,2,0,P|161:196|192:188,1,88.000002685547,12|2,0:2|0:2,0:0:0:0:
308,241,84946,1,10,0:1:0:0:
182,283,85113,1,8,0:1:0:0:
271,162,85279,1,10,0:2:0:0:
324,329,85446,6,0,B|379:334|426:350|426:350|464:337|478:290,1,176.000005371094,14|10,0:1|0:1,0:0:0:0:
468,159,85946,2,0,P|427:142|372:145,1,88.000002685547,10|2,0:2|0:2,0:0:0:0:
253,172,86279,1,10,0:1:0:0:
368,235,86446,1,8,0:1:0:0:
301,90,86613,1,10,0:2:0:0:
169,192,86779,6,0,B|104:176|104:176|67:198|67:198|3:181,1,176.000005371094,14|8,0:1|0:1,0:0:0:0:
100,91,87279,1,14,0:2:0:0:
128,273,87446,1,8,0:1:0:0:
128,273,87529,1,8,0:2:0:0:
128,273,87613,1,14,0:1:0:0:
244,153,87779,1,8,0:1:0:0:
86,187,87946,2,0,P|39:195|-2:178,1,88.000002685547,14|10,0:2|0:1,0:0:0:0:
185,98,88279,5,14,0:2:0:0:
216,263,88446,1,14,0:2:0:0:
216,263,88779,5,10,0:2:0:0:
344,154,88946,1,10,0:2:0:0:
344,154,89279,5,10,0:2:0:0:
374,319,89446,1,10,0:2:0:0:
374,319,89779,5,10,0:2:0:0:
216,263,89946,2,0,P|166:273|114:285,1,95.9999970703126,10|2,0:2|0:3,0:0:0:0:
33,226,90446,5,8,0:1:0:0:
33,226,90529,1,8,0:1:0:0:
33,226,90613,2,0,B|8:193|6:153|28:115|28:115|76:137,1,155.999992858887,14|0,0:2|0:0,0:0:0:0:
141,154,90946,6,0,B|187:144|187:144|213:160|213:160|267:148,1,128,14|14,0:1|0:1,0:0:0:0:
262,149,91613,2,0,P|252:109|256:78,1,64,10|10,0:2|0:2,0:0:0:0:
313,11,91946,1,10,0:2:0:0:
378,81,92113,2,0,P|425:71|445:68,1,64,10|0,0:1|0:0,0:0:0:0:
498,145,92446,6,0,B|464:181|464:181|485:216|497:278,1,128,10|2,0:2|0:2,0:0:0:0:
442,337,92946,1,8,0:1:0:0:
442,337,93113,1,10,0:2:0:0:
358,290,93279,2,0,P|319:304|257:283,1,96,10|0,0:1|0:0,0:0:0:0:
249,277,93613,6,0,B|261:225|261:225|248:202|248:202|258:155,1,128,14|14,0:1|0:1,0:0:0:0:
259,155,94279,2,0,P|224:164|182:157,1,64,10|10,0:2|0:2,0:0:0:0:
108,122,94613,1,10,0:2:0:0:
150,36,94779,6,0,B|228:24|209:66|292:50,1,128,10|10,0:1|0:2,0:0:0:0:
357,4,95279,2,0,P|327:32|361:114,1,128,10|8,0:1|0:1,0:0:0:0:
462,182,95779,5,10,0:2:0:0:
495,49,95946,1,10,0:2:0:0:
462,182,96113,1,10,0:2:0:0:
348,107,96279,6,0,B|298:117|298:117|283:138|283:138|217:153,1,128,14|8,0:1|0:2,0:0:0:0:
233,149,96946,2,0,P|244:191|240:214,1,64,10|10,0:1|0:1,0:0:0:0:
194,287,97279,1,10,0:2:0:0:
114,244,97446,6,0,B|124:172|120:196|135:95,1,128,10|8,0:1|0:1,0:0:0:0:
182,42,97946,2,0,P|219:50|247:44,1,64,10|0,0:2|0:0,0:0:0:0:
326,9,98279,1,10,0:1:0:0:
397,62,98446,2,0,P|386:115|383:148,1,64,10|8,0:1|0:2,0:0:0:0:
371,213,98779,6,0,P|438:208|486:258,1,128,10|10,0:1|0:1,0:0:0:0:
494,334,99279,2,0,P|462:339|430:344,1,64,10|0,0:2|0:0,0:0:0:0:
345,362,99613,1,8,0:1:0:0:
345,362,99779,1,8,0:1:0:0:
256,376,99946,2,0,P|224:370|192:365,1,64,8|0,0:2|0:0,0:0:0:0:
123,308,100279,6,0,P|74:347|13:341,2,128,8|8|8,0:1|0:2|0:1,0:0:0:0:
135,218,101113,1,10,0:1:0:0:
205,272,101279,1,8,0:2:0:0:
217,183,101446,6,0,B|258:188|294:204|294:204|335:162,1,128,10|8,0:1|0:1,0:0:0:0:
291,87,101946,1,10,0:2:0:0:
291,87,102279,2,0,P|254:79|218:86,1,64,10|10,0:1|0:1,0:0:0:0:
149,126,102613,1,10,0:2:0:0:
116,209,102779,6,0,P|128:272|142:343,1,128,10|8,0:1|0:1,0:0:0:0:
225,363,103279,2,0,P|261:346|297:345,1,64,10|0,0:2|0:0,0:0:0:0:
373,359,103613,1,10,0:1:0:0:
451,315,103779,2,0,P|455:287|465:240,1,64,10|8,0:1|0:2,0:0:0:0:
479,163,104113,1,10,0:1:0:0:
364,195,104279,5,10,0:1:0:0:
313,85,104446,1,8,0:1:0:0:
313,85,104529,1,8,0:1:0:0:
313,85,104613,2,0,P|266:80|230:91,1,80,8|8,0:2|0:1,0:0:0:0:
126,140,104946,5,10,0:1:0:0:
235,210,105113,1,8,0:1:0:0:
235,210,105196,1,8,0:1:0:0:
235,210,105280,2,0,P|240:257|229:293,1,80,8|8,0:2|0:1,0:0:0:0:
130,353,105613,5,10,0:1:0:0:
145,243,105779,1,8,0:1:0:0:
145,243,105863,1,8,0:1:0:0:
145,243,105946,1,8,0:2:0:0:
46,311,106113,1,2,0:2:0:0:
221,304,106279,5,8,0:1:0:0:
165,153,106446,1,8,0:2:0:0:
319,194,106613,2,0,P|360:186|401:179,1,80,8|8,0:2|0:1,0:0:0:0:
480,79,106946,6,0,P|439:38|346:64,1,143.999995605469,14|8,0:1|0:2,0:0:0:0:
273,116,107446,1,2,0:2:0:0:
213,25,107613,2,0,P|160:33|139:36,1,71.9999978027344,10|10,0:1|0:1,0:0:0:0:
42,52,107946,1,10,0:2:0:0:
102,132,108113,6,0,P|112:170|109:208,1,71.9999978027344,2|8,0:2|0:1,0:0:0:0:
53,285,108446,1,8,0:1:0:0:
132,347,108613,2,0,P|171:334|250:324,1,107.999996704102,10|0,0:2|0:0,0:0:0:0:
255,341,108946,1,10,0:1:0:0:
328,272,109113,2,0,P|334:231|327:197,1,71.9999978027344,10|8,0:1|0:2,0:0:0:0:
296,105,109446,6,0,P|347:68|435:82,1,143.999995605469,2|10,0:2|0:1,0:0:0:0:
491,150,109946,2,0,P|485:189|481:224,1,71.9999978027344,10|0,0:2|0:0,0:0:0:0:
424,306,110279,1,8,0:1:0:0:
424,306,110446,1,8,0:1:0:0:
328,272,110613,2,0,P|281:272|256:283,1,71.9999978027344,8|0,0:2|0:0,0:0:0:0:
182,348,110946,5,8,0:1:0:0:
182,348,111113,1,8,0:1:0:0:
99,290,111279,2,0,P|93:251|87:207,1,71.9999978027344,8|0,0:2|0:0,0:0:0:0:
144,135,111613,1,8,0:1:0:0:
144,135,111779,1,8,0:1:0:0:
230,186,111946,2,0,P|286:195|339:157,1,107.999996704102,8|0,0:2|0:0,0:0:0:0:
347,154,112279,6,0,B|332:104|313:68|313:68|335:55|367:29,1,143.999995605469,10|8,0:1|0:2,0:0:0:0:
449,3,112779,1,2,0:2:0:0:
506,85,112946,2,0,P|498:119|491:155,1,71.9999978027344,10|10,0:1|0:1,0:0:0:0:
470,254,113279,1,10,0:2:0:0:
370,272,113446,6,0,P|378:306|385:342,1,71.9999978027344,2|8,0:2|0:1,0:0:0:0:
291,380,113779,1,8,0:1:0:0:
206,323,113946,2,0,P|170:332|131:325,1,71.9999978027344,10|0,0:2|0:0,0:0:0:0:
43,285,114279,1,10,0:1:0:0:
113,212,114446,2,0,L|193:224,1,71.9999978027344,10|8,0:1|0:2,0:0:0:0:
283,238,114779,1,2,0:2:0:0:
351,101,114946,5,10,0:1:0:0:
232,118,115113,1,0,0:0:0:0:
299,19,115279,2,0,P|337:5|391:11,1,80,8|0,0:2|0:0,0:0:0:0:
462,90,115613,2,0,P|450:150|444:216,1,120,10|0,0:1|0:0,0:0:0:0:
420,223,115946,2,0,P|430:263|435:302,1,80,8|0,0:2|0:0,0:0:0:0:
310,375,116279,5,10,0:2:0:0:
222,292,116446,2,0,P|183:298|141:309,1,80,10|8,0:1|0:2,0:0:0:0:
252,190,116779,2,0,P|290:200|330:206,1,80,10|8,0:1|0:2,0:0:0:0:
275,71,117113,1,10,0:1:0:0:
171,130,117279,2,0,L|163:180,1,40,8|8,0:2|0:1,0:0:0:0:
91,203,117446,2,0,L|99:253,1,40,8|8,0:1|0:1,0:0:0:0:
144,308,117613,6,0,B|199:318|199:318|215:332|215:332|270:342,1,128,14|14,0:1|0:1,0:0:0:0:
265,341,118279,2,0,P|295:336|336:328,1,64,10|8,0:2|0:1,0:0:0:0:
414,304,118613,1,10,0:2:0:0:
391,217,118779,6,0,P|349:191|268:209,1,128,10|0,0:1|0:0,0:0:0:0:
188,229,119279,2,0,P|182:198|174:166,1,64,10|0,0:1|0:0,0:0:0:0:
155,78,119613,1,10,0:1:0:0:
79,122,119779,1,10,0:2:0:0:
79,122,119946,2,0,P|69:157|74:197,1,64,8|0,0:1|0:0,0:0:0:0:
105,266,120279,6,0,B|86:356|86:356|129:339,1,128,14|14,0:1|0:1,0:0:0:0:
120,343,120946,2,0,P|151:336|184:342,1,64,10|8,0:2|0:1,0:0:0:0:
265,375,121279,1,10,0:2:0:0:
326,309,121446,2,0,B|317:244|319:268|308:170,1,128,10|8,0:1|0:2,0:0:0:0:
232,135,121946,2,0,P|288:143|348:93,1,128,10|8,0:1|0:1,0:0:0:0:
183,54,122446,5,10,0:2:0:0:
148,184,122613,1,10,0:2:0:0:
183,54,122779,1,10,0:2:0:0:
53,89,122946,6,0,B|63:132|63:132|46:167|46:167|59:213,1,128,14|14,0:1|0:1,0:0:0:0:
58,210,123613,2,0,P|46:244|54:289,1,64,10|8,0:2|0:1,0:0:0:0:
101,343,123946,1,10,0:2:0:0:
181,302,124113,6,0,B|252:312|226:309|313:321,1,128,10|0,0:1|0:0,0:0:0:0:
383,367,124613,2,0,P|416:360|448:357,1,64,10|0,0:1|0:0,0:0:0:0:
505,290,124946,1,10,0:1:0:0:
454,222,125113,1,14,0:2:0:0:
454,222,125279,2,0,P|419:210|373:218,1,64,8|10,0:1|0:1,0:0:0:0:
291,222,125613,5,14,0:1:0:0:
320,126,125779,1,8,0:1:0:0:
221,152,125946,2,0,P|186:158|151:150,1,71.9999978027344,8|0,0:2|0:0,0:0:0:0:
56,99,126279,5,10,0:1:0:0:
3,193,126446,1,8,0:1:0:0:
98,243,126613,1,8,0:2:0:0:
152,151,126779,6,0,B|145:86|148:100|139:7,1,143.999995605469,8|8,0:1|0:1,0:0:0:0:
247,7,127279,2,0,B|242:52|237:96,1,71.9999978027344,8|0,0:2|0:0,0:0:0:0:
282,178,127613,5,10,0:1:0:0:
356,100,127779,1,8,0:1:0:0:
425,182,127946,2,0,P|441:226|434:264,1,71.9999978027344,8|0,0:2|0:0,0:0:0:0:
386,358,128279,5,10,0:1:0:0:
351,257,128446,1,8,0:1:0:0:
467,330,128613,1,10,0:2:0:0:
303,329,128779,2,0,P|260:336|223:342,1,80,10|0,0:1|0:0,0:0:0:0:
89,287,129113,1,10,0:1:0:0:
216,220,129279,1,10,0:2:0:0:
135,358,129446,6,0,P|89:371|37:355,1,80,10|0,0:1|0:0,0:0:0:0:
8,223,129779,1,10,0:2:0:0:
8,223,129863,1,10,0:2:0:0:
8,223,129946,1,10,0:2:0:0:
89,287,130113,1,10,0:2:0:0:
139,196,130279,5,6,0:3:0:0:
8,223,130446,1,6,0:3:0:0:
57,131,130613,1,6,0:3:0:0:
89,287,130779,6,0,B|132:317|177:305|177:305|206:270|254:270,1,176.000005371094,14|10,0:1|0:1,0:0:0:0:
390,274,131279,2,0,P|400:225|383:175,1,88.000002685547,10|2,0:2|0:2,0:0:0:0:
335,67,131613,1,10,0:1:0:0:
300,193,131779,1,10,0:1:0:0:
419,102,131946,1,10,0:2:0:0:
251,113,132113,6,0,B|158:141|158:141|130:111|83:107,1,176.000005371094,10|8,0:1|0:1,0:0:0:0:
1,246,132613,1,10,0:2:0:0:
125,287,132779,2,0,P|112:338|104:372,1,88.000002685547,2|8,0:2|0:1,0:0:0:0:
84,206,133113,1,8,0:1:0:0:
212,257,133279,1,8,0:2:0:0:
275,107,133446,6,0,B|243:0|243:0|308:35,1,176.000005371094,14|10,0:1|0:1,0:0:0:0:
415,110,133946,2,0,P|405:158|398:198,1,88.000002685547,10|2,0:2|0:2,0:0:0:0:
369,325,134279,1,10,0:1:0:0:
308,207,134446,1,10,0:1:0:0:
458,280,134613,1,10,0:2:0:0:
283,292,134779,6,0,B|244:296|216:280|216:280|176:297|176:297|153:283|114:279,1,176.000005371094,10|8,0:1|0:1,0:0:0:0:
22,151,135279,1,10,0:2:0:0:
156,193,135446,1,8,0:1:0:0:
156,193,135529,1,8,0:2:0:0:
156,193,135613,2,0,P|202:184|257:174,1,88.000002685547,10|10,0:1|0:1,0:0:0:0:
372,152,135946,1,10,0:2:0:0:
283,292,136113,6,0,B|166:278|166:278|211:331,1,176.000005371094,14|8,0:1|0:1,0:0:0:0:
370,340,136613,2,0,P|381:309|374:251,1,88.000002685547,8|2,0:2|0:0,0:0:0:0:
268,171,136946,1,10,0:1:0:0:
283,292,137113,1,8,0:1:0:0:
379,168,137279,1,10,0:2:0:0:
217,97,137446,6,0,B|121:129|121:129|83:103|99:58,1,176.000005371094,10|8,0:1|0:1,0:0:0:0:
243,2,137946,2,0,P|285:9|339:18,1,88.000002685547,8|2,0:2|0:2,0:0:0:0:
452,86,138279,1,10,0:1:0:0:
322,107,138446,1,8,0:1:0:0:
422,3,138613,1,10,0:2:0:0:
495,166,138779,6,0,B|471:222|471:222|501:269|501:269|477:323,1,176.000005371094,14|10,0:1|0:1,0:0:0:0:
314,285,139279,2,0,P|349:273|405:290,1,88.000002685547,10|2,0:2|0:2,0:0:0:0:
270,365,139613,1,10,0:1:0:0:
236,237,139779,1,8,0:1:0:0:
158,343,139946,1,10,0:2:0:0:
314,285,140113,6,0,P|326:248|311:183,1,88.000002685547,10|0,0:1|0:0,0:0:0:0:
264,80,140446,1,10,0:1:0:0:
165,167,140613,1,10,0:2:0:0:
186,17,140779,1,8,0:3:0:0:
186,17,140863,1,4,0:3:0:0:
186,17,140946,1,10,0:1:0:0:
247,158,141113,1,10,0:2:0:0:
120,78,141279,1,10,0:2:0:0:
289,0,141446,5,14,0:1:0:0:
358,95,141613,2,0,P|408:87|455:80,1,83.9999974365235,2|0,0:0|0:0,0:0:0:0:
458,80,141946,6,0,B|478:120|478:120|466:166,1,88.000002685547,14|2,0:2|0:2,0:0:0:0:
350,225,142279,1,10,0:1:0:0:
358,95,142446,1,10,0:1:0:0:
439,242,142613,1,10,0:2:0:0:
267,154,142779,6,0,B|226:164|198:164|198:164|175:192|175:192|145:193|100:208,1,176.000005371094,10|8,0:1|0:1,0:0:0:0:
13,334,143279,1,10,0:2:0:0:
141,366,143446,2,0,P|180:373|235:358,1,88.000002685547,2|8,0:2|0:1,0:0:0:0:
332,282,143779,1,8,0:1:0:0:
200,269,143946,1,8,0:2:0:0:
339,376,144113,6,0,B|414:360|414:360|430:340|430:340|507:323,1,176.000005371094,14|10,0:1|0:1,0:0:0:0:
440,187,144613,2,0,P|396:180|352:174,1,88.000002685547,10|2,0:2|0:2,0:0:0:0:
221,158,144946,1,8,0:1:0:0:
330,260,145113,1,10,0:1:0:0:
293,106,145279,1,10,0:2:0:0:
207,249,145446,6,0,B|111:275|111:275|75:264|65:213,1,176.000005371094,10|8,0:1|0:1,0:0:0:0:
79,59,145946,1,10,0:2:0:0:
209,117,146113,1,8,0:1:0:0:
209,117,146196,1,8,0:2:0:0:
209,117,146279,2,0,P|257:121|300:102,1,88.000002685547,10|10,0:1|0:1,0:0:0:0:
396,23,146613,1,10,0:2:0:0:
486,151,146779,6,0,B|465:209|465:209|492:249|492:249|465:323,1,176.000005371094,14|8,0:1|0:1,0:0:0:0:
340,367,147279,2,0,P|332:325|322:274,1,88.000002685547,8|2,0:2|0:0,0:0:0:0:
211,208,147613,1,10,0:1:0:0:
243,335,147779,1,8,0:1:0:0:
301,197,147946,1,10,0:2:0:0:
168,285,148113,6,0,B|77:314|77:314|36:294|33:248,1,176.000005371094,10|8,0:1|0:1,0:0:0:0:
71,115,148613,2,0,P|114:122|157:129,1,88.000002685547,12|2,0:2|0:2,0:0:0:0:
287,102,148946,1,10,0:1:0:0:
167,44,149113,1,8,0:1:0:0:
244,181,149279,1,10,0:2:0:0:
340,33,149446,6,0,B|463:7|463:7|425:64,1,176.000005371094,14|10,0:1|0:1,0:0:0:0:
355,165,149946,2,0,P|367:222|372:258,1,88.000002685547,10|2,0:2|0:2,0:0:0:0:
389,382,150279,1,10,0:1:0:0:
290,294,150446,1,8,0:1:0:0:
447,309,150613,1,10,0:2:0:0:
297,382,150779,6,0,B|226:370|226:370|203:343|203:343|132:330,1,176.000005371094,14|8,0:1|0:1,0:0:0:0:
23,217,151279,1,14,0:2:0:0:
171,231,151446,1,8,0:2:0:0:
171,231,151529,1,8,0:2:0:0:
171,231,151613,1,14,0:1:0:0:
37,314,151779,1,8,0:1:0:0:
103,150,151946,2,0,P|97:108|90:56,1,88.000002685547,14|10,0:2|0:1,0:0:0:0:
209,9,152279,5,10,0:1:0:0:
271,109,152446,1,8,0:1:0:0:
271,109,152529,1,8,0:1:0:0:
271,109,152613,2,0,P|306:117|348:103,1,71.9999978027344,8|8,0:2|0:1,0:0:0:0:
437,59,152946,2,0,L|429:18,2,35.9999989013672,8|8|8,0:1|0:1|0:1,0:0:0:0:
501,158,153279,1,8,0:2:0:0:
501,158,153363,1,8,0:1:0:0:
501,158,153446,2,0,L|493:210,1,35.9999989013672,4|8,0:2|0:1,0:0:0:0:
493,218,153613,6,0,P|458:231|408:222,1,71.9999978027344,14|8,0:1|0:1,0:0:0:0:
298,196,153946,1,14,0:2:0:0:
321,310,154113,1,8,0:1:0:0:
321,310,154196,1,8,0:2:0:0:
321,310,154279,1,12,0:1:0:0:
213,316,154446,1,10,0:1:0:0:
191,210,154613,2,0,L|199:162,2,35.9999989013672,12|8|8,0:2|0:2|0:1,0:0:0:0:
87,280,154946,6,0,B|45:307|45:307|6:278|0:217|40:170,1,191.999994140625,14|0,0:1|0:0,0:0:0:0:
113,117,155446,1,2,0:2:0:0:
197,175,155613,2,0,P|232:169|268:164,1,71.9999978027344,10|0,0:2|0:0,0:0:0:0:
324,81,155946,5,10,0:1:0:0:
324,81,156113,2,0,P|346:109|369:137,1,71.9999978027344,10|0,0:1|0:0,0:0:0:0:
473,136,156446,1,10,0:1:0:0:
473,136,156613,2,0,P|459:169|446:203,1,71.9999978027344,10|0,0:1|0:0,0:0:0:0:
388,324,156946,6,0,B|344:345|344:345|298:333,1,95.9999970703126,14|8,0:2|0:1,0:0:0:0:
188,239,157279,1,14,0:2:0:0:
332,236,157446,1,8,0:1:0:0:
205,336,157613,6,0,B|152:343|152:343|122:366|122:366|54:343,1,143.999995605469,14|0,0:1|0:0,0:0:0:0:
72,349,158279,1,10,0:2:0:0:
17,264,158446,2,0,P|8:226|21:189,1,71.9999978027344,8|10,0:1|0:3,0:0:0:0:
99,137,158779,6,0,P|109:175|118:220,1,71.9999978027344,10|8,0:3|0:2,0:0:0:0:
217,236,159113,1,10,0:3:0:0:
217,236,159279,2,0,P|224:200|233:165,1,71.9999978027344,10|8,0:3|0:2,0:0:0:0:
327,103,159613,5,10,0:1:0:0:
365,207,159779,1,10,0:2:0:0:
419,67,159946,1,10,0:2:0:0:
475,205,160113,1,10,0:2:0:0:
327,103,160279,6,0,B|288:143|234:142|197:112|197:112|222:71,1,191.999994140625,14|0,0:1|0:0,0:0:0:0:
145,5,160779,1,10,0:1:0:0:
69,71,160946,2,0,P|78:123|83:157,1,71.9999978027344,10|8,0:2|0:2,0:0:0:0:
97,245,161279,5,10,0:1:0:0:
97,245,161446,2,0,P|61:259|23:261,1,71.9999978027344,10|0,0:1|0:0,0:0:0:0:
152,327,161779,1,10,0:1:0:0:
152,327,161946,2,0,P|188:341|226:343,1,71.9999978027344,10|0,0:1|0:0,0:0:0:0:
354,321,162279,5,14,0:2:0:0:
312,192,162446,1,8,0:1:0:0:
457,284,162612,1,14,0:2:0:0:
415,155,162779,1,8,0:1:0:0:
354,321,162946,6,0,B|308:313|308:313|271:342|271:342|210:344,1,143.999995605469,14|0,0:1|0:0,0:0:0:0:
220,343,163613,1,10,0:2:0:0:
120,358,163779,2,0,P|74:367|42:359,1,71.9999978027344,8|10,0:1|0:3,0:0:0:0:
7,269,164113,6,0,P|12:233|19:178,1,71.9999978027344,10|8,0:3|0:2,0:0:0:0:
107,150,164446,1,10,0:3:0:0:
107,150,164613,2,0,P|112:186|117:222,1,71.9999978027344,10|8,0:3|0:2,0:0:0:0:
210,127,164946,5,10,0:2:0:0:
99,63,165113,1,10,0:2:0:0:
230,38,165279,1,10,0:2:0:0:
107,150,165446,1,10,0:2:0:0:
236,213,165613,6,0,B|271:220|271:220|314:205,1,71.9999978027344,14|0,0:1|0:0,0:0:0:0:
404,177,165946,1,10,0:1:0:0:
404,177,166113,2,0,P|441:231|415:322,1,143.999995605469,2|0,0:2|0:0,0:0:0:0:
350,368,166613,5,10,0:1:0:0:
350,368,166779,2,0,P|300:358|268:351,1,71.9999978027344,10|2,0:1|0:3,0:0:0:0:
202,295,167113,1,10,0:1:0:0:
202,295,167279,2,0,P|166:302|131:309,1,71.9999978027344,10|0,0:1|0:0,0:0:0:0:
31,240,167613,6,0,B|31:211|12:183|12:183|30:209|75:218,1,120.000004577637,14|0,0:2|0:0,0:0:0:0:
131,102,167946,2,0,B|100:107|82:133|82:133|101:105|101:76,1,120.000004577637,14|0,0:2|0:0,0:0:0:0:
240,16,168279,6,0,B|290:22|290:22|322:51|322:51|379:37,1,143.999995605469,14|10,0:1|0:1,0:0:0:0:
459,96,168779,1,2,0:2:0:0:
459,96,168946,2,0,P|469:148|460:177,1,71.9999978027344,10|8,0:2|0:1,0:0:0:0:
381,219,169279,5,10,0:3:0:0:
381,219,169446,2,0,P|375:180|367:137,1,71.9999978027344,10|8,0:3|0:2,0:0:0:0:
274,131,169779,1,10,0:3:0:0:
274,131,169946,2,0,P|267:166|262:202,1,71.9999978027344,10|8,0:3|0:2,0:0:0:0:
156,277,170279,5,10,0:1:0:0:
82,166,170446,1,10,0:2:0:0:
66,297,170613,1,10,0:2:0:0:
173,184,170779,1,10,0:2:0:0:
256,192,170946,12,2,172779,0:0:0:0:
195,202,172946,6,0,B|146:220|146:220|92:198,1,103.999995239258,14|0,0:2|0:0,0:0:0:0:
256,118,173279,1,14,0:2:0:0:
284,250,173446,1,8,0:1:0:0:
380,129,173613,6,0,B|425:83|504:103|504:103|482:161,1,191.999994140625,14|8,0:1|0:1,0:0:0:0:
453,254,174113,1,2,0:2:0:0:
354,238,174279,2,0,P|303:242|276:255,1,71.9999978027344,10|8,0:2|0:1,0:0:0:0:
198,301,174613,5,10,0:3:0:0:
198,301,174779,2,0,P|206:337|216:378,1,71.9999978027344,10|8,0:3|0:1,0:0:0:0:
95,283,175113,1,10,0:3:0:0:
95,283,175279,2,0,P|103:247|113:206,1,71.9999978027344,10|8,0:3|0:1,0:0:0:0:
147,87,175613,5,10,0:2:0:0:
217,195,175779,1,10,0:2:0:0:
244,45,175946,1,10,0:2:0:0:
314,153,176112,1,10,0:2:0:0:
149,107,176279,6,0,B|108:99|108:99|57:117,1,80,14|0,0:1|0:0,0:0:0:0:
27,241,176613,2,0,B|87:252|87:252|105:281|105:281|187:297,1,160,8|8,0:2|0:1,0:0:0:0:
287,311,177113,1,8,0:1:0:0:
233,186,177279,2,0,P|186:181|148:199,1,80,10|10,0:2|0:1,0:0:0:0:
301,300,177613,6,0,B|391:295|372:346|467:338,1,160,2|10,0:3|0:2,0:0:0:0:
500,211,178113,2,0,P|505:172|482:120,1,80,2|8,0:2|0:1,0:0:0:0:
414,42,178446,1,10,0:1:0:0:
409,183,178613,1,10,0:2:0:0:
268,99,178779,6,0,B|251:63|251:63|264:24,1,80,14|0,0:1|0:0,0:0:0:0:
367,108,179113,1,10,0:1:0:0:
285,195,179279,2,0,P|232:188|116:172,1,160,10|8,0:2|0:1,0:0:0:0:
6,160,179779,1,8,0:1:0:0:
100,85,179946,1,8,0:2:0:0:
54,238,180113,6,0,P|60:278|68:330,1,80,8|2,0:1|0:3,0:0:0:0:
168,380,180446,1,8,0:1:0:0:
186,261,180613,1,8,0:2:0:0:
289,384,180779,1,8,0:1:0:0:
289,384,180863,1,8,0:2:0:0:
289,384,180946,1,10,0:1:0:0:
307,265,181113,1,8,0:1:0:0:
180,279,181279,1,10,0:2:0:0:
263,161,181446,6,0,B|332:148|332:148|348:132|348:132|415:120,1,160,14|10,0:1|0:1,0:0:0:0:
274,59,181946,2,0,P|224:55|171:51,1,80,10|2,0:2|0:2,0:0:0:0:
75,71,182279,1,10,0:1:0:0:
175,136,182446,1,8,0:1:0:0:
124,2,182613,1,10,0:2:0:0:
26,147,182779,6,0,P|35:190|45:237,1,80,10|0,0:1|0:0,0:0:0:0:
68,343,183113,1,8,0:1:0:0:
152,258,183279,2,0,P|195:264|277:284,1,120,8|0,0:2|0:0,0:0:0:0:
297,287,183613,2,0,P|308:247|301:199,1,80,10|8,0:1|0:1,0:0:0:0:
267,94,183946,1,10,0:2:0:0:
395,158,184113,6,0,B|449:148|503:139|503:139|459:193,1,160,14|10,0:1|0:1,0:0:0:0:
374,285,184613,2,0,P|312:292|279:275,1,80,10|2,0:2|0:2,0:0:0:0:
187,236,184946,1,10,0:1:0:0:
300,195,185113,1,8,0:1:0:0:
214,318,185279,1,10,0:2:0:0:
94,223,185446,6,0,P|87:180|99:140,2,80,2|8|0,0:2|0:1|0:0,0:0:0:0:
205,145,185946,2,0,P|209:105|214:50,1,80,10|4,0:2|0:3,0:0:0:0:
321,14,186279,1,10,0:1:0:0:
303,132,186446,1,10,0:2:0:0:
428,76,186613,2,0,P|465:65|505:70,1,80,12|8,0:2|0:2,0:0:0:0:
512,207,186946,6,0,B|403:181|403:181|359:218,2,160,14|8|8,0:1|0:2|0:1,0:0:0:0:
429,294,187779,1,8,0:1:0:0:
290,253,187946,2,0,P|279:213|292:165,1,80,10|8,0:2|0:1,0:0:0:0:
207,85,188279,6,0,B|141:98|141:98|129:114|129:114|48:128,1,160,2|10,0:3|0:2,0:0:0:0:
8,236,188779,2,0,P|45:251|95:244,1,80,2|8,0:2|0:1,0:0:0:0:
195,201,189113,1,10,0:1:0:0:
165,316,189279,1,10,0:2:0:0:
297,259,189446,6,0,B|334:273|334:273|374:268,1,80,14|0,0:1|0:0,0:0:0:0:
492,247,189779,1,10,0:1:0:0:
435,140,189946,2,0,P|371:105|285:132,1,160,10|8,0:2|0:1,0:0:0:0:
195,201,190446,1,8,0:1:0:0:
147,90,190613,1,8,0:2:0:0:
47,156,190779,6,0,B|37:258|42:218|32:332,1,160,8|8,0:1|0:1,0:0:0:0:
192,369,191279,1,8,0:2:0:0:
156,264,191446,1,8,0:1:0:0:
156,264,191529,1,8,0:2:0:0:
156,264,191613,1,10,0:1:0:0:
105,372,191779,1,8,0:1:0:0:
40,237,191946,1,10,0:2:0:0:
190,183,192113,6,0,B|246:197|246:197|284:180|284:180|345:193,1,160,14|10,0:1|0:1,0:0:0:0:
289,67,192613,2,0,P|249:75|205:84,1,80,10|2,0:2|0:2,0:0:0:0:
92,107,192946,1,10,0:1:0:0:
190,183,193113,1,8,0:1:0:0:
137,32,193279,1,10,0:2:0:0:
9,129,193446,6,0,P|18:173|25:216,1,80,10|0,0:1|0:0,0:0:0:0:
38,327,193779,1,8,0:1:0:0:
154,296,193946,2,0,P|200:317|270:287,1,120,12|0,0:2|0:0,0:0:0:0:
284,277,194279,2,0,P|274:241|279:199,1,80,10|8,0:1|0:1,0:0:0:0:
340,94,194613,1,10,0:2:0:0:
458,188,194779,6,0,B|436:279|436:279|458:304|470:335,1,160,14|10,0:1|0:1,0:0:0:0:
346,369,195279,2,0,P|307:378|263:371,1,80,10|2,0:2|0:2,0:0:0:0:
172,297,195613,1,10,0:1:0:0:
291,287,195779,1,8,0:1:0:0:
178,384,195946,1,10,0:2:0:0:
87,261,196113,6,0,B|74:222|74:222|88:180,2,80,6|0|0,0:2|0:0|0:0,0:0:0:0:
181,162,196613,1,14,0:2:0:0:
57,103,196779,1,8,0:1:0:0:
57,103,196863,1,8,0:2:0:0:
57,103,196946,1,14,0:1:0:0:
167,56,197113,1,10,0:1:0:0:
86,185,197279,1,14,0:2:0:0:
85,16,197446,1,8,0:1:0:0:
244,116,197613,6,0,B|296:106|296:106|319:119|319:119|380:107,1,128,14|14,0:1|0:1,0:0:0:0:
366,109,198279,2,0,P|377:140|375:173,1,64,10|8,0:2|0:1,0:0:0:0:
339,253,198613,1,10,0:2:0:0:
256,218,198779,6,0,B|175:232|202:228|108:244,1,128,10|8,0:1|0:2,0:0:0:0:
42,260,199279,2,0,P|32:295|35:331,1,64,10|0,0:1|0:0,0:0:0:0:
101,381,199613,1,10,0:1:0:0:
183,342,199779,1,14,0:2:0:0:
183,342,199946,2,0,P|218:332|254:335,1,64,8|10,0:1|0:2,0:0:0:0:
345,346,200279,6,0,B|393:336|393:336|434:352|434:352|490:337,1,143.999995605469,14|12,0:1|0:1,0:0:0:0:
498,140,200946,1,10,0:2:0:0:
498,140,201113,2,0,P|464:112|356:135,1,143.999995605469,8|8,0:1|0:1,0:0:0:0:
268,176,201613,5,10,0:2:0:0:
240,64,201779,1,8,0:1:0:0:
162,150,201946,2,0,P|125:155|79:162,1,71.9999978027344,8|8,0:1|0:2,0:0:0:0:
1,221,202279,1,10,0:1:0:0:
106,243,202446,1,12,0:1:0:0:
4,130,202613,2,0,P|10:82|14:55,1,71.9999978027344,12|8,0:1|0:2,0:0:0:0:
147,36,202946,5,14,0:1:0:0:
91,161,203113,1,10,0:1:0:0:
17,43,203279,1,14,0:2:0:0:
175,120,203446,2,0,P|223:115|265:100,1,80,10|0,0:1|0:0,0:0:0:0:
371,38,203779,1,10,0:2:0:0:
237,13,203946,1,2,0:2:0:0:
350,125,204113,2,0,P|341:177|337:213,1,80,10|0,0:2|0:0,0:0:0:0:
320,323,204446,5,8,0:1:0:0:
243,230,204613,1,8,0:2:0:0:
224,348,204779,1,8,0:1:0:0:
137,212,204946,5,8,0:2:0:0:
117,371,205113,1,8,0:2:0:0:
26,210,205279,1,8,0:2:0:0:
5,359,205446,5,10,0:2:0:0:
5,359,207946,6,0,P|36:347|82:344,1,60.0000022888184,8|0,0:2|0:0,0:0:0:0:
80,346,208113,6,0,B|127:371|127:371|159:345|165:295|124:244,1,176.000005371094,14|10,0:1|0:1,0:0:0:0:
247,174,208613,2,0,P|297:187|339:172,1,88.000002685547,10|2,0:2|0:0,0:0:0:0:
456,113,208946,1,10,0:1:0:0:
316,89,209113,1,10,0:1:0:0:
445,15,209279,1,10,0:2:0:0:
500,191,209446,6,0,P|491:232|482:284,1,88.000002685547,10|0,0:1|0:0,0:0:0:0:
351,328,209779,1,8,0:1:0:0:
351,186,209946,1,10,0:2:0:0:
261,330,210113,1,8,0:1:0:0:
261,330,210196,1,8,0:2:0:0:
261,330,210279,1,10,0:1:0:0:
400,255,210446,1,10,0:1:0:0:
228,213,210613,1,8,0:2:0:0:
360,98,210779,6,0,B|458:121|458:121|492:102|503:56,1,176.000005371094,14|8,0:1|0:1,0:0:0:0:
334,4,211279,2,0,P|291:13|248:23,1,88.000002685547,8|2,0:2|0:0,0:0:0:0:
122,88,211613,1,10,0:1:0:0:
261,105,211779,1,8,0:1:0:0:
153,1,211946,1,10,0:2:0:0:
31,89,212113,6,0,P|41:133|50:187,1,88.000002685547,10|0,0:1|0:0,0:0:0:0:
68,305,212446,1,8,0:1:0:0:
189,203,212613,2,0,P|224:199|282:221,1,88.000002685547,8|2,0:2|0:2,0:0:0:0:
382,290,212946,1,10,0:1:0:0:
251,309,213113,1,8,0:1:0:0:
371,181,213279,1,10,0:2:0:0:
189,203,213446,6,0,B|150:207|120:191|120:191|92:208|92:208|56:189|2:191,1,176.000005371094,14|10,0:1|0:1,0:0:0:0:
172,93,213946,2,0,P|214:86|268:78,1,88.000002685547,10|2,0:2|0:2,0:0:0:0:
390,95,214279,1,10,0:1:0:0:
282,171,214446,1,8,0:1:0:0:
337,12,214613,1,10,0:2:0:0:
482,92,214779,6,0,P|471:148|466:187,1,88.000002685547,10|0,0:1|0:0,0:0:0:0:
442,309,215113,1,10,0:1:0:0:
368,179,215279,1,10,0:2:0:0:
342,332,215446,1,8,0:3:0:0:
342,332,215529,1,4,0:3:0:0:
342,332,215613,1,10,0:1:0:0:
267,183,215779,1,10,0:2:0:0:
462,202,215946,1,10,0:2:0:0:
376,63,216113,5,14,0:1:0:0:
368,179,216279,2,0,P|375:224|383:277,1,83.9999974365235,2|0,0:0|0:0,0:0:0:0:
385,280,216613,6,0,B|343:295|343:295|290:283,1,88.000002685547,14|2,0:2|0:2,0:0:0:0:
162,258,216946,1,10,0:1:0:0:
284,187,217113,1,10,0:1:0:0:
212,337,217279,1,10,0:2:0:0:
62,262,217446,6,0,B|73:198|73:198|52:165|52:165|68:83,1,176.000005371094,10|8,0:1|0:1,0:0:0:0:
161,3,217946,1,10,0:2:0:0:
234,113,218113,2,0,P|188:128|145:120,1,88.000002685547,2|8,0:2|0:1,0:0:0:0:
268,16,218446,1,8,0:1:0:0:
309,169,218613,1,8,0:2:0:0:
443,56,218779,6,0,B|508:75|508:75|478:193,1,176.000005371094,14|10,0:1|0:1,0:0:0:0:
328,255,219279,2,0,P|316:198|309:167,1,88.000002685547,10|2,0:2|0:2,0:0:0:0:
186,97,219613,1,8,0:1:0:0:
221,222,219779,1,10,0:1:0:0:
291,79,219946,1,10,0:2:0:0:
142,174,220113,6,0,P|84:164|46:158,1,88.000002685547,10|0,0:1|0:0,0:0:0:0:
165,86,220446,1,8,0:1:0:0:
137,260,220613,1,10,0:2:0:0:
290,170,220779,1,8,0:1:0:0:
290,170,220863,1,8,0:2:0:0:
290,170,220946,1,10,0:1:0:0:
142,174,221113,1,10,0:1:0:0:
273,289,221279,1,10,0:2:0:0:
385,152,221446,6,0,B|496:182|496:182|475:109,1,176.000005371094,14|8,0:1|0:1,0:0:0:0:
312,87,221946,2,0,P|291:126|289:169,1,88.000002685547,8|2,0:2|0:0,0:0:0:0:
359,282,222279,1,10,0:1:0:0:
385,152,222446,1,8,0:1:0:0:
264,255,222613,1,10,0:2:0:0:
201,110,222779,6,0,P|165:94|112:92,1,88.000002685547,10|0,0:1|0:0,0:0:0:0:
6,166,223113,1,8,0:1:0:0:
138,206,223279,2,0,P|128:275|121:315,1,88.000002685547,12|2,0:2|0:2,0:0:0:0:
231,373,223613,1,10,0:1:0:0:
225,241,223779,1,8,0:1:0:0:
114,378,223946,1,10,0:2:0:0:
293,304,224113,6,0,B|361:320|361:320|383:349|383:349|458:364,1,176.000005371094,14|10,0:1|0:1,0:0:0:0:
502,212,224613,2,0,P|493:164|485:119,1,88.000002685547,10|2,0:2|0:2,0:0:0:0:
374,55,224946,1,10,0:1:0:0:
412,181,225113,1,8,0:1:0:0:
466,42,225279,1,10,0:2:0:0:
318,137,225446,6,0,B|262:145|216:162|216:162|184:147|170:106,1,176.000005371094,14|8,0:1|0:1,0:0:0:0:
361,39,225946,1,14,0:2:0:0:
309,235,226113,1,8,0:2:0:0:
309,235,226196,1,8,0:2:0:0:
309,235,226279,1,14,0:1:0:0:
250,59,226446,1,8,0:1:0:0:
408,162,226613,1,10,0:2:0:0:
208,188,226779,1,14,0:1:0:0:
364,317,226946,6,0,B|408:329|408:329|448:316,1,88.000002685547,10|10,0:2|0:1,0:0:0:0:
313,217,227279,1,10,0:2:0:0:
283,354,227446,1,8,0:1:0:0:
171,266,227613,2,0,P|125:273|80:282,1,88.000002685547,10|10,0:2|0:1,0:0:0:0:
27,152,227946,2,0,P|70:160|113:167,1,88.000002685547,10|10,0:2|0:1,0:0:0:0:
234,93,228279,6,0,P|242:51|225:2,1,88.000002685547,10|10,0:2|0:1,0:0:0:0:
95,57,228613,1,8,0:2:0:0:
213,186,228779,2,0,P|257:177|313:167,1,88.000002685547,10|8,0:1|0:2,0:0:0:0:
462,143,229113,1,14,0:1:0:0:
462,143,229196,1,10,0:1:0:0:
462,143,229279,1,10,0:2:0:0:
353,66,229446,1,14,0:1:0:0:
390,220,229613,6,0,P|381:264|373:319,1,88.000002685547,10|10,0:2|0:1,0:0:0:0:
252,376,229946,2,0,P|245:332|236:289,1,88.000002685547,10|8,0:2|0:1,0:0:0:0:
113,220,230279,1,10,0:2:0:0:
157,353,230446,1,10,0:1:0:0:
213,186,230613,2,0,P|252:169|306:173,1,88.000002685547,10|10,0:2|0:1,0:0:0:0:
472,229,230946,5,10,0:2:0:0:
404,117,231113,1,14,0:1:0:0:
404,117,231196,1,8,0:1:0:0:
404,117,231279,1,8,0:2:0:0:
341,263,231446,2,0,P|296:271|246:280,1,88.000002685547,14|8,0:1|0:2,0:0:0:0:
135,353,231779,1,10,0:1:0:0:
275,364,231946,1,14,0:2:0:0:
159,255,232113,1,10,0:2:0:0:
341,263,232279,6,0,B|413:280|413:280|443:268|451:240,1,132.00000402832,14|0,0:2|0:0,0:0:0:0:
472,229,232613,2,0,P|465:187|455:121,1,88.000002685547,10|8,0:2|0:1,0:0:0:0:
377,26,232946,1,10,0:2:0:0:
332,159,233113,1,10,0:1:0:0:
251,43,233279,2,0,P|198:42|157:63,1,88.000002685547,10|10,0:2|0:1,0:0:0:0:
89,175,233613,6,0,P|150:160|178:154,1,88.000002685547,10|10,0:2|0:1,0:0:0:0:
11,117,233946,1,8,0:2:0:0:
107,264,234113,2,0,P|168:249|196:243,1,88.000002685547,14|8,0:1|0:2,0:0:0:0:
332,260,234446,1,14,0:1:0:0:
214,338,234613,1,10,0:2:0:0:
271,181,234779,1,14,0:1:0:0:
381,340,234946,6,0,B|424:349|424:349|477:332,1,88.000002685547,14|10,0:2|0:1,0:0:0:0:
503,199,235279,2,0,P|448:194|396:190,1,88.000002685547,10|8,0:2|0:1,0:0:0:0:
271,181,235613,1,10,0:2:0:0:
378,91,235779,1,10,0:1:0:0:
248,34,235946,2,0,P|186:39|152:61,1,88.000002685547,10|14,0:2|0:1,0:0:0:0:
35,158,236279,5,10,0:2:0:0:
201,142,236446,1,14,0:2:0:0:
63,46,236613,1,8,0:2:0:0:
126,218,236779,6,0,P|120:262|113:318,1,88.000002685547,14|8,0:2|0:2,0:0:0:0:
285,378,237113,1,14,0:2:0:0:
269,194,237279,1,10,0:2:0:0:
133,320,237446,1,10,0:2:0:0:
349,290,237613,5,10,0:2:0:0:
126,218,237779,2,0,B|75:231|75:231|26:210,1,103.999995239258,10|0,0:1|0:0,0:0:0:0:
299,110,238113,2,0,B|350:123|350:123|399:102,1,103.999995239258,10|0,0:1|0:0,0:0:0:0:
239,288,238446,1,10,0:1:0:0:
