osu file format v14

[General]
AudioFilename: audio.mp3
AudioLeadIn: 1000
PreviewTime: 61347
Countdown: 0
SampleSet: Soft
StackLeniency: 0.7
Mode: 0
LetterboxInBreaks: 0
WidescreenStoryboard: 0

[Editor]
DistanceSpacing: 1.1
BeatDivisor: 2
GridSize: 4
TimelineZoom: 1

[Metadata]
Title:Contrail ~Kiseki~
TitleUnicode:Contrail~軌跡~
Artist:Mami Kawada
ArtistUnicode:川田まみ
Creator:Yuria
Version:Normal
Source:蒼の彼方のフォーリズム
Tags:ao no kanata four rhythm beyond the sky into the firmament sprite op opening tv size no_dap shioi moeka fast len
BeatmapID:912135
BeatmapSetID:421655

[Difficulty]
HPDrainRate:4
CircleSize:3.2
OverallDifficulty:4
ApproachRate:5
SliderMultiplier:1.1
SliderTickRate:1

[Events]
//Background and Video events
Video,0,"vvvv.avi"
0,0,"bg2.jpg",0,0
//Break Periods
//Storyboard Layer 0 (Background)
//Storyboard Layer 1 (Fail)
//Storyboard Layer 2 (Pass)
//Storyboard Layer 3 (Foreground)
//Storyboard Sound Samples

[TimingPoints]
633,357.142857142857,4,2,10,35,1,0
6347,-100,4,2,10,45,0,0
12061,-100,4,2,10,55,0,0
23490,-100,4,2,10,35,0,0
29025,-100,4,2,10,55,0,0
46347,-100,4,2,10,45,0,0
52418,-100,4,2,10,55,0,0
61347,-100,4,2,10,45,0,0
62061,-100,4,2,10,65,0,1
84918,-100,4,2,10,60,0,0
85632,-100,4,2,10,50,0,0
86347,-100,4,2,10,40,0,0
87061,-100,4,2,10,30,0,0
87731,-100,4,2,10,20,0,0

[Colours]
Combo1 : 154,114,164
Combo2 : 225,119,139
Combo3 : 81,77,117
Combo4 : 202,173,155

[HitObjects]
364,60,633,6,0,P|344:112|348:168,1,110,2|0,0:0|0:0,0:0:0:0:
360,220,1168,2,0,P|304:220|252:236,1,110,0|0,0:0|0:0,0:0:0:0:
212,336,1882,2,0,P|268:336|320:320,2,110,2|0|2,0:0|0:0|0:0,0:0:0:0:
36,124,3490,6,0,P|88:104|144:108,1,110,2|0,0:0|0:0,0:0:0:0:
187,135,4025,2,0,P|242:138|293:118,1,110,0|0,0:0|0:0,0:0:0:0:
368,36,4740,2,0,P|399:87|400:152,2,110,2|0|2,0:0|0:0|0:0,0:0:0:0:
104,116,6347,6,0,L|96:60,2,55,4|0|2,0:0|0:0|0:0,0:0:0:0:
68,220,7061,2,0,L|120:237,1,55,0|2,0:0|0:0,0:0:0:0:
212,180,7597,2,0,P|228:232|212:296,1,110,2|0,0:0|0:0,0:0:0:0:
196,336,8132,2,0,L|256:356,1,55,2|0,0:0|0:0,0:0:0:0:
288,316,8490,2,0,L|348:336,1,55,0|2,0:0|0:0,0:0:0:0:
448,376,9025,5,2,0:0:0:0:
448,376,9204,2,0,P|440:312|460:268,1,110,0|2,0:0|0:0,0:0:0:0:
508,176,9918,2,0,L|500:112,1,55,0|2,0:0|0:0,0:0:0:0:
436,32,10454,1,8,0:0:0:0:
388,132,10811,2,0,L|396:196,2,55,8|8|8,0:1|0:1|0:0,0:0:0:0:
296,72,11525,1,8,0:1:0:0:
296,72,11704,1,8,0:0:0:0:
204,132,12061,6,0,P|156:120|92:136,1,110,12|8,0:1|0:0,0:0:0:0:
44,228,12775,2,0,L|36:288,2,55,8|2|10,0:1|0:0|0:0,0:0:0:0:
152,232,13490,2,0,P|200:244|264:228,1,110,10|8,0:1|0:0,0:0:0:0:
296,192,14025,2,0,P|352:188|404:204,1,110,2|2,0:0|0:0,0:0:0:0:
448,236,14561,1,10,0:0:0:0:
364,308,14918,6,0,L|256:332,1,110,8|8,0:1|0:0,0:0:0:0:
152,296,15632,2,0,L|136:356,2,55,8|2|10,0:1|0:0|0:0,0:0:0:0:
236,224,16347,2,0,P|248:168|232:112,1,110,10|8,0:1|0:0,0:0:0:0:
208,68,16882,2,0,L|88:56,1,110,2|2,0:0|0:0,0:0:0:0:
44,52,17418,1,10,0:0:0:0:
64,160,17775,6,0,L|52:280,1,110,12|8,0:1|0:0,0:0:0:0:
124,356,18490,2,0,L|68:368,2,55,8|2|10,0:1|0:0|0:0,0:0:0:0:
200,276,19204,2,0,P|252:272|312:284,1,110,10|8,0:1|0:0,0:0:0:0:
360,304,19740,2,0,P|384:252|392:200,1,110,2|2,0:0|0:0,0:0:0:0:
384,144,20275,1,10,0:0:0:0:
320,52,20632,6,0,L|312:112,1,55,10|8,0:0|0:1,0:0:0:0:
248,196,21168,2,0,L|240:136,1,55,10|8,0:0|0:1,0:0:0:0:
176,52,21704,2,0,L|168:112,1,55,10|8,0:0|0:1,0:0:0:0:
104,196,22240,2,0,L|96:136,1,55,10|8,0:0|0:1,0:0:0:0:
32,52,22775,2,0,P|64:44|92:32,1,55,10|10,0:1|0:1,0:0:0:0:
136,16,23132,2,0,P|188:48|252:48,1,110,8|4,0:0|0:0,0:0:0:0:
344,24,23847,6,0,P|404:20|461:55,1,110,2|0,0:0|0:0,0:0:0:0:
380,128,24561,1,2,0:0:0:0:
300,204,24918,2,0,P|288:280|304:324,1,110,0|2,0:0|0:0,0:0:0:0:
328,356,25454,2,0,P|376:344|436:340,1,110,0|0,0:0|0:0,0:0:0:0:
492,344,25990,1,2,0:0:0:0:
504,236,26347,6,0,P|456:248|396:252,1,110,0|2,0:0|0:0,0:0:0:0:
344,236,26882,2,0,P|284:236|232:256,1,110,0|0,0:0|0:0,0:0:0:0:
192,284,27418,1,2,0:0:0:0:
192,284,27597,2,0,P|176:224|172:168,1,110,0|0,0:0|0:0,0:0:0:0:
172,120,28132,1,2,0:0:0:0:
72,72,28490,2,0,P|61:104|62:142,2,55,0|0|2,0:0|0:0|0:0,0:0:0:0:
104,28,29025,6,0,P|160:20|216:24,1,110,12|8,0:1|0:1,0:0:0:0:
268,32,29561,1,10,0:0:0:0:
368,80,29918,2,0,P|377:50|376:6,2,55,10|10|8,0:1|0:1|0:0,0:0:0:0:
320,108,30454,2,0,P|312:164|316:220,1,110,10|8,0:1|0:1,0:0:0:0:
336,268,30990,1,10,0:0:0:0:
444,244,31347,2,0,P|480:236|512:240,1,55,8|8,0:1|0:1,0:0:0:0:
484,344,31882,6,0,P|436:356|364:352,1,110,12|8,0:1|0:1,0:0:0:0:
324,332,32418,2,0,P|268:324|208:336,1,110,10|10,0:0|0:1,0:0:0:0:
164,352,32954,1,10,0:1:0:0:
64,308,33311,2,0,P|84:256|92:192,1,110,10|8,0:1|0:1,0:0:0:0:
76,148,33847,1,10,0:0:0:0:
76,148,34025,2,0,P|144:176|192:172,1,110,10|8,0:1|0:1,0:0:0:0:
232,156,34561,1,10,0:0:0:0:
340,180,34918,5,12,0:1:0:0:
292,280,35275,1,8,0:0:0:0:
400,300,35632,2,0,P|424:312|460:320,2,55,8|8|10,0:1|0:1|0:0,0:0:0:0:
364,196,36347,2,8,P|360:140|380:80,1,110,10|8,0:1|0:0,0:0:0:0:
400,40,36882,2,0,L|288:56,1,110,2|8,0:0|0:1,0:0:0:0:
236,60,37418,1,10,0:0:0:0:
136,16,37775,6,0,P|127:69|150:127,1,110,10|8,0:1|0:0,0:0:0:0:
184,160,38311,2,0,P|192:216|180:288,1,110,2|8,0:0|0:1,0:0:0:0:
160,316,38847,1,10,0:0:0:0:
160,316,39025,2,0,P|224:312|280:324,1,110,2|0,0:0|0:1,0:0:0:0:
320,340,39561,1,8,0:0:0:0:
424,312,39918,2,0,P|448:332|480:348,2,55,8|8|8,0:1|0:1|0:0,0:0:0:0:
396,264,40454,6,0,P|356:236|296:212,1,110,12|8,0:1|0:1,0:0:0:0:
244,224,40990,1,10,0:0:0:0:
192,128,41347,2,0,L|200:72,2,55,10|10|8,0:1|0:1|0:0,0:0:0:0:
152,164,41882,2,0,P|136:203|151:284,1,110,10|8,0:1|0:1,0:0:0:0:
180,312,42418,1,10,0:0:0:0:
76,348,42775,2,0,P|52:356|24:364,1,55,8|8,0:1|0:1,0:0:0:0:
40,256,43311,6,0,P|48:184|36:136,1,110,12|8,0:1|0:1,0:0:0:0:
20,96,43847,1,10,0:0:0:0:
124,64,44204,2,0,P|128:32|140:4,2,55,10|10|8,0:1|0:1|0:0,0:0:0:0:
144,116,44740,2,0,L|288:144,1,110,10|8,0:1|0:1,0:0:0:0:
304,148,45275,1,10,0:0:0:0:
304,148,45454,2,0,P|296:216|312:260,1,110,10|8,0:1|0:1,0:0:0:0:
336,300,45990,1,10,0:0:0:0:
228,328,46347,6,0,P|176:320|96:320,1,110,12|8,0:1|0:1,0:0:0:0:
64,332,46882,1,2,1:0:0:0:
16,232,47240,2,0,P|8:208|4:168,2,55,8|2|0,0:1|0:0|0:0,0:0:0:0:
72,228,47775,2,0,P|128:228|196:244,1,110,8|0,0:1|0:0,0:0:0:0:
276,292,48490,2,0,P|329:302|384:302,1,110,2|0,1:0|0:0,0:0:0:0:
436,284,49025,1,2,0:0:0:0:
476,248,49204,6,0,L|472:132,1,110,8|8,0:1|0:1,0:0:0:0:
468,84,49740,1,2,1:0:0:0:
360,56,50097,2,0,P|356:28|357:1,2,55,8|2|0,0:1|0:0|0:0,0:0:0:0:
368,112,50632,2,0,P|372:160|364:224,1,110,8|0,0:1|0:0,0:0:0:0:
264,268,51347,2,0,P|260:220|268:156,1,110,2|0,1:0|0:0,0:0:0:0:
72,56,52418,6,0,P|80:164|76:192,1,110,12|10,0:1|0:1,0:0:0:0:
52,212,52954,2,0,L|52:304,1,55,10|8,0:1|0:0,0:0:0:0:
28,316,53311,2,0,P|80:304|148:308,1,110,10|8,0:1|0:1,0:0:0:0:
192,316,53847,1,10,0:0:0:0:
300,336,54204,2,0,P|308:280|300:220,1,110,10|10,0:1|0:0,0:0:0:0:
204,176,54918,6,0,P|176:176|140:164,2,55,12|8|8,0:1|0:1|0:0,0:0:0:0:
248,140,55454,2,0,P|296:124|356:140,1,110,12|8,0:1|0:1,0:0:0:0:
396,172,55990,1,8,0:0:0:0:
380,224,56168,2,0,P|376:274|407:328,1,110,12|8,0:1|0:1,0:0:0:0:
444,364,56704,2,0,L|332:380,2,110,10|10|10,0:0|0:1|0:0,0:0:0:0:
512,276,57775,5,12,0:0:0:0:
404,260,58132,1,10,0:0:0:0:
472,172,58490,1,10,0:0:0:0:
364,156,58847,1,10,0:0:0:0:
364,156,59025,6,0,P|304:157|252:181,1,110,12|8,0:1|0:0,0:0:0:0:
212,208,59561,1,10,0:0:0:0:
256,308,59918,2,0,P|228:316|200:316,1,55,8|10,0:0|0:0,0:0:0:0:
112,252,60454,1,0,1:0:0:0:
112,252,60632,2,0,L|92:303,1,55,10|10,0:0|0:0,0:0:0:0:
40,324,60990,2,0,L|49:378,1,55,10|10,0:0|0:0,0:0:0:0:
252,184,62061,6,0,P|316:212|376:200,1,110,12|8,0:1|0:0,0:0:0:0:
456,160,62775,2,0,L|476:228,1,55,8|0,0:1|0:0,0:0:0:0:
488,264,63132,1,10,0:0:0:0:
488,264,63311,2,0,P|418:271|372:312,1,110,2|2,0:0|0:0,0:0:0:0:
360,340,63847,2,0,L|212:320,1,110,10|8,0:0|0:1,0:0:0:0:
148,364,64561,2,0,L|128:296,1,55,10|2,0:0|0:0,0:0:0:0:
84,284,64918,6,0,P|148:244|172:200,1,110,8|8,0:1|0:0,0:0:0:0:
188,108,65632,2,0,L|168:40,2,55,8|0|10,0:1|0:0|0:0,0:0:0:0:
224,148,66168,2,0,P|276:168|336:160,1,110,2|2,0:0|0:0,0:0:0:0:
380,144,66704,1,8,0:0:0:0:
380,144,66882,2,0,P|400:188|388:268,1,110,2|2,0:0|0:0,0:0:0:0:
376,300,67418,1,8,0:0:0:0:
288,368,67775,6,0,P|268:324|280:244,1,110,12|10,0:1|0:0,0:0:0:0:
292,212,68311,2,0,L|185:239,1,110,2|2,0:1|0:0,0:0:0:0:
98,307,69025,2,0,P|78:263|90:183,1,110,4|2,0:0|0:0,0:0:0:0:
107,155,69561,1,8,0:0:0:0:
107,155,69740,2,0,L|215:127,1,110,2|0,0:0|0:0,0:0:0:0:
300,56,70454,6,0,P|324:108|308:188,1,110,2|0,0:0|0:0,0:0:0:0:
292,208,70990,2,0,P|288:244|292:284,1,55,8|2,0:0|0:0,0:0:0:0:
320,308,71347,2,0,P|324:344|320:384,1,55,10|0,0:1|0:0,0:0:0:0:
220,320,71882,2,0,P|160:316|104:336,1,110,12|8,0:1|0:1,0:0:0:0:
64,356,72418,1,8,0:0:0:0:
64,356,72597,2,0,L|76:232,1,110,12|8,0:1|0:1,0:0:0:0:
80,192,73132,1,8,0:0:0:0:
44,88,73490,6,0,P|80:104|164:88,1,110,12|8,0:1|0:0,0:0:0:0:
244,44,74204,2,0,L|264:120,1,55,8|0,0:1|0:0,0:0:0:0:
272,152,74561,1,10,0:0:0:0:
272,152,74740,2,0,P|328:148|380:168,1,110,2|2,0:0|0:0,0:0:0:0:
396,216,75275,2,0,L|508:196,1,110,10|8,0:0|0:1,0:0:0:0:
464,300,75990,1,10,0:0:0:0:
356,288,76347,6,0,P|300:284|252:308,1,110,12|8,0:1|0:0,0:0:0:0:
212,344,76882,1,2,0:0:0:0:
140,260,77240,1,2,0:0:0:0:
236,208,77597,2,0,P|240:148|228:92,1,110,2|8,0:0|0:1,0:0:0:0:
204,52,78132,1,8,0:0:0:0:
100,12,78490,2,0,P|94:37|95:73,1,55,10|2,0:1|0:0,0:0:0:0:
114,117,78847,2,0,P|114:144|107:171,1,55,10|2,0:0|0:0,0:0:0:0:
76,216,79204,6,0,P|136:208|192:212,1,110,12|8,0:1|0:0,0:0:0:0:
292,236,79918,2,0,P|299:259|300:292,2,55,8|2|8,0:1|0:1|0:0,0:0:0:0:
276,184,80454,1,2,0:0:0:0:
276,184,80632,2,0,P|268:132|268:72,1,110,10|8,0:1|0:0,0:0:0:0:
288,24,81168,2,0,L|404:12,1,110,2|0,0:0|0:0,0:0:0:0:
452,8,81704,1,10,0:0:0:0:
408,108,82061,6,0,P|400:160|400:220,1,110,12|8,0:1|0:0,0:0:0:0:
432,324,82775,2,0,P|464:328|496:324,2,55,8|0|8,0:1|0:0|0:0,0:0:0:0:
380,308,83311,1,2,0:0:0:0:
380,308,83490,2,0,P|328:300|268:300,1,110,10|10,0:1|0:0,0:0:0:0:
220,320,84025,2,0,L|236:200,1,110,2|0,0:0|0:0,0:0:0:0:
240,156,84561,1,10,0:0:0:0:
256,192,84918,12,2,87731,0:0:0:0:
