osu file format v14

[General]
AudioFilename: audio.mp3
AudioLeadIn: 1000
PreviewTime: 61347
Countdown: 0
SampleSet: Soft
StackLeniency: 0.7
Mode: 0
LetterboxInBreaks: 0
WidescreenStoryboard: 0

[Editor]
DistanceSpacing: 1.1
BeatDivisor: 2
GridSize: 4
TimelineZoom: 1

[Metadata]
Title:Contrail ~Kiseki~
TitleUnicode:Contrail~軌跡~
Artist:Mami Kawada
ArtistUnicode:川田まみ
Creator:Yuria
Version:Easy
Source:蒼の彼方のフォーリズム
Tags:ao no kanata four rhythm beyond the sky into the firmament sprite op opening tv size no_dap shioi moeka fast len
BeatmapID:911923
BeatmapSetID:421655

[Difficulty]
HPDrainRate:2
CircleSize:3
OverallDifficulty:2
ApproachRate:3
SliderMultiplier:0.85
SliderTickRate:1

[Events]
//Background and Video events
Video,0,"vvvv.avi"
0,0,"bg1.jpg",0,0
//Break Periods
//Storyboard Layer 0 (Background)
//Storyboard Layer 1 (Fail)
//Storyboard Layer 2 (Pass)
//Storyboard Layer 3 (Foreground)
//Storyboard Sound Samples

[TimingPoints]
633,357.142857142857,4,2,10,35,1,0
6347,-100,4,2,10,45,0,0
12061,-100,4,2,10,55,0,0
23490,-100,4,2,10,35,0,0
29025,-100,4,2,10,55,0,0
46347,-100,4,2,10,45,0,0
52418,-100,4,2,10,55,0,0
61347,-100,4,2,10,45,0,0
62061,-100,4,2,10,65,0,1
84918,-100,4,2,10,60,0,0
85632,-100,4,2,10,50,0,0
86347,-100,4,2,10,40,0,0
87061,-100,4,2,10,30,0,0
87731,-100,4,2,10,20,0,0

[Colours]
Combo1 : 154,114,164
Combo2 : 225,119,139
Combo3 : 81,77,117
Combo4 : 202,173,155

[HitObjects]
420,296,633,6,0,P|368:332|300:328,1,127.5,2|0,0:0|0:0,0:0:0:0:
128,276,1882,2,0,P|80:268|40:272,2,85,2|0|2,0:0|0:0|0:0,0:0:0:0:
340,376,3490,6,0,P|368:312|360:248,1,127.5,2|0,0:0|0:0,0:0:0:0:
268,96,4740,2,0,P|256:64|256:12,2,85,2|0|2,0:0|0:0|0:0,0:0:0:0:
448,248,6347,6,0,P|380:248|336:264,1,85,4|2,0:0|0:0,0:0:0:0:
276,284,7061,1,2,0:0:0:0:
160,364,7597,2,0,P|136:304|148:224,1,127.5,2|2,0:0|0:0,0:0:0:0:
226,204,8490,2,0,L|241:111,1,85,2|0,0:0|0:0,0:0:0:0:
156,78,9204,6,0,P|74:83|16:142,1,170,2|2,0:0|0:0,0:0:0:0:
92,260,10454,2,0,P|92:296|108:356,1,85,8|8,0:0|0:1,0:0:0:0:
192,372,11168,2,0,L|332:332,1,127.5,8|8,0:0|0:0,0:0:0:0:
349,249,12061,6,0,P|338:168|269:125,1,170,12|8,0:1|0:1,0:0:0:0:
260,220,13132,1,8,0:0:0:0:
191,284,13490,2,0,L|108:307,1,85,10|8,0:1|0:0,0:0:0:0:
60,226,14204,2,0,L|143:203,1,85,10|8,0:1|0:0,0:0:0:0:
229,170,14918,6,0,P|313:176|382:241,1,170,8|8,0:1|0:1,0:0:0:0:
435,303,15990,1,8,0:0:0:0:
504,240,16347,2,0,P|496:196|476:160,1,85,10|8,0:1|0:0,0:0:0:0:
504,72,17061,2,0,P|461:56|420:56,1,85,8|10,0:1|0:0,0:0:0:0:
348,116,17775,6,0,P|272:132|180:88,1,170,12|8,0:1|0:1,0:0:0:0:
128,28,18847,1,8,0:0:0:0:
52,84,19204,2,0,P|68:176|44:248,1,170,10|10,0:1|0:1,0:0:0:0:
8,332,20275,1,8,0:0:0:0:
100,320,20632,6,0,L|260:300,1,127.5,10|10,0:0|0:0,0:0:0:0:
320,200,21704,2,0,L|160:220,1,127.5,10|10,0:0|0:0,0:0:0:0:
76,140,22775,2,0,L|160:129,1,85,10|8,0:1|0:0,0:0:0:0:
232,68,23490,6,0,P|316:56|364:124,1,170,4|0,0:0|0:0,0:0:0:0:
320,200,24561,1,2,0:0:0:0:
380,272,24918,2,0,P|444:280|504:264,2,127.5,2|0|2,0:0|0:0|0:0,0:0:0:0:
296,228,26347,5,0,0:0:0:0:
168,176,26882,2,0,P|104:192|44:240,1,127.5,2|0,0:0|0:0,0:0:0:0:
12,312,27775,2,0,P|28:228|16:132,1,170,2|0,0:0|0:0,0:0:0:0:
132,60,29025,6,0,P|116:144|124:200,1,127.5,12|10,0:1|0:0,0:0:0:0:
196,240,29918,1,10,0:1:0:0:
132,364,30454,2,0,P|188:336|256:328,1,127.5,10|10,0:1|0:0,0:0:0:0:
344,340,31347,1,8,0:1:0:0:
484,360,31882,6,0,P|464:284|468:220,1,127.5,12|10,0:1|0:0,0:0:0:0:
488,144,32775,1,10,0:1:0:0:
376,60,33311,2,0,P|385:104|370:152,1,85,10|8,0:1|0:1,0:0:0:0:
292,100,34025,2,0,P|232:88|160:96,1,127.5,10|10,0:1|0:0,0:0:0:0:
80,56,34918,6,0,P|48:100|48:228,1,170,12|8,0:1|0:1,0:0:0:0:
84,296,35990,1,10,0:0:0:0:
160,240,36347,2,0,P|232:212|340:236,1,170,10|8,0:1|0:1,0:0:0:0:
408,264,37419,1,10,0:0:0:0:
332,320,37775,6,0,P|276:348|208:352,2,127.5,10|2|10,0:1|0:0|0:0,0:0:0:0:
291,235,39204,2,0,P|260:157|256:73,1,170,8|8,0:1|0:1,0:0:0:0:
388,24,40454,6,0,P|404:92|400:168,1,127.5,12|10,0:1|0:0,0:0:0:0:
348,224,41347,1,10,0:1:0:0:
420,344,41882,2,0,P|364:320|296:312,1,127.5,10|10,0:1|0:0,0:0:0:0:
204,324,42775,1,8,0:1:0:0:
68,356,43311,6,0,P|92:288|84:224,1,127.5,12|10,0:1|0:0,0:0:0:0:
60,144,44204,1,10,0:1:0:0:
184,208,44740,2,0,P|224:220|276:208,1,85,10|8,0:1|0:1,0:0:0:0:
348,168,45454,2,0,P|404:200|400:260,1,127.5,10|10,0:1|0:0,0:0:0:0:
328,316,46347,6,0,L|200:340,1,127.5,12|2,0:1|1:0,0:0:0:0:
128,284,47240,1,8,0:1:0:0:
52,340,47597,2,0,P|34:277|72:208,1,127.5,0|0,0:0|0:0,0:0:0:0:
144,188,48490,2,0,L|228:199,1,85,2|0,1:0|0:0,0:0:0:0:
288,272,49204,6,0,P|320:220|304:144,1,127.5,8|2,0:1|1:0,0:0:0:0:
232,104,50097,1,8,0:1:0:0:
300,40,50454,2,0,P|360:20|424:20,1,127.5,0|0,0:0|0:0,0:0:0:0:
488,88,51347,2,0,P|456:108|392:108,1,85,2|0,1:0|0:0,0:0:0:0:
223,123,52418,5,12,0:1:0:0:
276,200,52775,2,0,P|280:264|256:348,1,127.5,10|10,0:1|0:1,0:0:0:0:
128,348,53847,2,0,P|88:344|40:336,2,85,10|10|10,0:0|0:1|0:0,0:0:0:0:
208,300,54918,6,0,P|272:296|344:308,1,127.5,12|12,0:1|0:1,0:0:0:0:
420,344,55811,1,8,0:1:0:0:
492,284,56168,2,0,P|500:220|496:156,1,127.5,12|10,0:1|0:0,0:0:0:0:
424,96,57061,2,0,P|403:140|404:181,1,85,10|10,0:1|0:0,0:0:0:0:
408,268,57775,6,0,L|296:248,1,85,12|10,0:0|0:0,0:0:0:0:
232,236,58490,1,10,0:0:0:0:
104,292,59025,2,0,P|120:236|116:164,1,127.5,12|10,0:1|0:0,0:0:0:0:
40,112,59918,2,0,P|24:168|28:240,2,127.5,8|0|10,0:0|1:0|0:0,0:0:0:0:
128,76,61347,2,0,L|216:80,1,85,0|0,0:0|0:0,0:0:0:0:
280,144,62061,6,0,P|356:168|412:108,1,170,12|8,0:1|0:1,0:0:0:0:
440,20,63132,1,10,0:0:0:0:
504,88,63490,2,0,L|496:172,1,85,8|10,0:1|0:0,0:0:0:0:
424,232,64204,2,0,L|416:316,1,85,8|10,0:1|0:0,0:0:0:0:
344,376,64918,6,0,P|268:320|276:244,1,170,8|8,0:1|0:1,0:0:0:0:
340,188,65990,1,10,0:0:0:0:
260,140,66347,2,0,P|188:124|124:136,2,127.5,2|2|10,0:0|0:0|0:0,0:0:0:0:
340,188,67775,6,0,P|404:149|432:92,1,127.5,12|2,0:1|0:1,0:0:0:0:
391,18,68668,1,2,0:0:0:0:
312,66,69025,2,0,P|250:82|187:76,1,127.5,4|8,0:0|0:0,0:0:0:0:
104,31,69918,2,0,P|93:78|104:121,1,85,8|8,0:1|0:0,0:0:0:0:
160,188,70632,6,0,P|152:276|88:328,1,170,12|10,0:1|0:1,0:0:0:0:
8,216,71882,2,0,L|20:128,1,85,12|8,0:1|0:1,0:0:0:0:
104,92,72597,2,0,P|168:104|228:88,1,127.5,12|8,0:1|0:0,0:0:0:0:
308,40,73490,6,0,P|394:79|364:128,1,170,12|8,0:1|0:1,0:0:0:0:
296,180,74561,1,10,0:0:0:0:
372,236,74918,2,0,L|354:341,1,85,8|10,0:1|0:0,0:0:0:0:
268,348,75632,2,0,L|250:243,1,85,8|10,0:1|0:0,0:0:0:0:
296,180,76347,6,0,P|236:160|168:172,1,127.5,12|2,0:1|0:0,0:0:0:0:
96,224,77240,1,2,0:0:0:0:
140,308,77597,2,0,P|200:328|268:316,1,127.5,2|8,0:0|0:0,0:0:0:0:
336,260,78490,2,0,P|380:260|424:272,1,85,10|10,0:1|0:0,0:0:0:0:
496,324,79204,6,0,P|448:272|428:168,1,170,12|8,0:1|0:1,0:0:0:0:
456,88,80275,1,8,0:0:0:0:
364,108,80632,2,0,P|304:124|236:124,2,127.5,10|2|10,0:1|0:0|0:0,0:0:0:0:
428,40,82061,6,0,P|388:112|400:224,1,170,12|8,0:1|0:1,0:0:0:0:
424,284,83132,1,8,0:0:0:0:
332,272,83490,2,0,P|284:264|236:268,1,85,10|10,0:1|0:0,0:0:0:0:
160,300,84204,2,0,P|117:301|75:293,1,85,8|10,0:1|0:0,0:0:0:0:
256,192,84918,12,2,87731,0:0:0:0:
