osu file format v14

[General]
AudioFilename: audio.mp3
AudioLeadIn: 0
PreviewTime: 133857
Countdown: 0
SampleSet: None
StackLeniency: 0.7
Mode: 0
LetterboxInBreaks: 0
WidescreenStoryboard: 1

[Editor]
DistanceSpacing: 1.2
BeatDivisor: 4
GridSize: 4
TimelineZoom: 2.1

[Metadata]
Title:Contrail ~Kiseki~
TitleUnicode:Contrail~軌跡~
Artist:Mami Kawada
ArtistUnicode:川田まみ
Creator:Wou
Version:Hard
Source:蒼の彼方のフォーリズム
Tags:wou ao no kanata four rhythm arisaka mashiro full ver
BeatmapID:921689
BeatmapSetID:425461

[Difficulty]
HPDrainRate:5
CircleSize:4
OverallDifficulty:6
ApproachRate:8
SliderMultiplier:1.4
SliderTickRate:1

[Events]
//Background and Video events
0,0,"IN.jpg",0,0
//Break Periods
2,162717,175696
2,205396,213910
//Storyboard Layer 0 (Background)
//Storyboard Layer 1 (Fail)
//Storyboard Layer 2 (Pass)
//Storyboard Layer 3 (Foreground)
//Storyboard Sound Samples

[TimingPoints]
375,357.142857142857,4,2,1,45,1,0
375,-100,4,2,1,45,0,0
11803,-86.9565217391304,4,2,1,45,0,0
23232,-117.647058823529,4,2,1,45,0,0
28767,-100,4,2,1,45,0,0
61803,-86.9565217391304,4,2,1,75,0,1
78946,-86.9565217391304,4,2,1,75,0,0
96089,-100,4,2,2,75,0,0
97517,-100,4,2,1,75,0,0
118946,-117.647058823529,4,2,1,75,0,0
128053,-100,4,2,1,75,0,0
134660,-86.9565217391304,4,2,1,80,0,1
151803,-100,4,2,1,80,0,0
214660,-86.9565217391304,4,2,1,60,0,1
220374,-71.4285714285714,4,2,1,60,0,1
220910,-83.3333333333333,4,2,1,60,0,1
226089,-86.9565217391304,4,2,1,60,0,0
267517,-86.9565217391304,4,2,1,80,0,0
268232,-86.9565217391304,4,2,1,70,0,0
268946,-86.9565217391304,4,2,1,60,0,0
269660,-86.9565217391304,4,2,1,50,0,0
270374,-86.9565217391304,4,2,1,40,0,0
271089,-86.9565217391304,4,2,1,30,0,0
271803,-86.9565217391304,4,2,1,20,0,0
272517,-86.9565217391304,4,2,1,15,0,0
273232,-86.9565217391304,4,2,1,10,0,0
275017,-86.9565217391304,4,2,1,5,0,0

[Colours]
Combo1 : 38,255,255
Combo2 : 179,179,179
Combo3 : 128,128,255
Combo4 : 167,48,231
Combo5 : 255,128,255
Combo6 : 244,240,85
Combo7 : 172,172,215

[HitObjects]
100,72,375,5,2,0:0:0:0:
100,72,732,2,0,L|184:72,1,70,0|2,0:0|0:0,0:0:0:0:
252,68,1267,1,0,0:0:0:0:
336,68,1624,1,2,0:0:0:0:
420,64,1982,1,0,0:0:0:0:
416,148,2339,2,0,L|404:292,1,140,2|0,0:0|0:0,0:0:0:0:
292,340,3232,5,2,0:0:0:0:
292,340,3589,2,0,L|292:264,1,70,0|2,0:0|0:0,0:0:0:0:
260,192,4124,1,0,0:0:0:0:
228,116,4482,2,0,B|264:92|264:92|316:112|368:92,2,140,2|0|2,0:0|0:0|0:0,0:0:0:0:
312,16,6089,5,2,0:0:0:0:
312,100,6267,1,0,0:0:0:0:
312,184,6446,1,0,0:0:0:0:
384,304,6803,2,0,B|304:336|248:300|248:300|244:332|212:368,1,210,0|2,0:0|0:0,0:0:0:0:
108,276,7696,5,0,0:0:0:0:
108,276,7874,2,0,L|112:192,1,70,2|2,0:0|0:0,0:0:0:0:
116,120,8232,1,2,0:0:0:0:
184,72,8410,1,2,0:0:0:0:
264,92,8589,1,0,0:0:0:0:
332,140,8767,5,0,0:0:0:0:
332,140,8857,1,0,0:0:0:0:
332,140,8946,1,2,0:0:0:0:
300,216,9124,2,0,P|364:216|376:208,1,70
444,180,9482,2,0,L|440:256,1,70
432,332,9839,1,2,0:0:0:0:
432,332,10196,5,8,0:0:0:0:
264,332,10553,1,8,0:0:0:0:
264,332,10732,2,0,L|184:332,1,70,8|8,0:0|0:0,0:0:0:0:
28,336,11267,1,0,0:0:0:0:
28,336,11357,1,0,0:0:0:0:
28,336,11446,1,8,0:0:0:0:
52,144,11803,6,0,P|92:152|136:140,1,80.5000015354157,4|0,0:0|0:0,0:0:0:0:
92,56,12160,2,0,P|132:48|172:56,1,80.5000015354157,8|0,0:0|0:0,0:0:0:0:
240,124,12517,2,0,L|256:40,1,80.5000015354157
352,60,12874,1,8,0:0:0:0:
352,60,13232,6,0,L|348:152,1,80.5000015354157
336,236,13589,1,8,0:0:0:0:
248,280,13767,1,0,0:0:0:0:
196,200,13946,2,0,P|160:228|148:268,1,80.5000015354157
144,356,14303,1,8,0:0:0:0:
144,356,14660,5,0,0:0:0:0:
232,316,14839,1,0,0:0:0:0:
240,220,15017,2,0,P|196:224|164:244,1,80.5000015354157,8|0,0:0|0:0,0:0:0:0:
96,312,15374,2,0,L|88:224,1,80.5000015354157
84,136,15732,1,8,0:0:0:0:
84,40,15910,1,0,0:0:0:0:
180,44,16089,6,0,P|232:52|264:44,1,80.5000015354157
352,24,16446,2,0,L|348:112,1,80.5000015354157,8|0,0:0|0:0,0:0:0:0:
340,200,16803,1,0,0:0:0:0:
268,264,16982,1,0,0:0:0:0:
172,244,17160,2,0,P|128:240|92:216,1,80.5000015354157,8|0,0:0|0:0,0:0:0:0:
60,132,17517,5,0,0:0:0:0:
156,148,17696,1,0,0:0:0:0:
244,184,17874,2,0,P|260:144|296:116,1,80.5000015354157,8|0,0:0|0:0,0:0:0:0:
376,80,18232,2,0,L|368:164,1,80.5000015354157
360,256,18589,1,8,0:0:0:0:
308,336,18767,1,0,0:0:0:0:
212,332,18946,6,0,L|128:332,2,80.5000015354157,0|0|8,0:0|0:0|0:0,0:0:0:0:
308,336,19482,1,0,0:0:0:0:
404,328,19660,2,0,P|456:336|492:328,1,80.5000015354157
448,240,20017,1,8,0:0:0:0:
448,240,20374,5,8,0:0:0:0:
424,148,20553,1,8,0:0:0:0:
252,64,20910,5,8,0:0:0:0:
248,160,21089,1,8,0:0:0:0:
96,280,21446,5,8,0:0:0:0:
192,280,21624,1,8,0:0:0:0:
384,276,21982,5,8,0:0:0:0:
288,276,22160,1,8,0:0:0:0:
192,272,22339,5,0,0:0:0:0:
192,272,22428,1,0,0:0:0:0:
192,272,22517,1,8,0:0:0:0:
120,204,22696,1,0,0:0:0:0:
120,108,22874,1,12,0:0:0:0:
120,108,23232,5,2,0:0:0:0:
216,108,23410,1,0,0:0:0:0:
312,108,23589,1,2,0:0:0:0:
436,180,23946,1,2,0:0:0:0:
308,240,24303,6,0,L|176:240,2,119.000002269745
380,240,25196,1,0,0:0:0:0:
228,88,25732,6,0,P|172:88|120:48,2,119.000002269745
304,56,26624,2,0,L|296:188,1,119.000002269745
288,256,27160,1,0,0:0:0:0:
288,256,27339,2,0,P|332:256|380:192,1,119.000002269745
392,120,27874,5,2,0:0:0:0:
228,84,28232,1,0,0:0:0:0:
72,140,28589,1,8,0:0:0:0:
72,140,28767,6,0,P|60:96|72:4,1,140,4|0,0:0|0:0,0:0:0:0:
144,72,29303,2,0,L|220:72,1,70,8|0,0:0|0:0,0:0:0:0:
300,76,29660,1,0,0:0:0:0:
356,140,29839,1,0,0:0:0:0:
296,196,30017,1,8,0:0:0:0:
296,196,30196,6,0,L|292:336,1,140
208,336,30732,1,8,0:0:0:0:
208,336,30910,2,0,P|164:328|132:340,1,70
56,344,31267,2,0,L|60:264,1,70,0|8,0:0|0:0,0:0:0:0:
68,192,31624,6,0,P|112:204|208:192,1,140
280,156,32160,1,8,0:0:0:0:
356,124,32339,2,0,L|348:204,1,70
340,276,32696,1,0,0:0:0:0:
272,324,32874,1,8,0:0:0:0:
188,336,33053,6,0,P|192:292|184:188,1,140
164,116,33589,1,8,0:0:0:0:
140,36,33767,1,0,0:0:0:0:
140,36,34124,5,0,0:0:0:0:
140,120,34303,1,8,0:0:0:0:
140,204,34482,1,0,0:0:0:0:
140,288,34660,2,0,L|136:364,2,70,0|0|8,0:0|0:0|0:0,0:0:0:0:
148,120,35374,5,0,0:0:0:0:
228,88,35553,1,0,0:0:0:0:
304,120,35732,2,0,P|340:112|380:120,1,70,8|0,0:0|0:0,0:0:0:0:
344,196,36089,2,0,L|340:280,1,70
276,320,36446,1,8,0:0:0:0:
224,256,36624,6,0,P|165:220|99:235,1,140
64,312,37160,1,8,0:0:0:0:
144,336,37339,1,0,0:0:0:0:
228,336,37517,2,0,P|288:332|368:336,1,140,0|8,0:0|0:0,0:0:0:0:
452,344,38053,2,0,P|444:296|452:196,1,140
460,120,38589,1,8,0:0:0:0:
460,120,38767,6,0,L|320:120,1,140
236,120,39303,1,8,0:0:0:0:
152,124,39482,1,0,0:0:0:0:
192,196,39660,1,0,0:0:0:0:
148,268,39839,1,0,0:0:0:0:
100,336,40017,1,8,0:0:0:0:
100,336,40196,6,0,L|240:336,1,140,4|0,0:0|0:0,0:0:0:0:
324,336,40732,2,0,P|328:296|344:264,1,70,8|0,0:0|0:0,0:0:0:0:
388,200,41089,1,0,0:0:0:0:
444,264,41267,2,0,L|440:344,1,70,0|8,0:0|0:0,0:0:0:0:
356,320,41624,6,0,B|304:308|304:308|264:328|204:324,1,140
136,320,42160,1,8,0:0:0:0:
68,272,42339,2,0,B|84:224|72:172|72:172|108:192,1,140
184,224,42874,1,8,0:0:0:0:
260,260,43053,6,0,P|264:200|324:136,1,140,4|0,0:0|0:0,0:0:0:0:
396,120,43589,2,0,L|392:208,1,70,8|0,0:0|0:0,0:0:0:0:
388,272,43946,1,0,0:0:0:0:
372,352,44124,2,0,P|328:344|300:352,1,70,0|8,0:0|0:0,0:0:0:0:
220,364,44482,2,0,L|212:212,1,140
204,140,45017,1,8,0:0:0:0:
204,140,45196,1,0,0:0:0:0:
56,60,45553,5,2,0:0:0:0:
136,36,45732,1,2,0:0:0:0:
196,96,45910,1,2,0:0:0:0:
156,172,46089,1,0,0:0:0:0:
156,172,46446,5,0,0:0:0:0:
156,256,46624,1,8,0:0:0:0:
156,256,46982,5,0,0:0:0:0:
240,256,47160,1,0,0:0:0:0:
324,256,47339,1,0,0:0:0:0:
408,256,47517,2,0,B|496:256|496:256|508:272|500:312,1,140
432,352,48053,1,0,0:0:0:0:
432,352,48232,6,0,L|284:352,1,140
208,352,48767,1,0,0:0:0:0:
144,296,48946,2,0,P|124:340|128:364,1,70
44,352,49303,1,0,0:0:0:0:
44,352,49482,6,0,L|48:208,1,140,8|0,0:0|0:0,0:0:0:0:
52,128,50017,1,0,0:0:0:0:
96,56,50196,1,0,0:0:0:0:
180,44,50374,2,0,L|176:120,1,70
176,200,50732,2,0,P|224:200|248:208,1,70
316,252,51089,2,0,P|328:208|344:176,1,70
388,116,51446,1,0,0:0:0:0:
396,124,51982,5,0,0:0:0:0:
396,124,52071,1,0,0:0:0:0:
396,124,52160,2,0,L|392:264,1,140,12|0,0:0|0:0,0:0:0:0:
364,344,52696,2,0,P|324:336|292:344,1,70,0|8,0:0|0:0,0:0:0:0:
212,348,53053,2,0,P|216:312|176:220,1,140
104,176,53589,2,0,L|108:256,1,70,8|0,0:0|0:0,0:0:0:0:
52,136,53946,2,0,L|56:216,1,70
12,100,54303,2,0,L|16:176,1,70,8|0,0:0|0:0,0:0:0:0:
12,100,54660,5,0,0:0:0:0:
92,72,54839,1,0,0:0:0:0:
172,100,55017,1,8,0:0:0:0:
256,92,55196,2,0,B|308:88|344:96|400:92,1,140
480,92,55732,1,8,0:0:0:0:
480,92,55910,2,0,P|472:152|484:240,1,140
476,316,56446,6,0,L|404:316,1,70,8|0,0:0|0:0,0:0:0:0:
324,324,56803,2,0,P|328:280|320:248,1,70
244,220,57160,2,0,L|244:296,1,70,8|0,0:0|0:0,0:0:0:0:
164,320,57517,6,0,L|168:244,1,70,8|0,0:0|0:0,0:0:0:0:
100,296,57874,2,0,L|104:216,1,70,8|0,0:0|0:0,0:0:0:0:
36,276,58232,2,0,L|40:200,1,70,8|0,0:0|0:0,0:0:0:0:
48,124,58589,5,8,0:0:0:0:
48,124,58678,1,0,0:0:0:0:
48,124,58767,2,0,L|124:124,1,70,8|0,0:0|0:0,0:0:0:0:
204,124,59124,5,8,0:0:0:0:
288,124,59303,1,8,0:0:0:0:
288,124,59660,5,8,0:0:0:0:
288,208,59839,1,8,0:0:0:0:
288,208,60196,5,8,0:0:0:0:
288,208,60285,1,8,0:0:0:0:
288,208,60374,1,8,0:0:0:0:
292,292,60553,5,8,0:0:0:0:
372,316,60732,1,8,0:0:0:0:
444,272,60910,1,8,0:0:0:0:
444,188,61089,2,0,L|448:112,1,70
376,48,61446,2,0,L|376:128,1,70
312,188,61803,6,0,B|268:200|200:168|236:168|200:192|152:192,1,161.000003070831,4|0,0:0|0:0,0:0:0:0:
144,96,62339,2,0,P|180:80|228:80,1,80.5000015354157
308,32,62696,2,0,L|288:116,1,80.5000015354157,0|8,0:0|0:0,0:0:0:0:
260,200,63053,6,0,P|316:196|432:204,1,161.000003070831
496,264,63589,1,8,0:0:0:0:
400,284,63767,2,0,B|356:292|356:292|316:292,1,80.5000015354157
224,284,64124,1,0,0:0:0:0:
128,276,64303,1,8,0:0:0:0:
128,276,64482,6,0,B|124:232|124:232|132:188|132:188|124:144|132:112,1,161.000003070831
128,20,65017,2,0,P|184:28|212:56,1,80.5000015354157,8|0,0:0|0:0,0:0:0:0:
264,116,65374,2,0,P|296:88|344:64,1,80.5000015354157
424,44,65732,1,8,0:0:0:0:
424,44,65910,6,0,L|420:128,1,80.5000015354157
408,220,66267,2,0,P|352:224|324:240,1,80.5000015354157,0|8,0:0|0:0,0:0:0:0:
248,284,66624,2,0,L|252:120,1,161.000003070831
252,28,67160,2,0,P|300:36|340:28,1,80.5000015354157,8|0,0:0|0:0,0:0:0:0:
428,24,67517,6,0,L|420:184,1,161.000003070831,0|8,0:0|0:0,0:0:0:0:
408,280,68053,1,0,0:0:0:0:
320,324,68232,1,0,0:0:0:0:
236,276,68410,2,0,P|192:268|152:280,1,80.5000015354157,0|8,0:0|0:0,0:0:0:0:
76,328,68767,6,0,L|84:168,1,161.000003070831
100,72,69303,2,0,P|152:80|192:72,1,80.5000015354157,8|0,0:0|0:0,0:0:0:0:
272,44,69660,1,0,0:0:0:0:
264,140,69839,1,0,0:0:0:0:
256,236,70017,1,8,0:0:0:0:
244,332,70196,6,0,B|288:328|312:340|312:340|364:320|404:344,1,161.000003070831
496,364,70732,2,0,L|492:272,1,80.5000015354157,8|0,0:0|0:0,0:0:0:0:
468,188,71089,1,0,0:0:0:0:
468,188,71267,2,0,P|392:200|332:140,1,161.000003070831
260,84,71803,6,0,L|248:172,1,80.5000015354157
200,248,72160,1,0,0:0:0:0:
200,248,72339,2,0,B|248:264|296:252|296:252|328:264|364:244,1,161.000003070831
444,208,72874,1,8,0:0:0:0:
364,152,73053,1,0,0:0:0:0:
268,144,73232,6,0,B|216:152|216:152|184:136|184:136|140:152|88:136,1,161.000003070831,4|8,0:0|0:0,0:0:0:0:
20,120,73767,2,0,L|40:32,1,80.5000015354157
132,56,74124,1,0,0:0:0:0:
228,36,74303,1,8,0:0:0:0:
228,36,74482,6,0,P|276:60|388:40,1,161.000003070831
472,24,75017,2,0,L|472:116,1,80.5000015354157,8|0,0:0|0:0,0:0:0:0:
464,200,75374,1,0,0:0:0:0:
404,276,75553,1,0,0:0:0:0:
308,280,75732,1,8,0:0:0:0:
308,280,75910,6,0,P|312:224|328:192,1,80.5000015354157
392,132,76267,1,0,0:0:0:0:
448,56,76446,2,0,P|392:60|300:12,1,161.000003070831,8|0,0:0|0:0,0:0:0:0:
204,20,76982,1,0,0:0:0:0:
136,88,77160,1,8,0:0:0:0:
136,88,77339,6,0,B|128:152|128:152|136:192|136:192|124:224|128:252,1,161.000003070831
120,344,77874,2,0,P|168:340|196:320,1,80.5000015354157,8|0,0:0|0:0,0:0:0:0:
272,268,78232,2,0,L|268:356,1,80.5000015354157
364,348,78589,1,8,0:0:0:0:
448,300,78767,1,0,0:0:0:0:
476,208,78946,6,0,P|424:216|388:208,1,80.5000015354157,6|0,0:0|0:0,0:0:0:0:
312,168,79303,2,0,L|312:252,1,80.5000015354157,10|0,0:0|0:0,0:0:0:0:
300,344,79660,1,0,0:0:0:0:
204,348,79839,2,0,P|188:296|200:248,1,80.5000015354157,2|8,0:0|0:0,0:0:0:0:
244,192,80196,1,0,0:0:0:0:
276,100,80374,1,0,0:0:0:0:
276,100,80553,2,0,B|232:100|232:100|192:108,1,80.5000015354157,0|8,0:0|0:0,0:0:0:0:
108,148,80910,6,0,P|100:92|172:20,1,161.000003070831
264,20,81446,2,0,L|272:104,1,80.5000015354157,8|0,0:0|0:0,0:0:0:0:
284,196,81803,2,0,P|320:172|448:164,1,161.000003070831,0|10,0:0|0:0,0:0:0:0:
488,240,82339,1,0,0:0:0:0:
392,256,82517,2,0,P|340:284|304:280,1,80.5000015354157,0|2,0:0|0:0,0:0:0:0:
236,232,82874,2,0,L|228:316,1,80.5000015354157,8|0,0:0|0:0,0:0:0:0:
140,356,83232,6,0,P|136:312|48:240,1,161.000003070831,0|8,0:0|0:0,0:0:0:0:
44,336,83767,2,0,B|92:296|92:296|120:296|120:296|176:244,1,161.000003070831
248,188,84303,1,8,0:0:0:0:
344,208,84482,1,0,0:0:0:0:
420,152,84660,6,0,L|416:240,1,80.5000015354157,4|0,0:0|0:0,0:0:0:0:
496,180,85017,1,8,0:0:0:0:
472,88,85196,2,0,P|456:44|456:8,1,80.5000015354157
364,40,85553,2,0,P|308:48|284:40,1,80.5000015354157,0|8,0:0|0:0,0:0:0:0:
188,44,85910,1,0,0:0:0:0:
108,100,86089,6,0,P|140:132|180:136,1,80.5000015354157
260,96,86446,2,0,L|256:256,1,161.000003070831,8|0,0:0|0:0,0:0:0:0:
256,352,86982,1,0,0:0:0:0:
256,352,87160,2,0,L|344:340,1,80.5000015354157,8|0,0:0|0:0,0:0:0:0:
388,260,87517,6,0,L|304:256,1,80.5000015354157,6|0,0:0|0:0,0:0:0:0:
212,244,87874,2,0,P|208:192|284:120,1,161.000003070831,8|0,0:0|0:0,0:0:0:0:
304,216,88410,1,0,0:0:0:0:
376,280,88589,2,0,P|384:240|416:208,1,80.5000015354157,8|0,0:0|0:0,0:0:0:0:
488,156,88946,6,0,L|484:244,2,80.5000015354157,0|0|8,0:0|0:0|0:0,0:0:0:0:
484,60,89482,2,0,P|424:72|320:56,1,161.000003070831
236,24,90017,2,0,L|228:112,1,80.5000015354157,8|0,0:0|0:0,0:0:0:0:
208,200,90374,2,0,P|268:196|296:200,2,80.5000015354157,0|0|8,0:0|0:0|0:0,0:0:0:0:
248,288,90910,6,0,P|328:288|388:232,1,161.000003070831
340,152,91446,2,0,P|296:184|292:216,1,80.5000015354157,8|0,0:0|0:0,0:0:0:0:
248,288,91803,2,0,P|304:284|332:288,2,80.5000015354157,0|0|8,0:0|0:0|0:0,0:0:0:0:
168,344,92339,2,0,L|172:184,1,161.000003070831
172,88,92874,1,8,0:0:0:0:
172,88,93232,5,8,0:0:0:0:
268,88,93410,1,8,0:0:0:0:
172,256,93767,5,8,0:0:0:0:
168,352,93945,1,8,0:0:0:0:
336,256,94303,5,8,0:0:0:0:
432,256,94482,1,8,0:0:0:0:
332,92,94839,5,8,0:0:0:0:
236,92,95017,1,8,0:0:0:0:
232,188,95196,5,0,0:0:0:0:
232,188,95285,1,0,0:0:0:0:
232,188,95374,1,8,0:0:0:0:
232,284,95553,1,2,0:0:0:0:
316,236,95732,1,6,0:0:0:0:
368,76,96089,6,0,L|288:88,1,70,2|0,0:0|0:0,0:0:0:0:
248,168,96446,2,0,L|328:176,1,70,2|0,0:0|0:0,0:0:0:0:
408,212,96803,2,0,L|392:284,1,70,2|0,0:0|0:0,0:0:0:0:
312,332,97160,2,0,L|312:256,1,70,2|0,0:0|0:0,0:0:0:0:
296,164,97517,6,0,P|252:176|220:168,1,70
152,108,97874,2,0,L|148:188,1,70
144,276,98232,2,0,P|188:268|224:276,1,70
296,320,98589,2,0,P|296:280|304:248,1,70
360,172,98946,6,0,P|400:180|440:172,1,70
468,88,99303,2,0,L|392:88,1,70
300,68,99660,2,0,P|304:108|296:148,1,70
256,224,100017,1,0,0:0:0:0:
256,224,100196,6,0,P|300:208|392:228,1,140
480,264,100732,1,0,0:0:0:0:
396,316,100910,1,0,0:0:0:0:
296,316,101089,1,0,0:0:0:0:
200,292,101267,1,0,0:0:0:0:
176,196,101446,1,0,0:0:0:0:
176,196,101624,6,0,B|180:152|180:152|224:116|272:120,1,140,4|0,0:0|0:0,0:0:0:0:
364,132,102160,2,0,L|352:204,1,70,8|0,0:0|0:0,0:0:0:0:
288,276,102517,1,0,0:0:0:0:
288,276,102696,2,0,L|260:204,1,70,0|8,0:0|0:0,0:0:0:0:
267,119,103053,6,0,P|323:139|399:115,1,140
452,36,103589,1,8,0:0:0:0:
356,48,103767,2,0,B|320:60|320:60|288:48|256:28|216:64,1,140
156,128,104303,1,8,0:0:0:0:
220,200,104482,6,0,P|216:244|220:276,1,70
260,360,104839,2,0,P|304:356|344:360,2,70,0|8|0,0:0|0:0|0:0,0:0:0:0:
164,352,105374,1,0,0:0:0:0:
164,352,105553,2,0,P|160:300|160:272,1,70,0|8,0:0|0:0,0:0:0:0:
164,184,105910,6,0,P|212:152|216:68,1,140
124,96,106446,1,8,0:0:0:0:
124,96,106624,2,0,L|36:96,2,70
224,100,107160,1,8,0:0:0:0:
316,140,107339,1,0,0:0:0:0:
372,220,107517,2,0,L|364:296,1,70
304,364,107874,6,0,B|320:328|320:328|420:328,1,140,8|0,0:0|0:0,0:0:0:0:
492,260,108410,1,0,0:0:0:0:
428,184,108589,2,0,P|384:200|348:196,1,70,8|0,0:0|0:0,0:0:0:0:
268,172,108946,6,0,P|292:136|384:112,1,140,0|8,0:0|0:0,0:0:0:0:
476,132,109482,2,0,P|452:168|428:188,1,70
392,276,109839,2,0,P|344:272|312:276,1,70,0|8,0:0|0:0,0:0:0:0:
224,292,110196,1,0,0:0:0:0:
132,256,110374,6,0,P|144:216|128:112,1,140,0|8,0:0|0:0,0:0:0:0:
60,188,110910,1,0,0:0:0:0:
72,284,111089,2,0,P|108:280|152:284,1,70
240,292,111446,1,8,0:0:0:0:
240,292,111624,2,0,L|316:288,1,70
388,224,111982,2,0,L|316:208,1,70,0|8,0:0|0:0,0:0:0:0:
228,172,112339,1,0,0:0:0:0:
180,88,112517,1,0,0:0:0:0:
264,36,112696,2,0,P|312:44|344:32,1,70,0|8,0:0|0:0,0:0:0:0:
428,28,113053,6,0,L|420:176,1,140,6|0,0:0|0:0,0:0:0:0:
416,264,113589,1,8,0:0:0:0:
356,340,113767,1,0,0:0:0:0:
260,320,113946,2,0,P|216:324|180:320,2,70,0|0|8,0:0|0:0|0:0,0:0:0:0:
228,228,114482,6,0,P|224:184|228:80,1,140
288,12,115017,1,8,0:0:0:0:
336,96,115196,1,0,0:0:0:0:
284,176,115374,2,0,P|280:224|284:252,1,70
316,336,115732,1,8,0:0:0:0:
396,280,115910,6,0,B|376:228|396:164|396:164|368:184,1,140
284,176,116446,1,8,0:0:0:0:
192,204,116624,1,0,0:0:0:0:
116,144,116803,1,0,0:0:0:0:
192,84,116982,2,0,P|232:88|280:80,1,70,0|8,0:0|0:0,0:0:0:0:
356,60,117339,6,0,P|360:96|360:200,1,140
340,296,117874,1,8,0:0:0:0:
252,336,118053,2,0,P|232:296|140:268,1,140
52,292,118589,1,10,0:0:0:0:
56,196,118767,1,2,0:0:0:0:
68,108,118946,6,0,B|108:104|108:104|132:104,1,59.5000011348725,2|0,0:0|0:0,0:0:0:0:
216,104,119303,1,0,0:0:0:0:
304,104,119482,1,0,0:0:0:0:
484,100,119839,5,0,0:0:0:0:
472,188,120017,1,0,0:0:0:0:
452,276,120196,2,0,B|440:328|440:328|484:376,1,119.000002269745
360,352,120732,2,0,P|320:360|288:352,1,59.5000011348725
212,340,121089,2,0,L|216:216,1,119.000002269745
220,132,121624,1,0,0:0:0:0:
232,44,121803,2,0,P|272:52|312:44,1,59.5000011348725
380,36,122160,1,0,0:0:0:0:
380,36,122339,6,0,L|376:160,1,119.000002269745
392,244,122874,1,0,0:0:0:0:
308,212,123053,2,0,P|280:180|280:160,1,59.5000011348725
288,76,123410,1,0,0:0:0:0:
376,96,123589,1,0,0:0:0:0:
464,76,123767,1,0,0:0:0:0:
460,164,123946,2,0,L|456:232,1,59.5000011348725
448,312,124303,1,0,0:0:0:0:
456,320,124839,5,0,0:0:0:0:
456,320,124928,1,0,0:0:0:0:
456,320,125017,2,0,L|328:320,1,119.000002269745,4|0,0:0|0:0,0:0:0:0:
248,316,125553,1,0,0:0:0:0:
172,268,125732,1,8,0:0:0:0:
200,184,125910,2,0,P|224:152|208:68,1,119.000002269745
92,112,126446,6,0,P|120:120|156:120,1,59.5000011348725,8|0,0:0|0:0,0:0:0:0:
223,18,126803,2,0,P|215:50|215:82,1,59.5000011348725
200,184,127160,2,0,P|232:168|268:164,1,59.5000011348725,8|0,0:0|0:0,0:0:0:0:
344,164,127517,1,0,0:0:0:0:
344,164,127696,1,0,0:0:0:0:
408,224,127874,1,8,0:0:0:0:
320,280,128053,6,0,B|276:296|276:296|184:276,1,140
92,240,128589,1,8,0:0:0:0:
92,240,128767,2,0,P|96:204|88:156,1,70
72,76,129124,1,0,0:0:0:0:
168,68,129303,6,0,P|228:80|260:72,1,70,8|0,0:0|0:0,0:0:0:0:
328,48,129660,2,0,P|324:88|328:124,1,70
316,216,130017,2,0,P|356:204|400:220,1,70,8|0,0:0|0:0,0:0:0:0:
448,284,130374,6,0,P|448:240|464:216,1,70,8|0,0:0|0:0,0:0:0:0:
480,124,130732,2,0,L|408:128,1,70,8|0,0:0|0:0,0:0:0:0:
296,72,131089,2,0,L|368:60,1,70,8|0,0:0|0:0,0:0:0:0:
460,40,131446,5,8,0:0:0:0:
460,40,131624,1,6,0:0:0:0:
388,224,131982,5,8,0:0:0:0:
388,224,132160,1,8,0:0:0:0:
196,256,132517,5,8,0:0:0:0:
96,256,132696,1,8,0:0:0:0:
208,96,133053,5,8,0:0:0:0:
208,96,133142,1,8,0:0:0:0:
208,96,133232,1,8,0:0:0:0:
304,112,133410,5,8,0:0:0:0:
280,208,133589,1,8,0:0:0:0:
352,276,133767,2,0,L|424:288,1,70,8|0,0:0|0:0,0:0:0:0:
288,348,134124,2,0,L|212:336,1,70
124,316,134482,1,0,0:0:0:0:
124,316,134660,6,0,P|120:268|32:204,1,161.000003070831,6|8,0:0|0:0,0:0:0:0:
32,296,135196,2,0,P|68:272|108:252,1,80.5000015354157
204,208,135553,2,0,P|204:248|200:288,1,80.5000015354157,0|8,0:0|0:0,0:0:0:0:
296,344,135910,2,0,B|304:304|304:304|320:264|320:264|320:184,1,161.000003070831
312,76,136446,2,0,P|268:84|224:76,1,80.5000015354157,8|0,0:0|0:0,0:0:0:0:
128,36,136803,2,0,L|132:128,1,80.5000015354157
136,228,137160,1,8,0:0:0:0:
136,228,137339,6,0,P|196:216|296:228,1,161.000003070831
400,260,137874,1,8,0:0:0:0:
316,332,138053,1,0,0:0:0:0:
204,328,138232,2,0,P|208:280|220:244,1,80.5000015354157
272,152,138589,1,8,0:0:0:0:
272,152,138767,6,0,P|204:156|176:148,1,80.5000015354157
88,108,139124,2,0,L|88:192,1,80.5000015354157,0|8,0:0|0:0,0:0:0:0:
88,304,139482,2,0,B|128:296|128:296|176:312|176:312|256:304,1,161.000003070831
344,252,140017,2,0,P|352:296|380:320,1,80.5000015354157,8|0,0:0|0:0,0:0:0:0:
452,232,140374,2,0,P|432:188|432:148,1,80.5000015354157
452,44,140732,1,8,0:0:0:0:
452,44,140910,2,0,B|392:56|392:56|324:48|324:48|288:48,1,161.000003070831
180,44,141446,1,8,0:0:0:0:
140,148,141624,6,0,P|184:164|300:148,1,161.000003070831
400,108,142160,2,0,L|396:188,1,80.5000015354157,8|0,0:0|0:0,0:0:0:0:
316,268,142517,1,0,0:0:0:0:
208,228,142696,1,0,0:0:0:0:
100,260,142874,1,8,0:0:0:0:
20,180,143053,6,0,P|28:140|56:104,1,80.5000015354157
140,40,143410,2,0,P|148:80|172:120,1,80.5000015354157,0|8,0:0|0:0,0:0:0:0:
248,196,143767,1,0,0:0:0:0:
336,124,143946,2,0,P|332:176|340:212,1,80.5000015354157
332,304,144303,1,8,0:0:0:0:
332,304,144482,6,0,P|380:288|488:300,1,161.000003070831
412,368,145017,1,8,0:0:0:0:
304,336,145196,1,0,0:0:0:0:
184,344,145374,1,0,0:0:0:0:
88,300,145553,2,0,P|96:260|88:220,1,80.5000015354157,0|8,0:0|0:0,0:0:0:0:
72,112,145910,1,0,0:0:0:0:
72,112,146089,6,0,B|128:124|196:104|196:104|176:136,1,161.000003070831,0|8,0:0|0:0,0:0:0:0:
192,232,146624,2,0,P|236:236|280:224,1,80.5000015354157
360,124,146982,2,0,P|356:184|364:208,1,80.5000015354157,0|8,0:0|0:0,0:0:0:0:
416,312,147339,2,0,B|432:272|432:272|304:272,1,161.000003070831
212,268,147874,1,8,0:0:0:0:
212,268,148232,6,0,L|216:184,1,80.5000015354157
224,76,148589,1,8,0:0:0:0:
224,76,148767,2,0,P|272:80|312:72,1,80.5000015354157
408,32,149124,2,0,L|408:116,1,80.5000015354157,0|8,0:0|0:0,0:0:0:0:
420,224,149482,2,0,L|332:224,2,80.5000015354157
464,328,150017,1,8,0:0:0:0:
356,360,150196,6,0,P|308:352|256:252,1,161.000003070831
368,252,150732,1,8,0:0:0:0:
448,172,150910,1,0,0:0:0:0:
348,120,151089,1,0,0:0:0:0:
236,128,151267,2,0,L|156:128,2,80.5000015354157,0|8|0,0:0|0:0|0:0,0:0:0:0:
256,224,151803,6,0,P|248:272|308:332,1,140,6|8,0:0|0:0,0:0:0:0:
348,244,152339,2,0,L|420:220,1,70
476,144,152696,1,0,0:0:0:0:
380,136,152874,2,0,B|336:116|336:116|312:112,1,70,8|0,0:0|0:0,0:0:0:0:
216,100,153232,1,0,0:0:0:0:
216,100,153410,2,0,L|212:180,1,70,0|8,0:0|0:0,0:0:0:0:
212,268,153767,6,0,P|264:256|356:272,1,140
436,312,154303,1,8,0:0:0:0:
436,312,154482,2,0,P|440:260|448:224,1,70
468,148,154839,1,0,0:0:0:0:
372,148,155017,2,0,P|328:152|296:136,1,70,8|0,0:0|0:0,0:0:0:0:
220,92,155374,1,0,0:0:0:0:
124,68,155553,2,0,L|128:152,1,70,0|8,0:0|0:0,0:0:0:0:
128,236,155910,1,0,0:0:0:0:
128,236,156089,6,0,P|184:228|272:244,1,140,0|8,0:0|0:0,0:0:0:0:
344,300,156624,2,0,P|364:264|396:236,1,70
448,168,156982,2,0,P|408:168|376:160,1,70,0|8,0:0|0:0,0:0:0:0:
288,124,157339,1,0,0:0:0:0:
204,72,157517,6,0,L|192:152,1,70
160,232,157874,2,0,L|240:248,1,70
288,328,158232,2,0,L|208:352,1,70
124,360,158589,2,0,P|128:304|144:276,1,70
172,200,158946,2,0,P|176:152|168:120,1,70
136,40,159303,2,0,P|184:48|212:40,1,70
300,36,159660,2,0,L|292:112,1,70
272,200,160017,2,0,L|356:192,1,70
440,188,160374,5,8,0:0:0:0:
440,188,160553,1,8,0:0:0:0:
272,288,160910,5,8,0:0:0:0:
272,288,161089,1,8,0:0:0:0:
96,200,161446,5,8,0:0:0:0:
96,200,161624,1,8,0:0:0:0:
260,88,161982,5,8,0:0:0:0:
260,88,162160,1,8,0:0:0:0:
268,284,162517,1,2,0:0:0:0:
268,284,176446,6,0,P|268:248|320:144,1,140,8|0,0:0|0:0,0:0:0:0:
388,40,177160,2,0,P|328:52|244:44,1,140
184,24,177696,1,8,0:0:0:0:
72,108,178053,5,0,0:0:0:0:
128,152,178232,2,0,P|176:144|272:160,1,140,8|0,0:0|0:0,0:0:0:0:
332,180,178767,1,8,0:0:0:0:
284,312,179124,5,0,0:0:0:0:
232,264,179303,2,0,P|192:260|92:268,1,140,8|0,0:0|0:0,0:0:0:0:
36,308,179839,1,0,0:0:0:0:
96,344,180017,2,0,P|140:352|172:344,1,70,8|0,0:0|0:0,0:0:0:0:
232,324,180374,5,0,0:0:0:0:
296,300,180553,1,8,0:0:0:0:
288,160,180910,5,0,0:0:0:0:
288,160,181089,1,8,0:0:0:0:
152,120,181446,5,0,0:0:0:0:
152,120,181624,2,0,L|148:264,1,140,8|0,0:0|0:0,0:0:0:0:
140,328,182160,2,0,L|216:336,1,70,8|0,0:0|0:0,0:0:0:0:
276,320,182517,2,0,L|356:328,1,70,8|0,0:0|0:0,0:0:0:0:
412,308,182874,1,8,0:0:0:0:
436,244,183053,1,0,0:0:0:0:
412,180,183232,1,0,0:0:0:0:
412,180,183410,6,0,P|352:184|264:176,1,140,8|0,0:0|0:0,0:0:0:0:
204,160,183946,1,8,0:0:0:0:
92,76,184303,5,0,0:0:0:0:
92,76,184482,1,8,0:0:0:0:
232,68,184839,5,0,0:0:0:0:
300,68,185017,1,8,0:0:0:0:
368,84,185196,1,0,0:0:0:0:
368,84,185374,2,0,P|360:128|364:228,1,140,8|0,0:0|0:0,0:0:0:0:
368,292,185910,1,0,0:0:0:0:
304,324,186089,1,8,0:0:0:0:
236,308,186267,1,0,0:0:0:0:
236,308,186446,2,0,P|192:304|148:276,1,70,0|8,0:0|0:0,0:0:0:0:
32,264,186982,6,0,P|44:224|64:196,1,70,0|8,0:0|0:0,0:0:0:0:
100,144,187339,2,0,P|144:156|180:144,1,70
236,132,187696,1,8,0:0:0:0:
236,132,187874,2,0,L|232:212,1,70
224,272,188232,1,8,0:0:0:0:
216,340,188410,1,0,0:0:0:0:
216,340,188589,2,0,P|260:336|356:348,1,140,0|8,0:0|0:0,0:0:0:0:
424,356,189124,5,0,0:0:0:0:
468,300,189303,1,0,0:0:0:0:
432,240,189482,2,0,P|380:244|356:236,1,70,8|0,0:0|0:0,0:0:0:0:
308,196,189839,2,0,P|260:184|236:192,1,70,0|8,0:0|0:0,0:0:0:0:
176,212,190196,1,0,0:0:0:0:
128,260,190374,1,0,0:0:0:0:
92,320,190553,2,0,L|160:348,1,70,8|0,0:0|0:0,0:0:0:0:
296,336,191089,1,8,0:0:0:0:
388,228,191446,1,8,0:0:0:0:
332,100,191803,6,0,P|288:100|252:96,1,70,8|0,0:0|0:0,0:0:0:0:
196,68,192160,2,0,L|192:148,1,70,0|8,0:0|0:0,0:0:0:0:
192,208,192517,2,0,L|272:208,2,70,0|0|8,0:0|0:0|0:0,0:0:0:0:
52,232,193232,2,0,P|52:188|68:152,1,70,0|8,0:0|0:0,0:0:0:0:
104,100,193589,6,0,P|148:104|180:92,1,70
236,68,193946,2,0,L|248:148,1,70,8|0,0:0|0:0,0:0:0:0:
288,196,194303,2,0,P|344:208|380:196,1,70
424,192,194660,6,0,L|428:276,1,70,8|0,0:0|0:0,0:0:0:0:
380,312,195017,2,0,L|304:320,1,70
240,308,195374,2,0,L|168:296,1,70
112,256,195732,2,0,L|112:184,1,70,8|0,0:0|0:0,0:0:0:0:
124,116,196089,6,0,P|168:120|208:116,1,70
264,116,196446,2,0,L|272:192,1,70,8|0,0:0|0:0,0:0:0:0:
296,252,196803,2,0,P|336:248|384:252,1,70
420,296,197160,2,0,P|392:328|380:360,1,70,8|0,0:0|0:0,0:0:0:0:
312,352,197517,6,0,L|240:352,1,70
172,348,197874,2,0,P|172:308|192:272,1,70,8|0,0:0|0:0,0:0:0:0:
192,212,198232,2,0,P|148:216|116:208,1,70
56,188,198589,2,0,L|64:112,1,70,8|0,0:0|0:0,0:0:0:0:
100,56,198946,6,0,P|156:64|196:56,1,70
240,64,199303,2,0,L|236:136,1,70,8|0,0:0|0:0,0:0:0:0:
236,204,199660,2,0,P|288:200|312:204,1,70
360,248,200017,2,0,P|332:272|296:272,1,70,8|0,0:0|0:0,0:0:0:0:
232,272,200374,6,0,L|224:352,1,70
156,356,200732,2,0,L|80:352,1,70,8|0,0:0|0:0,0:0:0:0:
68,284,201089,2,0,L|144:264,1,70,8|0,0:0|0:0,0:0:0:0:
148,196,201446,2,0,L|72:176,1,70,8|0,0:0|0:0,0:0:0:0:
64,112,201803,6,0,P|120:96|136:96,1,70
200,96,202160,2,0,L|280:96,1,70,8|0,0:0|0:0,0:0:0:0:
340,104,202517,2,0,P|380:116|420:136,1,70,8|0,0:0|0:0,0:0:0:0:
428,196,202874,2,0,P|420:232|432:264,1,70,8|0,0:0|0:0,0:0:0:0:
456,328,203232,6,0,L|380:336,1,70,8|0,0:0|0:0,0:0:0:0:
316,324,203589,2,0,L|240:332,1,70,8|0,0:0|0:0,0:0:0:0:
176,316,203946,2,0,L|104:324,1,70,8|0,0:0|0:0,0:0:0:0:
36,328,204303,1,8,0:0:0:0:
36,328,204482,5,10,0:0:0:0:
36,328,204839,5,10,0:0:0:0:
44,260,205017,1,10,0:0:0:0:
52,192,205196,1,10,0:0:0:0:
152,72,214660,6,0,B|216:68|216:68|316:72,1,161.000003070831,4|0,0:0|0:0,0:0:0:0:
404,100,215196,2,0,P|396:144|400:184,1,80.5000015354157
360,268,215553,2,0,P|320:280|272:272,1,80.5000015354157,0|8,0:0|0:0,0:0:0:0:
192,240,215910,6,0,B|140:236|140:236|104:228|124:188|124:188|76:188,1,161.000003070831
40,276,216446,1,8,0:0:0:0:
112,340,216624,1,0,0:0:0:0:
208,324,216803,1,0,0:0:0:0:
300,292,216982,2,0,L|384:300,2,80.5000015354157,0|8|0,0:0|0:0|0:0,0:0:0:0:
224,232,217517,5,0,0:0:0:0:
216,136,217696,2,0,B|248:92|248:92|284:80,1,80.5000015354157,0|8,0:0|0:0,0:0:0:0:
368,76,218053,1,0,0:0:0:0:
464,76,218232,1,0,0:0:0:0:
464,76,218410,2,0,B|484:116|484:116|484:160,1,80.5000015354157,0|8,0:0|0:0,0:0:0:0:
480,232,218767,1,0,0:0:0:0:
252,176,219303,5,8,0:0:0:0:
200,248,219482,2,0,B|248:264|296:252|296:252|328:264|364:244,1,161.000003070831
444,208,220017,1,8,0:0:0:0:
364,152,220196,1,0,0:0:0:0:
268,144,220374,6,0,B|216:152|184:136|184:136|140:184|88:136,1,195.999994018555,0|8,0:0|0:0,0:0:0:0:
20,120,220910,2,0,L|40:32,1,80.5000015354157
132,56,221267,1,0,0:0:0:0:
228,36,221446,1,8,0:0:0:0:
228,36,221624,6,0,P|280:84|388:40,1,167.999994873047
472,24,222160,2,0,L|468:112,1,83.9999974365235,8|0,0:0|0:0,0:0:0:0:
448,208,222517,1,0,0:0:0:0:
400,296,222696,1,0,0:0:0:0:
308,280,222874,1,8,0:0:0:0:
308,280,223053,6,0,P|312:224|328:192,1,80.5000015354157
392,132,223410,1,0,0:0:0:0:
448,56,223589,2,0,P|392:72|300:12,1,167.999994873047,8|0,0:0|0:0,0:0:0:0:
204,20,224124,1,0,0:0:0:0:
136,88,224303,1,8,0:0:0:0:
136,88,224482,6,0,B|128:152|136:192|136:192|108:224|128:252,1,167.999994873047
120,344,225017,2,0,P|168:340|196:320,1,80.5000015354157,8|0,0:0|0:0,0:0:0:0:
272,268,225374,2,0,L|268:356,1,80.5000015354157
364,348,225732,1,8,0:0:0:0:
448,300,225910,1,0,0:0:0:0:
476,208,226089,6,0,P|424:216|388:208,1,80.5000015354157,2|0,0:0|0:0,0:0:0:0:
312,168,226446,2,0,L|312:248,1,80.5000015354157,8|0,0:0|0:0,0:0:0:0:
300,344,226803,1,0,0:0:0:0:
204,348,226982,2,0,P|188:296|200:248,1,80.5000015354157,0|8,0:0|0:0,0:0:0:0:
244,192,227339,1,0,0:0:0:0:
276,100,227517,1,0,0:0:0:0:
276,100,227696,2,0,B|232:100|232:100|192:108,1,80.5000015354157,0|8,0:0|0:0,0:0:0:0:
108,148,228053,6,0,P|96:92|172:20,1,161.000003070831
268,19,228589,2,0,L|276:103,1,80.5000015354157,8|0,0:0|0:0,0:0:0:0:
284,196,228946,2,0,P|320:172|448:164,1,161.000003070831,0|8,0:0|0:0,0:0:0:0:
488,240,229482,1,0,0:0:0:0:
392,256,229660,2,0,P|340:284|304:280,1,80.5000015354157
236,232,230017,2,0,L|228:316,1,80.5000015354157,8|0,0:0|0:0,0:0:0:0:
140,356,230375,6,0,P|136:312|48:240,1,161.000003070831,0|8,0:0|0:0,0:0:0:0:
40,336,230910,2,0,P|88:320|160:232,1,161.000003070831
192,148,231446,1,0,0:0:0:0:
364,232,231803,5,0,0:0:0:0:
380,40,232160,1,8,0:0:0:0:
196,92,232517,1,0,0:0:0:0:
208,284,232874,1,8,0:0:0:0:
388,208,233232,5,0,0:0:0:0:
256,68,233589,1,8,0:0:0:0:
100,180,233946,1,0,0:0:0:0:
292,196,234303,1,8,0:0:0:0:
132,308,234660,1,0,0:0:0:0:
324,296,235017,1,8,0:0:0:0:
448,148,235374,1,0,0:0:0:0:
276,60,235732,1,8,0:0:0:0:
84,80,236089,5,0,0:0:0:0:
140,264,236446,1,8,0:0:0:0:
320,196,236803,1,0,0:0:0:0:
152,104,237160,5,8,0:0:0:0:
152,104,237339,2,0,P|196:108|244:96,1,80.5000015354157
324,72,237696,2,0,P|324:140|328:152,1,80.5000015354157,0|8,0:0|0:0,0:0:0:0:
368,240,238053,2,0,B|324:240|324:240|288:252|192:248,1,161.000003070831
112,232,238589,1,8,0:0:0:0:
56,156,238767,2,0,P|104:144|132:116,1,80.5000015354157
188,48,239124,5,0,0:0:0:0:
256,120,239303,1,8,0:0:0:0:
244,216,239482,1,0,0:0:0:0:
260,312,239660,1,0,0:0:0:0:
352,336,239839,2,0,P|376:296|408:284,1,80.5000015354157,0|8,0:0|0:0,0:0:0:0:
464,208,240196,6,0,P|424:204|388:176,1,80.5000015354157
336,104,240553,2,0,P|292:100|248:112,1,80.5000015354157,0|8,0:0|0:0,0:0:0:0:
164,140,240910,1,0,0:0:0:0:
196,232,241089,1,0,0:0:0:0:
120,288,241267,2,0,B|152:312|152:312|216:320,1,80.5000015354157,0|8,0:0|0:0,0:0:0:0:
280,324,241624,1,0,0:0:0:0:
368,328,241803,5,0,0:0:0:0:
388,232,241982,1,0,0:0:0:0:
340,148,242160,2,0,P|296:144|256:124,1,80.5000015354157,8|0,0:0|0:0,0:0:0:0:
180,80,242517,2,0,L|176:168,2,80.5000015354157,0|0|8,0:0|0:0|0:0,0:0:0:0:
96,32,243053,1,0,0:0:0:0:
96,32,243232,6,0,L|88:204,1,161.000003070831,0|8,0:0|0:0,0:0:0:0:
84,288,243767,2,0,P|136:288|176:296,1,80.5000015354157
260,308,244124,2,0,P|284:272|324:256,1,80.5000015354157,0|8,0:0|0:0,0:0:0:0:
416,252,244482,2,0,B|404:188|404:188|408:88,1,161.000003070831
416,12,245017,1,8,0:0:0:0:
416,12,245374,5,0,0:0:0:0:
452,104,245553,1,0,0:0:0:0:
368,152,245732,1,8,0:0:0:0:
368,152,245910,2,0,B|320:156|320:156|276:152,1,80.5000015354157
200,116,246267,2,0,P|200:164|176:192,1,80.5000015354157,0|8,0:0|0:0,0:0:0:0:
144,280,246624,2,0,P|204:276|232:280,1,80.5000015354157
320,292,246982,2,0,P|368:288|408:280,1,80.5000015354157,0|8,0:0|0:0,0:0:0:0:
464,212,247339,6,0,P|472:264|500:372,1,161.000003070831
404,352,247874,1,8,0:0:0:0:
220,296,248232,1,0,0:0:0:0:
32,340,248589,1,8,0:0:0:0:
92,156,248946,6,0,P|132:160|192:148,1,80.5000015354157
256,108,249303,2,0,P|256:156|272:188,1,80.5000015354157,8|0,0:0|0:0,0:0:0:0:
352,236,249660,2,0,P|404:220|440:232,1,80.5000015354157
484,148,250017,2,0,L|404:140,2,80.5000015354157,8|0|0,0:0|0:0|0:0,0:0:0:0:
480,52,250553,2,0,B|432:36|432:36|400:36,1,80.5000015354157,0|8,0:0|0:0,0:0:0:0:
304,28,250910,6,0,P|304:72|228:160,1,161.000003070831
128,148,251446,1,8,0:0:0:0:
136,156,251624,1,0,0:0:0:0:
136,156,251803,6,0,L|128:320,1,161.000003070831,0|8,0:0|0:0,0:0:0:0:
224,328,252339,2,0,P|264:316|308:316,1,80.5000015354157
396,284,252696,2,0,L|384:372,1,80.5000015354157,0|8,0:0|0:0,0:0:0:0:
472,316,253053,2,0,L|488:224,1,80.5000015354157
472,140,253410,1,0,0:0:0:0:
408,68,253589,1,8,0:0:0:0:
408,68,253767,2,0,P|352:76|248:56,1,161.000003070831
156,28,254303,2,0,L|160:120,1,80.5000015354157,8|0,0:0|0:0,0:0:0:0:
80,164,254660,6,0,P|112:196|156:200,1,80.5000015354157,4|0,0:0|0:0,0:0:0:0:
220,264,255017,2,0,P|264:252|312:264,1,80.5000015354157,8|0,0:0|0:0,0:0:0:0:
396,248,255374,2,0,P|404:204|420:156,1,80.5000015354157
432,76,255732,2,0,P|368:80|336:72,1,80.5000015354157,8|0,0:0|0:0,0:0:0:0:
260,44,256089,6,0,L|252:136,2,80.5000015354157,0|0|8,0:0|0:0|0:0,0:0:0:0:
164,52,256624,2,0,P|144:96|120:120,1,80.5000015354157
96,212,256982,2,0,P|148:208|192:216,1,80.5000015354157,0|8,0:0|0:0,0:0:0:0:
272,224,257339,1,0,0:0:0:0:
272,224,257428,1,0,0:0:0:0:
272,224,257517,1,0,0:0:0:0:
360,268,257696,2,0,P|372:224|416:188,1,80.5000015354157,0|8,0:0|0:0,0:0:0:0:
448,116,258053,2,0,P|392:120|296:56,1,161.000003070831
216,32,258589,6,0,L|212:116,1,80.5000015354157,8|0,0:0|0:0,0:0:0:0:
164,196,258946,2,0,P|208:212|240:208,2,80.5000015354157,0|0|8,0:0|0:0|0:0,0:0:0:0:
84,140,259482,2,0,L|80:312,1,161.000003070831
168,340,260017,1,8,0:0:0:0:
312,212,260374,6,0,P|364:208|400:212,2,80.5000015354157,0|0|8,0:0|0:0|0:0,0:0:0:0:
216,224,260910,2,0,P|208:176|216:52,1,161.000003070831
304,24,261446,2,0,P|308:72|320:112,1,80.5000015354157,8|0,0:0|0:0,0:0:0:0:
372,180,261803,6,0,L|288:200,1,80.5000015354157
244,280,262160,2,0,L|328:280,1,80.5000015354157,8|0,0:0|0:0,0:0:0:0:
420,288,262517,1,0,0:0:0:0:
476,208,262696,1,0,0:0:0:0:
448,116,262874,1,8,0:0:0:0:
448,116,263232,5,8,0:0:0:0:
448,116,263410,1,0,0:0:0:0:
260,68,263767,5,8,0:0:0:0:
228,160,263946,1,0,0:0:0:0:
228,352,264303,5,8,0:0:0:0:
324,336,264482,1,0,0:0:0:0:
372,148,264839,5,8,0:0:0:0:
296,204,265017,1,0,0:0:0:0:
200,200,265196,1,2,0:0:0:0:
200,200,265285,1,2,0:0:0:0:
200,200,265374,1,2,0:0:0:0:
136,128,265553,5,0,0:0:0:0:
140,32,265732,1,12,0:0:0:0:
256,192,267517,12,6,275017,0:0:0:0:
