osu file format v14

[General]
AudioFilename: audio.mp3
AudioLeadIn: 0
PreviewTime: 61322
Countdown: 0
SampleSet: Soft
StackLeniency: 0.6
Mode: 0
LetterboxInBreaks: 0
WidescreenStoryboard: 1

[Editor]
Bookmarks: 1143,3465,21143,29000,45429,67929
DistanceSpacing: 2
BeatDivisor: 4
GridSize: 4
TimelineZoom: 4.199998

[Metadata]
Title:Contrail ~Kiseki~
TitleUnicode:Contrail ~軌跡~
Artist:Mami Kawada
ArtistUnicode:川田まみ
Creator:Ruruchin
Version:Extra
Source:蒼の彼方のフォーリズム
Tags:Aokana Rika Ao no Kanata no Four Rhythm Across the Blue Kurashina Asuka Arisaka Mashiro
BeatmapID:901571
BeatmapSetID:415385

[Difficulty]
HPDrainRate:6.5
CircleSize:4.3
OverallDifficulty:8.5
ApproachRate:9.3
SliderMultiplier:1.8
SliderTickRate:1

[Events]
//Background and Video events
0,0,"BGEX.jpg",0,0
Video,0,"VideoBG.mp4"
//Break Periods
//Storyboard Layer 0 (Background)
//Storyboard Layer 1 (Fail)
//Storyboard Layer 2 (Pass)
//Storyboard Layer 3 (Foreground)
//Storyboard Sound Samples

[TimingPoints]
608,357.142857142857,4,1,1,100,1,0
608,-181.818181818181,4,2,1,40,0,0
1143,-181.818181818181,4,2,1,40,0,0
2215,-181.818181818181,4,2,1,40,0,0
2572,-181.818181818181,4,2,3,40,0,0
3465,-181.818181818181,4,2,1,40,0,0
4715,-181.818181818181,4,2,1,40,0,0
5429,-185.185185185185,4,2,3,40,0,0
6322,-125,4,2,1,60,0,0
7393,-125,4,2,1,60,0,0
10250,-99.9999999999999,4,2,1,60,0,0
12036,-99.9999999999999,4,2,1,60,0,0
12750,-99.9999999999999,4,2,1,60,0,0
14536,-99.9999999999999,4,2,1,60,0,0
16143,-99.9999999999999,4,2,1,60,0,0
20072,-99.9999999999999,4,2,1,60,0,0
20608,-99.9999999999999,4,2,1,60,0,0
21143,-99.9999999999999,4,2,1,60,0,0
21679,-99.9999999999999,4,2,1,60,0,0
22215,-99.9999999999999,4,2,1,60,0,0
23465,-142.857142857143,4,2,1,50,0,0
28822,-99.9999999999999,4,2,1,60,0,0
29000,-111.111111111111,4,2,1,60,0,0
29536,-100,4,2,1,60,0,0
34536,-100,4,2,1,60,0,0
37750,-105.263157894737,4,2,1,60,0,0
40429,-111.111111111111,4,2,1,60,0,0
45429,-111.111111111111,4,2,1,60,0,0
46322,-111.111111111111,4,2,5,50,0,0
50786,-111.111111111111,4,2,5,50,0,0
52215,-111.111111111111,4,2,5,60,0,0
57750,-111.111111111111,4,2,1,60,0,0
59179,-111.111111111111,4,2,1,60,0,0
61322,-83.3333333333333,4,2,1,60,0,0
62036,-83.3333333333333,4,2,1,80,0,1
69893,-83.3333333333333,4,2,1,80,0,1
73643,-83.3333333333333,4,2,1,80,0,1
79179,-83.3333333333333,4,2,1,80,0,1
84893,-83.3333333333333,4,2,1,40,0,0
87393,-83.3333333333333,4,2,1,40,0,0
87661,-125,4,2,63,35,0,0
87750,-125,4,2,70,45,0,0
87840,-125,4,2,63,30,0,0

[Colours]
Combo1 : 109,243,95
Combo2 : 248,214,78
Combo3 : 248,203,241
Combo4 : 137,248,234
Combo5 : 239,50,54

[HitObjects]
464,324,608,6,0,P|408:332|359:313,1,99.0000030212403
312,264,1143,2,0,P|278:223|228:212,1,99.0000030212403
228,128,1857,6,0,P|269:103|288:56,2,99.0000030212403,0|0|4,0:0|0:0|0:0,0:0:0:0:
478,107,3465,6,0,P|430:86|383:90,1,99.0000030212403
312,96,4000,2,0,P|263:89|219:48,1,99.0000030212403
140,96,4715,6,0,P|98:137|88:180,1,99.0000030212403
196,312,5429,2,0,B|177:272|202:245|202:245|171:220|132:168|196:124|240:160|212:192,1,218.700005339356,4|0,0:0|0:0,0:0:0:0:
232,192,6322,6,0,P|272:200|308:192,1,72
376,44,6679,1,0,0:0:0:0:
408,136,6857,1,0,0:0:0:0:
308,112,7036,1,0,0:0:0:0:
332,264,7215,2,0,P|364:244|376:204,1,72
312,50,7572,6,0,L|300:210,1,144
188,208,8107,1,0,0:0:0:0:
244,284,8286,1,0,0:0:0:0:
332,264,8465,1,0,0:0:0:0:
271,357,8643,2,0,P|234:362|186:332,1,72
109,229,9000,1,0,0:0:0:0:
109,229,9090,1,0,0:0:0:0:
109,229,9179,6,0,P|92:197|97:150,1,72
355,92,9536,2,0,P|327:60|286:50,1,72
216,84,9893,1,0,0:0:0:0:
266,238,10072,1,0,0:0:0:0:
168,182,10250,1,0,0:0:0:0:
266,238,10429,6,0,P|323:227|348:188,1,90,8|0,0:0|0:0,0:0:0:0:
310,31,10786,1,8,0:0:0:0:
279,164,10965,1,0,0:0:0:0:
400,104,11143,1,2,0:0:0:0:
488,314,11500,1,8,0:0:0:0:
374,341,11679,1,2,0:0:0:0:
325,322,11768,1,2,0:0:0:0:
312,264,11857,1,2,0:0:0:0:
359,229,11947,1,2,0:0:0:0:
416,235,12036,6,0,P|464:207|472:159,1,90,8|2,0:0|0:0,0:0:0:0:
363,45,12393,1,8,0:0:0:0:
399,159,12572,1,2,0:0:0:0:
279,125,12750,1,2,0:0:0:0:
212,276,12929,1,2,0:0:0:0:
279,125,13107,1,10,0:0:0:0:
373,297,13286,1,2,0:0:0:0:
228,352,13465,6,0,P|180:348|140:308,1,90,2|2,0:0|0:0,0:0:0:0:
56,184,13822,2,0,P|104:184|144:204,1,90,10|2,0:0|0:0,0:0:0:0:
228,352,14179,1,10,0:1:0:0:
373,297,14357,1,2,0:0:0:0:
373,297,14447,1,2,0:0:0:0:
373,297,14536,1,8,0:0:0:0:
176,264,14715,1,2,0:0:0:0:
317,345,14893,5,2,0:0:0:0:
156,192,15072,1,2,0:0:0:0:
299,223,15250,1,8,0:0:0:0:
68,209,15429,2,0,L|156:193,1,90,2|2,0:0|0:0,0:0:0:0:
384,304,15786,1,2,0:0:0:0:
376,128,15965,1,8,0:0:0:0:
208,276,16143,1,2,0:0:0:0:
376,128,16322,6,0,L|356:20,1,90,2|2,0:0|0:0,0:0:0:0:
216,220,16679,2,0,L|200:320,1,90,8|2,0:0|0:0,0:0:0:0:
320,296,17036,1,2,0:0:0:0:
120,172,17215,1,2,0:0:0:0:
120,172,17304,1,2,0:0:0:0:
120,172,17393,1,8,0:0:0:0:
256,60,17572,1,0,0:0:0:0:
400,188,17750,5,2,0:0:0:0:
300,320,17929,1,2,0:0:0:0:
140,276,18107,2,0,P|112:232|112:192,1,90,8|2,0:0|0:0,0:0:0:0:
300,320,18465,1,2,0:0:0:0:
300,320,18643,1,2,0:0:0:0:
278,149,18822,1,10,0:0:0:0:
412,56,19000,1,2,0:0:0:0:
472,211,19179,6,0,P|426:233|374:218,1,90,2|2,0:0|0:0,0:0:0:0:
160,124,19536,2,0,P|200:100|256:104,1,90,8|2,0:0|0:0,0:0:0:0:
418,156,19893,1,2,0:0:0:0:
252,288,20072,1,2,0:0:0:0:
160,124,20250,1,10,0:0:0:0:
288,160,20429,1,2,0:0:0:0:
244,336,20607,5,12,0:0:0:0:
436,48,20786,1,10,0:0:0:0:
432,336,21143,5,12,0:0:0:0:
244,48,21322,1,10,0:0:0:0:
476,212,21679,5,12,0:0:0:0:
92,212,21857,1,10,0:0:0:0:
244,48,22215,5,10,0:0:0:0:
244,340,22393,1,12,0:0:0:0:
92,152,22572,5,8,0:1:0:0:
92,152,22661,1,8,0:1:0:0:
92,152,22750,2,0,P|36:160|-8:144,1,90,8|0,0:0|0:0,0:0:0:0:
184,152,23107,2,0,P|248:184|256:248,1,135,8|0,0:0|0:0,0:0:0:0:
268,268,23465,6,0,P|251:283|204:300,1,62.9999980773926
336,320,23822,2,0,P|384:332|420:328,1,62.9999980773926
432,256,24179,2,0,P|412:232|400:192,1,62.9999980773926
336,136,24536,2,0,P|304:128|268:104,1,62.9999980773926
184,124,24893,6,0,P|136:116|108:120,1,62.9999980773926
40,192,25250,1,0,0:0:0:0:
104,276,25429,2,0,P|160:300|268:236,1,188.999994232178
328,144,26143,1,0,0:0:0:0:
152,120,26322,6,0,P|120:118|89:122,1,62.9999980773926
240,149,26679,1,0,0:0:0:0:
328,144,26857,2,0,P|376:128|400:108,1,62.9999980773926
472,56,27215,1,0,0:0:0:0:
512,160,27393,1,0,0:0:0:0:
444,248,27572,1,0,0:0:0:0:
340,216,27750,5,0,0:0:0:0:
314,120,27929,1,0,0:0:0:0:
220,152,28107,1,0,0:0:0:0:
208,248,28286,1,0,0:0:0:0:
280,312,28465,5,0,0:0:0:0:
379,286,28643,1,0,0:0:0:0:
400,208,28822,1,0,0:0:0:0:
400,208,29000,6,0,L|380:28,1,161.999995056153,8|0,0:0|0:0,0:0:0:0:
324,224,29536,2,0,P|348:272|392:288,1,90,8|0,0:0|0:0,0:0:0:0:
492,300,29893,1,10,0:0:0:0:
380,164,30072,2,0,P|332:144|284:152,1,90
120,128,30429,6,0,B|132:192|132:192|124:256|124:256|152:316,1,180,8|0,0:0|0:0,0:0:0:0:
200,100,30965,2,0,P|180:60|132:44,1,90,8|0,0:0|0:0,0:0:0:0:
145,301,31322,1,10,0:0:0:0:
288,140,31500,1,8,0:1:0:0:
278,310,31679,1,8,0:0:0:0:
396,216,31857,6,0,L|400:124,1,90,8|0,0:0|0:0,0:0:0:0:
288,140,32215,1,8,0:1:0:0:
332,260,32393,2,0,P|380:296|424:292,1,90,10|0,0:0|0:0,0:0:0:0:
396,216,32750,1,2,0:0:0:0:
278,310,32929,2,0,P|232:328|191:317,1,90,8|2,0:0|0:0,0:0:0:0:
397,325,33286,6,0,B|389:297|381:257|381:257|405:213|401:145,1,180,2|2,0:0|0:0,0:0:0:0:
312,48,33822,1,8,0:0:0:0:
136,144,34000,2,0,B|176:140|196:84|196:84|216:140|268:148,1,180,2|2,0:0|0:0,0:0:0:0:
128,236,34536,2,0,P|72:220|48:188,1,90,10|2,0:0|0:0,0:0:0:0:
124,324,34893,6,0,P|172:316|208:200,1,180,2|8,0:0|0:0,0:0:0:0:
148,128,35429,1,2,0:0:0:0:
300,296,35607,1,2,0:0:0:0:
316,148,35786,1,2,0:0:0:0:
420,255,35965,2,0,P|453:231|467:182,1,90,8|2,0:0|0:0,0:0:0:0:
300,296,36322,5,2,0:0:0:0:
248,84,36500,1,0,0:0:0:0:
183,219,36679,1,8,0:0:0:0:
316,148,36857,2,0,P|340:108|336:56,1,90,0|2,0:0|0:0,0:0:0:0:
300,296,37215,1,2,0:0:0:0:
411,217,37393,2,0,P|443:179|448:131,1,90,8|2,0:1|0:0,0:0:0:0:
300,296,37750,6,0,B|264:296|224:284|224:284|184:292|144:296|108:292,1,170.999995433807,2|8,0:0|0:0,0:0:0:0:
60,246,38286,2,0,P|76:230|148:214,1,85.4999977169037
300,296,38643,2,0,P|277:323|221:334,1,85.4999977169037,0|8,0:0|0:0,0:0:0:0:
125,327,39000,1,2,0:0:0:0:
125,327,39090,1,2,0:0:0:0:
125,327,39179,5,0,0:1:0:0:
242,217,39357,1,0,0:0:0:0:
52,162,39536,1,10,0:0:0:0:
248,80,39715,1,2,0:0:0:0:
248,80,39804,1,2,0:0:0:0:
248,80,39893,5,8,0:1:0:0:
128,184,40072,1,8,0:1:0:0:
400,240,40250,1,8,0:0:0:0:
152,176,40429,6,0,L|168:4,1,161.999995056153,8|0,0:0|0:0,0:0:0:0:
404,312,40965,2,0,P|368:330|329:326,1,80.9999975280763,10|0,0:0|0:0,0:0:0:0:
180,240,41322,1,10,0:0:0:0:
368,48,41500,1,8,0:0:0:0:
366,216,41679,1,8,0:0:0:0:
104,280,41857,6,0,P|153:327|245:293,1,161.999995056153,8|0,0:1|0:0,0:0:0:0:
428,168,42393,2,0,P|386:142|340:144,1,80.9999975280763,8|0,0:0|0:0,0:0:0:0:
180,240,42750,1,10,0:0:0:0:
152,60,42929,1,8,0:0:0:0:
366,216,43107,1,8,0:0:0:0:
228,308,43286,6,0,P|154:325|98:246,1,161.999995056153,12|0,0:1|0:0,0:0:0:0:
171,139,43822,2,0,P|211:119|231:75,1,80.9999975280763,8|2,0:0|0:0,0:0:0:0:
302,249,44179,1,10,0:0:0:0:
444,112,44357,1,8,0:1:0:0:
482,277,44536,1,8,0:0:0:0:
359,189,44715,6,0,P|323:141|351:37,1,161.999995056153,8|0,0:0|0:0,0:0:0:0:
232,228,45250,1,8,0:0:0:0:
96,72,45429,2,0,B|112:120|112:120|104:184|104:184|120:248,1,161.999995056153,2|2,0:0|0:0,0:0:0:0:
256,304,45965,1,10,0:0:0:0:
368,192,46143,1,8,0:1:0:0:
452,352,46322,6,0,L|444:260,1,80.9999975280763
452,176,46679,1,2,0:0:0:0:
384,108,46857,1,10,0:2:0:0:
148,88,47215,5,8,0:1:0:0:
116,296,47393,1,2,0:0:0:0:
256,172,47572,1,2,0:0:0:0:
256,172,47661,1,2,0:0:0:0:
256,172,47750,1,8,0:1:0:0:
48,228,47929,1,0,0:0:0:0:
258,102,48107,1,0,0:0:0:0:
230,287,48286,5,8,0:1:0:0:
336,147,48465,1,8,0:0:0:0:
376,320,48643,1,8,0:1:0:0:
230,287,48822,2,0,P|208:256|208:196,1,80.9999975280763
112,128,49179,6,0,P|180:88|260:104,1,161.999995056153,8|0,0:1|0:0,0:0:0:0:
336,147,49715,1,8,0:0:0:0:
100,324,50072,1,8,0:1:0:0:
230,287,50250,1,2,0:0:0:0:
220,152,50429,1,2,0:0:0:0:
220,152,50518,1,2,0:0:0:0:
220,152,50607,5,8,0:1:0:0:
340,80,50786,1,0,0:0:0:0:
340,80,50875,1,0,0:0:0:0:
340,80,50965,1,0,0:0:0:0:
248,172,51143,1,8,0:1:0:0:
420,192,51322,1,8,0:0:0:0:
248,172,51500,1,8,0:1:0:0:
420,192,51679,6,0,L|408:108,1,80.9999975280763
288,32,52036,1,0,0:0:0:0:
352,232,52215,1,0,0:0:0:0:
364,248,52304,1,0,0:0:0:0:
376,260,52394,6,0,P|412:276|468:264,1,80.9999975280763,12|0,0:1|0:0,0:0:0:0:
264,352,52750,1,8,0:1:0:0:
328,120,52929,1,0,0:0:0:0:
184,264,53107,1,8,0:0:0:0:
428,204,53286,6,0,P|472:120|448:60,1,161.999995056153,4|0,0:1|0:0,0:0:0:0:
264,96,53822,2,0,P|244:136|252:196,1,80.9999975280763,8|0,0:0|0:0,0:0:0:0:
316,296,54179,2,0,P|368:312|416:296,1,80.9999975280763
500,192,54536,1,8,0:0:0:0:
344,64,54715,1,0,0:0:0:0:
280,248,54893,5,8,0:1:0:0:
188,68,55072,1,8,0:1:0:0:
80,224,55250,1,8,0:0:0:0:
280,248,55429,2,0,P|312:220|324:180,1,80.9999975280763
272,84,55786,1,8,0:1:0:0:
104,160,55965,1,8,0:0:0:0:
208,312,56143,6,0,P|248:332|288:332,1,80.9999975280763
212,152,56500,1,8,0:1:0:0:
372,292,56679,2,0,P|416:288|448:264,1,80.9999975280763,10|0,0:0|0:0,0:0:0:0:
344,60,57036,1,0,0:0:0:0:
208,232,57215,1,0,0:0:0:0:
360,216,57393,2,0,P|388:196|408:152,1,80.9999975280763,10|0,0:0|0:0,0:0:0:0:
186,53,57750,5,12,0:0:0:0:
308,320,57929,1,8,0:1:0:0:
323,53,58107,5,12,0:0:0:0:
186,318,58286,1,8,0:1:0:0:
488,254,58465,5,12,0:0:0:0:
248,160,58643,1,8,0:0:0:0:
248,160,58732,1,2,0:0:0:0:
248,160,58822,1,12,0:0:0:0:
308,320,59000,6,0,P|374:354|452:326,1,161.999995056153,12|0,0:1|0:0,0:0:0:0:
376,148,59536,1,10,0:1:0:0:
200,344,59893,1,10,0:1:0:0:
288,44,60072,1,10,0:1:0:0:
80,156,60429,5,10,0:1:0:0:
88,208,60518,1,10,0:1:0:0:
132,240,60607,1,10,0:1:0:0:
384,160,60786,1,10,0:1:0:0:
208,24,60965,1,10,0:1:0:0:
236,196,61143,1,10,0:1:0:0:
80,156,61322,5,0,0:0:0:0:
208,272,61500,1,0,0:0:0:0:
236,88,61679,1,0,0:0:0:0:
68,280,61857,1,0,0:0:0:0:
236,196,62036,6,0,L|236:72,1,107.999996704102,6|2,0:0|0:0,0:0:0:0:
96,192,62393,1,8,0:0:0:0:
312,156,62572,1,2,0:0:0:0:
204,308,62750,1,2,0:0:0:0:
252,116,62929,1,2,0:0:0:0:
402,260,63107,1,8,0:0:0:0:
168,100,63286,6,0,P|204:44|268:36,1,107.999996704102,2|2,0:0|0:0,0:0:0:0:
264,260,63643,1,2,0:0:0:0:
481,281,63822,2,0,P|420:340|380:336,1,107.999996704102,8|2,0:0|0:0,0:0:0:0:
358,193,64179,1,2,0:0:0:0:
144,208,64357,1,2,0:0:0:0:
312,40,64536,1,8,0:0:0:0:
432,256,64715,1,2,0:0:0:0:
432,256,64804,1,2,0:0:0:0:
432,256,64893,6,0,P|340:288|264:196,1,215.999993408203,10|10,0:1|0:0,0:0:0:0:
208,64,65429,1,2,0:0:0:0:
128,320,65607,1,2,0:0:0:0:
360,176,65786,1,2,0:0:0:0:
104,48,65965,1,10,0:0:0:0:
204,292,66143,1,2,0:0:0:0:
204,292,66232,1,2,0:0:0:0:
204,292,66322,5,10,0:1:0:0:
396,136,66500,2,0,P|340:84|312:80,1,107.999996704102,2|8,0:0|0:0,0:0:0:0:
288,296,66857,2,0,P|332:336|396:332,1,107.999996704102,2|2,0:0|0:0,0:0:0:0:
256,88,67215,1,2,0:0:0:0:
101,219,67393,1,2,0:0:0:0:
360,256,67572,1,10,0:0:0:0:
88,64,67750,6,0,B|104:116|104:116|88:172|88:172|104:228,1,161.999995056153,2|0,0:0|0:0,0:0:0:0:
112,240,68107,1,8,0:0:0:0:
280,356,68286,2,0,L|304:232,1,107.999996704102,2|2,0:0|0:0,0:0:0:0:
216,96,68643,1,2,0:0:0:0:
405,185,68822,1,8,0:0:0:0:
208,304,69000,2,0,P|144:312|100:288,1,107.999996704102,2|0,0:0|0:0,0:0:0:0:
120,124,69357,5,2,0:0:0:0:
280,216,69536,1,8,0:0:0:0:
352,80,69715,1,2,0:0:0:0:
136,208,69893,5,2,0:0:0:0:
288,312,70072,1,2,0:0:0:0:
424,232,70250,1,8,0:0:0:0:
230,182,70429,6,0,P|162:110|198:2,1,215.999993408203,2|2,0:0|0:0,0:0:0:0:
438,306,70965,2,0,P|406:346|342:354,1,107.999996704102,8|2,0:0|0:0,0:0:0:0:
230,182,71322,1,0,0:1:0:0:
92,328,71500,1,2,0:0:0:0:
244,68,71679,1,8,0:0:0:0:
372,292,71857,6,0,B|412:292|432:292|432:292|452:264|492:192|492:192|432:192,1,215.999993408203,2|2,0:0|0:0,0:0:0:0:
272,248,72393,1,8,0:0:0:0:
152,328,72572,2,0,B|112:328|92:328|92:328|72:300|32:228|32:228|92:228,1,215.999993408203,2|2,0:0|0:0,0:0:0:0:
372,292,73107,1,10,0:0:0:0:
164,208,73286,1,8,0:1:0:0:
304,36,73465,6,0,L|320:176,1,107.999996704102,2|2,0:0|0:0,0:0:0:0:
456,180,73822,1,10,0:0:0:0:
224,296,74000,1,2,0:0:0:0:
468,336,74179,1,2,0:0:0:0:
228,180,74357,1,2,0:0:0:0:
296,352,74536,1,10,0:0:0:0:
136,228,74715,1,2,0:0:0:0:
136,228,74804,1,2,0:0:0:0:
136,228,74893,6,0,L|120:116,1,107.999996704102,2|2,0:0|0:0,0:0:0:0:
316,356,75250,2,0,L|328:236,1,107.999996704102,10|2,0:0|0:0,0:0:0:0:
204,296,75607,1,2,0:0:0:0:
364,96,75786,1,2,0:0:0:0:
480,232,75965,1,10,0:0:0:0:
248,208,76143,1,2,0:0:0:0:
216,200,76232,1,2,0:0:0:0:
188,180,76322,6,0,P|156:128|164:72,1,107.999996704102,2|2,0:0|0:0,0:0:0:0:
332,64,76679,1,8,0:0:0:0:
340,256,76857,2,0,P|396:248|432:204,1,107.999996704102,0|2,0:0|0:0,0:0:0:0:
208,92,77215,2,0,P|156:104|124:160,1,107.999996704102,2|8,0:0|0:0,0:0:0:0:
104,320,77572,6,0,B|160:320|200:280|200:280|240:324|328:324,1,215.999993408203,8|0,0:0|0:0,0:0:0:0:
424,272,78107,1,10,0:0:0:0:
296,104,78286,1,0,0:0:0:0:
180,212,78465,1,10,0:1:0:0:
440,168,78643,1,8,0:1:0:0:
260,324,78822,1,10,0:0:0:0:
88,108,79000,1,0,0:0:0:0:
168,316,79179,6,0,L|196:96,1,215.999993408203,8|10,0:0|0:0,0:0:0:0:
296,184,79715,1,2,0:0:0:0:
56,208,79893,1,10,0:1:0:0:
220,24,80072,2,0,P|264:52|276:116,1,107.999996704102,2|8,0:0|0:0,0:0:0:0:
176,296,80429,1,2,0:0:0:0:
368,236,80607,5,10,0:1:0:0:
112,224,80786,1,2,0:0:0:0:
400,88,80965,1,10,0:0:0:0:
240,88,81143,1,2,0:0:0:0:
240,88,81232,1,2,0:0:0:0:
240,88,81322,1,10,0:1:0:0:
360,188,81500,1,2,0:0:0:0:
168,224,81679,1,10,0:0:0:0:
296,312,81857,1,0,0:0:0:0:
296,312,82036,6,0,L|420:320,1,107.999996704102,10|2,0:0|0:0,0:0:0:0:
296,144,82393,2,0,L|184:136,1,107.999996704102,8|2,0:0|0:0,0:0:0:0:
68,216,82750,1,8,0:1:0:0:
168,340,82929,2,0,P|207:311|222:251,1,107.999996704102,2|8,0:0|0:0,0:0:0:0:
168,124,83286,1,2,0:0:0:0:
168,124,83375,1,2,0:0:0:0:
168,124,83465,5,10,0:1:0:0:
316,32,83643,1,2,0:0:0:0:
308,240,83822,1,10,0:0:0:0:
464,108,84000,1,2,0:0:0:0:
464,108,84090,1,2,0:0:0:0:
464,108,84179,5,10,0:1:0:0:
384,304,84357,1,8,0:1:0:0:
256,124,84536,1,10,0:0:0:0:
64,224,84715,1,8,0:1:0:0:
256,44,84893,5,8,0:1:0:0:
184,92,85250,1,8,0:1:0:0:
472,192,85607,5,8,0:1:0:0:
420,124,85965,1,8,0:1:0:0:
256,344,86322,5,8,0:1:0:0:
328,300,86679,1,8,0:1:0:0:
40,192,87036,5,8,0:1:0:0:
68,112,87393,1,8,0:0:0:0:
256,192,87661,6,0,L|283:192,4,18,2|2|0|0|0,0:0|0:0|0:0|0:0|0:0,0:0:0:0:
